  0
SECTION
  2
HEADER
  9
$ACADVER
  1
AC1014
  9
$ACADMAINTVER
 70
           0
  9
$DWGCODEPAGE
  3
ANSI_1252
  9
$INSBASE
 10
0.0
 20
0.0
 30
0.0
  9
$EXTMIN
 10
1.000000000000E+20
 20
1.000000000000E+20
 30
1.000000000000E+20
  9
$EXTMAX
 10
-1.000000000000E+20
 20
-1.000000000000E+20
 30
-1.000000000000E+20
  9
$LIMMIN
 10
0.0
 20
0.0
  9
$LIMMAX
 10
0.0
 20
0.0
  9
$ORTHOMODE
 70
           0
  9
$REGENMODE
 70
           1
  9
$FILLMODE
 70
           1
  9
$QTEXTMODE
 70
           0
  9
$MIRRTEXT
 70
           1
  9
$DRAGMODE
 70
           2
  9
$LTSCALE
 40
1.0
  9
$OSMODE
 70
           0
  9
$ATTMODE
 70
           1
  9
$TEXTSIZE
 40
0.2
  9
$TRACEWID
 40
0.05
  9
$TEXTSTYLE
  7
STANDARD
  9
$CLAYER
  8
0
  9
$CELTYPE
  6
CONTINUOUS
  9
$CECOLOR
 62
         256
  9
$CELTSCALE
 40
1.0
  9
$DELOBJ
 70
           1
  9
$DISPSILH
 70
           0
  9
$DIMSCALE
 40
1.0
  9
$DIMASZ
 40
0.18
  9
$DIMEXO
 40
0.0625
  9
$DIMDLI
 40
0.38
  9
$DIMRND
 40
0.0
  9
$DIMDLE
 40
0.0
  9
$DIMEXE
 40
0.18
  9
$DIMTP
 40
0.0
  9
$DIMTM
 40
0.0
  9
$DIMTXT
 40
0.18
  9
$DIMCEN
 40
0.09
  9
$DIMTSZ
 40
0.0
  9
$DIMTOL
 70
           0
  9
$DIMLIM
 70
           0
  9
$DIMTIH
 70
           1
  9
$DIMTOH
 70
           1
  9
$DIMSE1
 70
           0
  9
$DIMSE2
 70
           0
  9
$DIMTAD
 70
           0
  9
$DIMZIN
 70
           0
  9
$DIMBLK
  1

  9
$DIMASO
 70
           1
  9
$DIMSHO
 70
           1
  9
$DIMPOST
  1

  9
$DIMAPOST
  1

  9
$DIMALT
 70
           0
  9
$DIMALTD
 70
           2
  9
$DIMALTF
 40
25.4
  9
$DIMLFAC
 40
1.0
  9
$DIMTOFL
 70
           0
  9
$DIMTVP
 40
0.0
  9
$DIMTIX
 70
           0
  9
$DIMSOXD
 70
           0
  9
$DIMSAH
 70
           0
  9
$DIMBLK1
  1

  9
$DIMBLK2
  1

  9
$DIMSTYLE
  2
STANDARD
  9
$DIMCLRD
 70
           0
  9
$DIMCLRE
 70
           0
  9
$DIMCLRT
 70
           0
  9
$DIMTFAC
 40
1.0
  9
$DIMGAP
 40
0.09
  9
$DIMJUST
 70
           0
  9
$DIMSD1
 70
           0
  9
$DIMSD2
 70
           0
  9
$DIMTOLJ
 70
           1
  9
$DIMTZIN
 70
           0
  9
$DIMALTZ
 70
           0
  9
$DIMALTTZ
 70
           0
  9
$DIMFIT
 70
           3
  9
$DIMUPT
 70
           0
  9
$DIMUNIT
 70
           2
  9
$DIMDEC
 70
           4
  9
$DIMTDEC
 70
           4
  9
$DIMALTU
 70
           2
  9
$DIMALTTD
 70
           2
  9
$DIMTXSTY
  7
STANDARD
  9
$DIMAUNIT
 70
           0
  9
$LUNITS
 70
           2
  9
$LUPREC
 70
           4
  9
$SKETCHINC
 40
0.1
  9
$FILLETRAD
 40
0.0
  9
$AUNITS
 70
           0
  9
$AUPREC
 70
           0
  9
$MENU
  1
acad
  9
$ELEVATION
 40
0.0
  9
$PELEVATION
 40
0.0
  9
$THICKNESS
 40
0.0
  9
$LIMCHECK
 70
           0
  9
$BLIPMODE
 70
           1
  9
$CHAMFERA
 40
0.0
  9
$CHAMFERB
 40
0.0
  9
$CHAMFERC
 40
0.0
  9
$CHAMFERD
 40
0.0
  9
$SKPOLY
 70
           0
  9
$TDCREATE
 40
0.000000000
  9
$TDUPDATE
 40
0.000000000
  9
$TDINDWG
 40
0.0000000000
  9
$TDUSRTIMER
 40
0.0000000000
  9
$USRTIMER
 70
           1
  9
$ANGBASE
 50
0.0
  9
$ANGDIR
 70
           0
  9
$PDMODE
 70
           0
  9
$PDSIZE
 40
0.0
  9
$PLINEWID
 40
0.0
  9
$COORDS
 70
           0
  9
$SPLFRAME
 70
           0
  9
$SPLINETYPE
 70
           6
  9
$SPLINESEGS
 70
           8
  9
$ATTDIA
 70
           0
  9
$ATTREQ
 70
           1
  9
$HANDLING
 70
           1
  9
$HANDSEED
  5
43D
  9
$SURFTAB1
 70
           6
  9
$SURFTAB2
 70
           6
  9
$SURFTYPE
 70
           6
  9
$SURFU
 70
           6
  9
$SURFV
 70
           6
  9
$UCSNAME
  2

  9
$UCSORG
 10
0.0
 20
0.0
 30
0.0
  9
$UCSXDIR
 10
1.0
 20
0.0
 30
0.0
  9
$UCSYDIR
 10
0.0
 20
1.0
 30
0.0
  9
$PUCSNAME
  2

  9
$PUCSORG
 10
0.0
 20
0.0
 30
0.0
  9
$PUCSXDIR
 10
1.0
 20
0.0
 30
0.0
  9
$PUCSYDIR
 10
0.0
 20
1.0
 30
0.0
  9
$USERI1
 70
           0
  9
$USERI2
 70
           0
  9
$USERI3
 70
           0
  9
$USERI4
 70
           0
  9
$USERI5
 70
           0
  9
$USERR1
 40
0.0
  9
$USERR2
 40
0.0
  9
$USERR3
 40
0.0
  9
$USERR4
 40
0.0
  9
$USERR5
 40
0.0
  9
$WORLDVIEW
 70
           1
  9
$SHADEDGE
 70
           3
  9
$SHADEDIF
 70
          70
  9
$TILEMODE
 70
           1
  9
$MAXACTVP
 70
          16
  9
$PINSBASE
 10
0.0
 20
0.0
 30
0.0
  9
$PLIMCHECK
 70
           0
  9
$PEXTMIN
 10
1.000000000000E+20
 20
1.000000000000E+20
 30
1.000000000000E+20
  9
$PEXTMAX
 10
-1.000000000000E+20
 20
-1.000000000000E+20
 30
-1.000000000000E+20
  9
$PLIMMIN
 10
0.0
 20
0.0
  9
$PLIMMAX
 10
12.0
 20
9.0
  9
$UNITMODE
 70
           0
  9
$VISRETAIN
 70
           0
  9
$PLINEGEN
 70
           1
  9
$PSLTSCALE
 70
           0
  9
$TREEDEPTH
 70
        3020
  9
$PICKSTYLE
 70
           1
  9
$CMLSTYLE
  2
STANDARD
  9
$CMLJUST
 70
           0
  9
$CMLSCALE
 40
1.0
  9
$PROXYGRAPHICS
 70
           0
  9
$MEASUREMENT
 70
           1
  0
ENDSEC
  0
SECTION
  2
CLASSES
  0
CLASS
  1
LWPOLYLINE
  2
AcDbPolyline
  3
"AutoCAD"
 90
        0
280
           0
281
           1
  0
CLASS
  1
IMAGE
  2
AcDbRasterImage
  3
ISM
 90
      127
280
           0
281
           1
  0
CLASS
  1
OLE2FRAME
  2
AcDbOle2Frame
  3
""
 90
        0
280
           0
281
           1
  0
CLASS
  1
HATCH
  2
AcDbHatch
  3
"ACAD_SEDONA"
 90
        0
280
           0
281
           1
  0
CLASS
  1
DICTIONARYVAR
  2
AcDbDictionaryVar
  3
"AutoCAD"
 90
        0
280
           0
281
           0
  0
CLASS
  1
RASTERVARIABLES
  2
AcDbRasterVariables
  3
ISM
 90
        0
280
           0
281
           0
  0
CLASS
  1
IMAGEDEF
  2
AcDbRasterImageDef
  3
ISM
 90
        0
280
           0
281
           0
  0
CLASS
  1
IMAGEDEF_REACTOR
  2
AcDbRasterImageDefReactor
  3
ISM
 90
        1
280
           0
281
           0
  0
CLASS
  1
IDBUFFER
  2
AcDbIdBuffer
  3
"Acad"
 90
        0
280
           0
281
           0
  0
CLASS
  1
SPATIAL_FILTER
  2
AcDbSpatialFilter
  3
"Acad"
 90
        0
280
           0
281
           0
  0
CLASS
  1
XRECORD
  2
AcDbXrecord
  3
"<Built In>"
 90
        0
280
           0
281
           0
  0
CLASS
  1
SORTENTSTABLE
  2
AcDbSortentsTable
  3
"AutoCAD"
 90
        0
280
           0
281
           0
  0
CLASS
  1
LAYER_INDEX
  2
AcDbLayerIndex
  3
"Acad"
 90
        0
280
           0
281
           0
  0
CLASS
  1
SPATIAL_INDEX
  2
AcDbSpatialIndex
  3
"Acad"
 90
        0
280
           0
281
           0
  0
CLASS
  1
OBJECT_PTR
  2
CAseDLPNTableRecord
  3
"ASE-LPNTableRecord"
 90
        1
280
           0
281
           0
  0
CLASS
  1
LAYOUT
  2
AcDbLayout
  3
"AutoCAD 2000"
 90
        1
280
           0
281
           0
  0
CLASS
  1
PLOTSETTINGS
  2
AcDbPlotSettings
  3
"AutoCAD 2000"
 90
        1
280
           0
281
           0
  0
CLASS
  1
ACDBDICTIONARYWDFLT
  2
AcDbDictionaryWithDefault
  3
"AutoCAD 2000"
 90
        1
280
           0
281
           0
  0
CLASS
  1
ACDBPLACEHOLDER
  2
AcDbPlaceHolder
  3
"AutoCAD 2000"
 90
        1
280
           0
281
           0
  0
CLASS
  1
VBA_PROJECT
  2
AcDbVbaProject
  3
"acadvba"
 90
        1
280
           0
281
           0
  0
CLASS
  1
WIPEOUT
  2
AcDbWipeout
  3
WipeOut|AutoCAD Express Tool|expresstools@autodesk.com
 90
      127
280
           0
281
           1
  0
CLASS
  1
WIPEOUTVARIABLES
  2
AcDbWipeoutVariables
  3
WipeOut|AutoCAD Express Tool|expresstools@autodesk.com
 90
        0
280
           0
281
           0
  0
CLASS
  1
RTEXT
  2
RText
  3
RText|AutoCAD Express Tool|expresstools@autodesk.com
 90
        0
280
           0
281
           1
  0
CLASS
  1
ARCALIGNEDTEXT
  2
AcDbArcAlignedText
  3
ATEXT|AutoCAD Express Tool|expresstools@autodesk.com
 90
        0
280
           0
281
           1
  0
ENDSEC
  0
SECTION
  2
TABLES
  0
TABLE
  2
VPORT
  5
7
100
AcDbSymbolTable
 70
           1
  0
VPORT
  5
15
100
AcDbSymbolTableRecord
100
AcDbViewportTableRecord
  2
*ACTIVE
 70
           0
 10
0.0
 20
0.0
 11
1.0
 21
1.0
 12
6.591288
 22
4.579184
 13
0.0
 23
0.0
 14
1.0
 24
1.0
 15
0.0
 25
0.0
 16
0.0
 26
0.0
 36
1.0
 17
0.0
 27
0.0
 37
0.0
 40
9.158369
 41
0.688564
 42
50.0
 43
0.0
 44
0.0
 50
0.0
 51
0.0
 71
           0
 72
         100
 73
           1
 74
           1
 75
           0
 76
           0
 77
           0
 78
           0
  0
ENDTAB
  0
TABLE
  2
LTYPE
  5
4
100
AcDbSymbolTable
 70
          10
  0
LTYPE
  5
11
100
AcDbSymbolTableRecord
100
AcDbLinetypeTableRecord
  2
BYBLOCK
 70
          64
  3

 72
          65
 73
           0
 40
0.0
  0
LTYPE
  5
12
100
AcDbSymbolTableRecord
100
AcDbLinetypeTableRecord
  2
BYLAYER
 70
          64
  3

 72
          65
 73
           0
 40
0.0
  0
LTYPE
  5
13
100
AcDbSymbolTableRecord
100
AcDbLinetypeTableRecord
  2
CONTINUOUS
 70
          64
  3
Solid line
 72
          65
 73
           0
 40
0.0
  0
LTYPE
  5
1D
100
AcDbSymbolTableRecord
100
AcDbLinetypeTableRecord
  2
DASHED
 70
          64
  3
Dashed
 72
          65
 73
           2
 40
15.0
 49
12.0
 74
           0
 49
-3.0
 74
           0
  0
LTYPE
  5
1E
100
AcDbSymbolTableRecord
100
AcDbLinetypeTableRecord
  2
DOTTED
 70
          64
  3
Dotted
 72
          65
 73
           2
 40
3.5
 49
0.5
 74
           0
 49
-3.0
 74
           0
  0
LTYPE
  5
1F
100
AcDbSymbolTableRecord
100
AcDbLinetypeTableRecord
  2
DOT_CENTER
 70
          64
  3
Dot_Center
 72
          65
 73
           4
 40
2.0
 49
1.25
 74
           0
 49
-0.25
 74
           0
 49
0.25
 74
           0
 49
-0.25
 74
           0
  0
LTYPE
  5
20
100
AcDbSymbolTableRecord
100
AcDbLinetypeTableRecord
  2
LONG_DASHED
 70
          64
  3
Long_Dashed
 72
          65
 73
           2
 40
2.0
 49
1.5
 74
           0
 49
-0.5
 74
           0
  0
LTYPE
  5
21
100
AcDbSymbolTableRecord
100
AcDbLinetypeTableRecord
  2
DASH_CENTER
 70
          64
  3
Dash_Center
 72
          65
 73
           4
 40
36.0
 49
24.0
 74
           0
 49
-3.0
 74
           0
 49
6.0
 74
           0
 49
-3.0
 74
           0
  0
LTYPE
  5
22
100
AcDbSymbolTableRecord
100
AcDbLinetypeTableRecord
  2
PHANTOM
 70
          64
  3
Phantom
 72
          65
 73
           6
 40
2.5
 49
1.25
 74
           0
 49
-0.25
 74
           0
 49
0.25
 74
           0
 49
-0.25
 74
           0
 49
0.25
 74
           0
 49
-0.25
 74
           0
  0
LTYPE
  5
23
100
AcDbSymbolTableRecord
100
AcDbLinetypeTableRecord
  2
CENTER_DASH_DASH
 70
          64
  3
Center_Dash_Dash
 72
          65
 73
           6
 40
22.0
 49
12.0
 74
           0
 49
-3.0
 74
           0
 49
0.5
 74
           0
 49
-3.0
 74
           0
 49
0.5
 74
           0
 49
-3.0
 74
           0
  0
ENDTAB
  0
TABLE
  2
LAYER
  5
2
100
AcDbSymbolTable
 70
           3
  0
LAYER
  5
14
100
AcDbSymbolTableRecord
100
AcDbLayerTableRecord
  2
0
 70
           0
 62
           7
  6
CONTINUOUS
  0
LAYER
  5
24
100
AcDbSymbolTableRecord
100
AcDbLayerTableRecord
  2
KONTUR
 70
           0
 62
           7
  6
CONTINUOUS
  0
LAYER
  5
25
100
AcDbSymbolTableRecord
100
AcDbLayerTableRecord
  2
1
 70
           0
 62
           7
  6
CONTINUOUS
  0
ENDTAB
  0
TABLE
  2
STYLE
  5
3
100
AcDbSymbolTable
 70
           5
  0
STYLE
  5
17
100
AcDbSymbolTableRecord
100
AcDbTextStyleTableRecord
  2
STANDARD
 70
           0
 40
0.0
 41
1.0
 50
0.0
 71
           0
 42
0.0
  3
txt
  4

  0
STYLE
  5
16C
100
AcDbSymbolTableRecord
100
AcDbTextStyleTableRecord
  2
CONVERTER_1
 70
           0
 40
0.0
 41
0.855
 50
0.0
 71
           0
 42
0.0
  3
txt.shx
  4

  0
STYLE
  5
16E
100
AcDbSymbolTableRecord
100
AcDbTextStyleTableRecord
  2
CONVERTER_2
 70
           0
 40
0.0
 41
0.9
 50
0.0
 71
           0
 42
0.0
  3
txt.shx
  4

  0
STYLE
  5
173
100
AcDbSymbolTableRecord
100
AcDbTextStyleTableRecord
  2
CONVERTER_3
 70
           0
 40
0.0
 41
0.765
 50
15.0
 71
           0
 42
0.0
  3
txt.shx
  4

  0
STYLE
  5
188
100
AcDbSymbolTableRecord
100
AcDbTextStyleTableRecord
  2
CONVERTER_4
 70
           0
 40
0.0
 41
0.792
 50
0.0
 71
           0
 42
0.0
  3
txt.shx
  4

  0
ENDTAB
  0
TABLE
  2
VIEW
  5
5
100
AcDbSymbolTable
 70
           0
  0
ENDTAB
  0
TABLE
  2
UCS
  5
6
100
AcDbSymbolTable
 70
           0
  0
ENDTAB
  0
TABLE
  2
APPID
  5
8
100
AcDbSymbolTable
 70
           1
  0
APPID
  5
16
100
AcDbSymbolTableRecord
100
AcDbRegAppTableRecord
  2
ACAD
 70
           0
  0
ENDTAB
  0
TABLE
  2
DIMSTYLE
  5
9
100
AcDbSymbolTable
 70
          25
  0
DIMSTYLE
105
18
100
AcDbSymbolTableRecord
100
AcDbDimStyleTableRecord
  2
STANDARD
 70
           0
  3

  4

  5

  6

  7

 40
1.0
 41
0.18
 42
0.0625
 43
0.38
 44
0.18
 45
0.0
 46
0.0
 47
0.0
 48
0.0
 71
           0
 72
           0
 73
           1
 74
           1
 75
           0
 76
           0
 77
           0
 78
           0
140
0.18
141
0.09
142
0.0
143
25.4
144
1.0
145
0.0
146
1.0
147
0.09
170
           0
171
           2
172
           0
173
           0
174
           0
175
           0
176
           0
177
           0
178
           0
270
           2
271
           4
272
           4
273
           2
274
           2
275
           0
280
           0
281
           0
282
           0
283
           1
284
           0
285
           0
286
           0
287
           0
288
           0
340
17
  0
DIMSTYLE
105
2A6
100
AcDbSymbolTableRecord
100
AcDbDimStyleTableRecord
  2
ME10_DIM_0
 70
           0
  3
Ø<>
  4

  5

  6
_CLOSED
  7
_CLOSED
 40
1.0
 41
15.0
 42
0.0
 43
0.38
 44
10.0
 45
0.0
 46
0.0
 47
7.0
 48
0.0
 71
           1
 72
           0
 73
           0
 74
           0
 75
           0
 76
           0
 77
           1
 78
           8
140
15.0
141
0.09
142
0.0
143
25.4
144
1.0
145
0.0
146
0.6
147
0.625
170
           0
171
           2
172
           0
173
           1
174
           0
175
           0
176
           3
177
           3
178
           2
270
           2
271
           2
272
           0
273
           2
274
           2
275
           0
280
           0
281
           0
282
           0
283
           1
284
           0
285
           0
286
           0
287
           3
288
           0
340
17
  0
DIMSTYLE
105
2B8
100
AcDbSymbolTableRecord
100
AcDbDimStyleTableRecord
  2
ME10_DIM_1
 70
           0
  3
Ø<>
  4

  5

  6
_CLOSED
  7
_CLOSED
 40
1.0
 41
15.0
 42
0.0
 43
0.38
 44
10.0
 45
0.0
 46
0.0
 47
7.0
 48
0.0
 71
           1
 72
           0
 73
           0
 74
           0
 75
           0
 76
           0
 77
           1
 78
           8
140
15.0
141
0.09
142
0.0
143
25.4
144
1.0
145
0.0
146
0.6
147
0.625
170
           0
171
           2
172
           0
173
           1
174
           0
175
           0
176
           3
177
           3
178
           2
270
           2
271
           2
272
           0
273
           2
274
           2
275
           0
280
           0
281
           0
282
           0
283
           1
284
           0
285
           0
286
           0
287
           3
288
           0
340
17
  0
DIMSTYLE
105
2CB
100
AcDbSymbolTableRecord
100
AcDbDimStyleTableRecord
  2
ME10_DIM_2
 70
           0
  3

  4

  5

  6
_CLOSED
  7
_CLOSED
 40
1.0
 41
15.0
 42
0.0
 43
0.38
 44
10.0
 45
0.0
 46
0.0
 47
0.0
 48
0.0
 71
           0
 72
           0
 73
           0
 74
           0
 75
           0
 76
           0
 77
           1
 78
           8
140
15.0
141
0.09
142
0.0
143
25.4
144
1.0
145
0.0
146
1.0
147
0.625
170
           0
171
           2
172
           0
173
           1
174
           0
175
           0
176
           3
177
           3
178
           2
270
           2
271
           2
272
           4
273
           2
274
           2
275
           0
280
           0
281
           0
282
           0
283
           1
284
           0
285
           0
286
           0
287
           3
288
           0
340
17
  0
DIMSTYLE
105
2DE
100
AcDbSymbolTableRecord
100
AcDbDimStyleTableRecord
  2
ME10_DIM_3
 70
           0
  3

  4

  5

  6
_CLOSED
  7
_CLOSED
 40
1.0
 41
15.0
 42
0.0
 43
0.38
 44
10.0
 45
0.0
 46
0.0
 47
0.0
 48
0.0
 71
           0
 72
           0
 73
           0
 74
           0
 75
           0
 76
           0
 77
           1
 78
           8
140
15.0
141
0.09
142
0.0
143
25.4
144
1.0
145
0.0
146
1.0
147
0.625
170
           0
171
           2
172
           0
173
           1
174
           0
175
           0
176
           3
177
           3
178
           2
270
           2
271
           2
272
           4
273
           2
274
           2
275
           0
280
           0
281
           0
282
           0
283
           1
284
           0
285
           0
286
           0
287
           3
288
           0
340
17
  0
DIMSTYLE
105
2EF
100
AcDbSymbolTableRecord
100
AcDbDimStyleTableRecord
  2
ME10_DIM_4
 70
           0
  3

  4

  5

  6
_CLOSED
  7
_CLOSED
 40
1.0
 41
15.0
 42
0.0
 43
0.38
 44
10.0
 45
0.0
 46
0.0
 47
0.0
 48
0.0
 71
           0
 72
           0
 73
           0
 74
           0
 75
           0
 76
           0
 77
           1
 78
           8
140
15.0
141
0.09
142
0.0
143
25.4
144
1.0
145
0.0
146
1.0
147
0.625
170
           0
171
           2
172
           0
173
           1
174
           0
175
           0
176
           3
177
           3
178
           2
270
           2
271
           2
272
           4
273
           2
274
           2
275
           0
280
           0
281
           0
282
           0
283
           1
284
           0
285
           0
286
           0
287
           3
288
           0
340
17
  0
DIMSTYLE
105
300
100
AcDbSymbolTableRecord
100
AcDbDimStyleTableRecord
  2
ME10_DIM_5
 70
           0
  3

  4

  5

  6
_CLOSED
  7
_CLOSED
 40
1.0
 41
15.0
 42
0.0
 43
0.38
 44
10.0
 45
0.0
 46
0.0
 47
0.0
 48
0.0
 71
           0
 72
           0
 73
           0
 74
           0
 75
           0
 76
           0
 77
           1
 78
           8
140
15.0
141
0.09
142
0.0
143
25.4
144
1.0
145
0.0
146
1.0
147
0.625
170
           0
171
           2
172
           0
173
           1
174
           0
175
           0
176
           3
177
           3
178
           2
270
           2
271
           2
272
           4
273
           2
274
           2
275
           0
280
           0
281
           0
282
           0
283
           1
284
           0
285
           0
286
           0
287
           3
288
           0
340
17
  0
DIMSTYLE
105
312
100
AcDbSymbolTableRecord
100
AcDbDimStyleTableRecord
  2
ME10_DIM_6
 70
           0
  3

  4

  5

  6
_CLOSED
  7
_CLOSED
 40
1.0
 41
15.0
 42
0.0
 43
0.38
 44
10.0
 45
0.0
 46
0.0
 47
0.0
 48
0.0
 71
           0
 72
           0
 73
           0
 74
           0
 75
           0
 76
           0
 77
           1
 78
           8
140
15.0
141
0.09
142
0.0
143
25.4
144
1.0
145
0.0
146
1.0
147
0.625
170
           0
171
           2
172
           0
173
           1
174
           0
175
           0
176
           3
177
           3
178
           2
270
           2
271
           2
272
           4
273
           2
274
           2
275
           0
280
           0
281
           0
282
           0
283
           1
284
           0
285
           0
286
           0
287
           3
288
           0
340
17
  0
DIMSTYLE
105
324
100
AcDbSymbolTableRecord
100
AcDbDimStyleTableRecord
  2
ME10_DIM_7
 70
           0
  3

  4

  5

  6
_CLOSED
  7
_CLOSED
 40
1.0
 41
15.0
 42
0.0
 43
0.38
 44
10.0
 45
0.0
 46
0.0
 47
0.0
 48
0.0
 71
           0
 72
           0
 73
           0
 74
           0
 75
           0
 76
           0
 77
           1
 78
           8
140
15.0
141
0.09
142
0.0
143
25.4
144
1.0
145
0.0
146
1.0
147
0.625
170
           0
171
           2
172
           0
173
           1
174
           0
175
           0
176
           3
177
           3
178
           2
270
           2
271
           2
272
           4
273
           2
274
           2
275
           0
280
           0
281
           0
282
           0
283
           1
284
           0
285
           0
286
           0
287
           3
288
           0
340
17
  0
DIMSTYLE
105
337
100
AcDbSymbolTableRecord
100
AcDbDimStyleTableRecord
  2
ME10_DIM_8
 70
           0
  3

  4

  5

  6
_CLOSED
  7
_CLOSED
 40
1.0
 41
15.0
 42
0.0
 43
0.38
 44
10.0
 45
0.0
 46
0.0
 47
0.0
 48
0.0
 71
           0
 72
           0
 73
           0
 74
           0
 75
           0
 76
           0
 77
           1
 78
           8
140
15.0
141
0.09
142
0.0
143
25.4
144
1.0
145
0.0
146
1.0
147
0.625
170
           0
171
           2
172
           0
173
           1
174
           0
175
           0
176
           3
177
           3
178
           2
270
           2
271
           2
272
           4
273
           2
274
           2
275
           0
280
           0
281
           0
282
           0
283
           1
284
           0
285
           0
286
           0
287
           3
288
           0
340
17
  0
DIMSTYLE
105
348
100
AcDbSymbolTableRecord
100
AcDbDimStyleTableRecord
  2
ME10_DIM_9
 70
           0
  3

  4

  5

  6
_CLOSED
  7
_CLOSED
 40
1.0
 41
15.0
 42
0.0
 43
0.38
 44
10.0
 45
0.0
 46
0.0
 47
0.0
 48
0.0
 71
           0
 72
           0
 73
           0
 74
           0
 75
           0
 76
           0
 77
           1
 78
           8
140
15.0
141
0.09
142
0.0
143
25.4
144
1.0
145
0.0
146
1.0
147
0.625
170
           0
171
           2
172
           0
173
           1
174
           0
175
           0
176
           3
177
           3
178
           2
270
           2
271
           2
272
           4
273
           2
274
           2
275
           0
280
           0
281
           0
282
           0
283
           1
284
           0
285
           0
286
           0
287
           3
288
           0
340
17
  0
DIMSTYLE
105
359
100
AcDbSymbolTableRecord
100
AcDbDimStyleTableRecord
  2
ME10_DIM_10
 70
           0
  3

  4

  5

  6
_CLOSED
  7
_CLOSED
 40
1.0
 41
15.0
 42
0.0
 43
0.38
 44
10.0
 45
0.0
 46
0.0
 47
0.0
 48
0.0
 71
           0
 72
           0
 73
           0
 74
           0
 75
           0
 76
           0
 77
           1
 78
           8
140
15.0
141
0.09
142
0.0
143
25.4
144
1.0
145
0.0
146
1.0
147
0.625
170
           0
171
           2
172
           0
173
           1
174
           0
175
           0
176
           3
177
           3
178
           2
270
           2
271
           2
272
           4
273
           2
274
           2
275
           0
280
           0
281
           0
282
           0
283
           1
284
           0
285
           0
286
           0
287
           3
288
           0
340
17
  0
DIMSTYLE
105
36A
100
AcDbSymbolTableRecord
100
AcDbDimStyleTableRecord
  2
ME10_DIM_11
 70
           0
  3
Ø<>
  4

  5

  6
_CLOSED
  7
_CLOSED
 40
1.0
 41
15.0
 42
0.0
 43
0.38
 44
10.0
 45
0.0
 46
0.0
 47
0.0
 48
-8.0
 71
           1
 72
           0
 73
           0
 74
           0
 75
           0
 76
           0
 77
           1
 78
           8
140
15.0
141
0.09
142
0.0
143
25.4
144
1.0
145
0.0
146
0.6
147
0.625
170
           0
171
           2
172
           0
173
           1
174
           0
175
           0
176
           3
177
           3
178
           2
270
           2
271
           2
272
           0
273
           2
274
           2
275
           0
280
           0
281
           0
282
           0
283
           1
284
           0
285
           0
286
           0
287
           3
288
           0
340
17
  0
DIMSTYLE
105
37C
100
AcDbSymbolTableRecord
100
AcDbDimStyleTableRecord
  2
ME10_DIM_12
 70
           0
  3
Ø<>
  4

  5

  6
_CLOSED
  7
_CLOSED
 40
1.0
 41
15.0
 42
0.0
 43
0.38
 44
10.0
 45
0.0
 46
0.0
 47
0.0
 48
-6.0
 71
           1
 72
           0
 73
           0
 74
           0
 75
           0
 76
           0
 77
           1
 78
           8
140
15.0
141
0.09
142
0.0
143
25.4
144
1.0
145
0.0
146
0.6
147
0.625
170
           0
171
           2
172
           0
173
           1
174
           0
175
           0
176
           3
177
           3
178
           2
270
           2
271
           2
272
           0
273
           2
274
           2
275
           0
280
           0
281
           0
282
           0
283
           1
284
           0
285
           0
286
           0
287
           3
288
           0
340
17
  0
DIMSTYLE
105
38D
100
AcDbSymbolTableRecord
100
AcDbDimStyleTableRecord
  2
ME10_DIM_13
 70
           0
  3
Ø<>
  4

  5

  6
_CLOSED
  7
_CLOSED
 40
1.0
 41
15.0
 42
0.0
 43
0.38
 44
10.0
 45
0.0
 46
0.0
 47
0.0
 48
0.0
 71
           0
 72
           0
 73
           0
 74
           0
 75
           0
 76
           0
 77
           1
 78
           8
140
15.0
141
0.09
142
0.0
143
25.4
144
1.0
145
0.0
146
1.0
147
0.625
170
           0
171
           2
172
           0
173
           1
174
           0
175
           0
176
           3
177
           3
178
           2
270
           2
271
           2
272
           4
273
           2
274
           2
275
           0
280
           0
281
           0
282
           0
283
           1
284
           0
285
           0
286
           0
287
           3
288
           0
340
17
  0
DIMSTYLE
105
39E
100
AcDbSymbolTableRecord
100
AcDbDimStyleTableRecord
  2
ME10_DIM_14
 70
           0
  3
Ø<>
  4

  5

  6
_CLOSED
  7
_CLOSED
 40
1.0
 41
15.0
 42
0.0
 43
0.38
 44
10.0
 45
0.0
 46
0.0
 47
0.0
 48
-8.0
 71
           1
 72
           0
 73
           0
 74
           0
 75
           0
 76
           0
 77
           1
 78
           8
140
15.0
141
0.09
142
0.0
143
25.4
144
1.0
145
0.0
146
0.6
147
0.625
170
           0
171
           2
172
           0
173
           1
174
           0
175
           0
176
           3
177
           3
178
           2
270
           2
271
           2
272
           0
273
           2
274
           2
275
           0
280
           0
281
           0
282
           0
283
           1
284
           0
285
           0
286
           0
287
           3
288
           0
340
17
  0
DIMSTYLE
105
3B0
100
AcDbSymbolTableRecord
100
AcDbDimStyleTableRecord
  2
ME10_DIM_15
 70
           0
  3

  4

  5

  6
_CLOSED
  7
_CLOSED
 40
1.0
 41
15.0
 42
0.0
 43
0.38
 44
10.0
 45
0.0
 46
0.0
 47
0.0
 48
0.0
 71
           0
 72
           0
 73
           0
 74
           0
 75
           0
 76
           0
 77
           1
 78
           8
140
15.0
141
0.09
142
0.0
143
25.4
144
1.0
145
0.0
146
1.0
147
0.625
170
           0
171
           2
172
           0
173
           1
174
           0
175
           0
176
           3
177
           3
178
           2
270
           2
271
           2
272
           4
273
           2
274
           2
275
           0
280
           0
281
           0
282
           0
283
           1
284
           0
285
           0
286
           0
287
           3
288
           0
340
17
  0
DIMSTYLE
105
3C3
100
AcDbSymbolTableRecord
100
AcDbDimStyleTableRecord
  2
ME10_DIM_16
 70
           0
  3

  4

  5

  6
_CLOSED
  7
_CLOSED
 40
1.0
 41
15.0
 42
0.0
 43
0.38
 44
10.0
 45
0.0
 46
0.0
 47
0.0
 48
0.0
 71
           0
 72
           0
 73
           0
 74
           0
 75
           0
 76
           0
 77
           1
 78
           8
140
15.0
141
0.09
142
0.0
143
25.4
144
1.0
145
0.0
146
1.0
147
0.625
170
           0
171
           2
172
           0
173
           1
174
           0
175
           0
176
           3
177
           3
178
           2
270
           2
271
           2
272
           4
273
           2
274
           2
275
           0
280
           0
281
           0
282
           0
283
           1
284
           0
285
           0
286
           0
287
           3
288
           0
340
17
  0
DIMSTYLE
105
3D4
100
AcDbSymbolTableRecord
100
AcDbDimStyleTableRecord
  2
ME10_DIM_17
 70
           0
  3

  4

  5

  6
_CLOSED
  7
_CLOSED
 40
1.0
 41
15.0
 42
0.0
 43
0.38
 44
10.0
 45
0.0
 46
0.0
 47
0.0
 48
0.0
 71
           0
 72
           0
 73
           0
 74
           0
 75
           0
 76
           0
 77
           1
 78
           8
140
15.0
141
0.09
142
0.0
143
25.4
144
1.0
145
0.0
146
1.0
147
0.625
170
           0
171
           2
172
           0
173
           1
174
           0
175
           0
176
           3
177
           3
178
           2
270
           2
271
           2
272
           4
273
           2
274
           2
275
           0
280
           0
281
           0
282
           0
283
           1
284
           0
285
           0
286
           0
287
           3
288
           0
340
17
  0
DIMSTYLE
105
3E5
100
AcDbSymbolTableRecord
100
AcDbDimStyleTableRecord
  2
ME10_DIM_18
 70
           0
  3

  4

  5

  6
_CLOSED
  7
_CLOSED
 40
1.0
 41
15.0
 42
0.0
 43
0.38
 44
10.0
 45
0.0
 46
0.0
 47
0.0
 48
0.0
 71
           0
 72
           0
 73
           0
 74
           0
 75
           0
 76
           0
 77
           1
 78
           8
140
15.0
141
0.09
142
0.0
143
25.4
144
1.0
145
0.0
146
1.0
147
0.625
170
           0
171
           2
172
           0
173
           1
174
           0
175
           0
176
           3
177
           3
178
           2
270
           2
271
           2
272
           4
273
           2
274
           2
275
           0
280
           0
281
           0
282
           0
283
           1
284
           0
285
           0
286
           0
287
           3
288
           0
340
17
  0
DIMSTYLE
105
3F6
100
AcDbSymbolTableRecord
100
AcDbDimStyleTableRecord
  2
ME10_DIM_19
 70
           0
  3

  4

  5

  6
_CLOSED
  7
_CLOSED
 40
1.0
 41
15.0
 42
0.0
 43
0.38
 44
10.0
 45
0.0
 46
0.0
 47
0.0
 48
0.0
 71
           0
 72
           0
 73
           0
 74
           0
 75
           0
 76
           0
 77
           1
 78
           8
140
15.0
141
0.09
142
0.0
143
25.4
144
1.0
145
0.0
146
1.0
147
0.625
170
           0
171
           2
172
           0
173
           1
174
           0
175
           0
176
           3
177
           3
178
           2
270
           2
271
           2
272
           4
273
           2
274
           2
275
           0
280
           0
281
           0
282
           0
283
           1
284
           0
285
           0
286
           0
287
           3
288
           0
340
17
  0
DIMSTYLE
105
407
100
AcDbSymbolTableRecord
100
AcDbDimStyleTableRecord
  2
ME10_DIM_20
 70
           0
  3

  4

  5

  6
_CLOSED
  7
_CLOSED
 40
1.0
 41
15.0
 42
0.0
 43
0.38
 44
10.0
 45
0.0
 46
0.0
 47
0.0
 48
0.0
 71
           0
 72
           0
 73
           0
 74
           0
 75
           0
 76
           0
 77
           1
 78
           8
140
15.0
141
0.09
142
0.0
143
25.4
144
1.0
145
0.0
146
1.0
147
0.625
170
           0
171
           2
172
           0
173
           1
174
           0
175
           0
176
           3
177
           3
178
           2
270
           2
271
           2
272
           4
273
           2
274
           2
275
           0
280
           0
281
           0
282
           0
283
           1
284
           0
285
           0
286
           0
287
           3
288
           0
340
17
  0
DIMSTYLE
105
418
100
AcDbSymbolTableRecord
100
AcDbDimStyleTableRecord
  2
ME10_DIM_21
 70
           0
  3

  4

  5

  6
_CLOSED
  7
_CLOSED
 40
1.0
 41
15.0
 42
0.0
 43
0.38
 44
10.0
 45
0.0
 46
0.0
 47
0.0
 48
0.0
 71
           0
 72
           0
 73
           0
 74
           0
 75
           0
 76
           0
 77
           1
 78
           8
140
15.0
141
0.09
142
0.0
143
25.4
144
1.0
145
0.0
146
1.0
147
0.625
170
           0
171
           2
172
           0
173
           1
174
           0
175
           0
176
           3
177
           3
178
           2
270
           2
271
           2
272
           4
273
           2
274
           2
275
           0
280
           0
281
           0
282
           0
283
           1
284
           0
285
           0
286
           0
287
           3
288
           0
340
17
  0
DIMSTYLE
105
429
100
AcDbSymbolTableRecord
100
AcDbDimStyleTableRecord
  2
ME10_DIM_22
 70
           0
  3

  4

  5

  6
_CLOSED
  7
_CLOSED
 40
1.0
 41
15.0
 42
0.0
 43
0.38
 44
10.0
 45
0.0
 46
0.0
 47
0.0
 48
0.0
 71
           0
 72
           0
 73
           0
 74
           0
 75
           0
 76
           0
 77
           1
 78
           8
140
15.0
141
0.09
142
0.0
143
25.4
144
1.0
145
0.0
146
1.0
147
0.625
170
           0
171
           2
172
           0
173
           1
174
           0
175
           0
176
           3
177
           3
178
           2
270
           2
271
           2
272
           4
273
           2
274
           2
275
           0
280
           0
281
           0
282
           0
283
           1
284
           0
285
           0
286
           0
287
           3
288
           0
340
17
  0
DIMSTYLE
105
43A
100
AcDbSymbolTableRecord
100
AcDbDimStyleTableRecord
  2
ME10_DIM_23
 70
           0
  3

  4

  5

  6
_CLOSED
  7
_CLOSED
 40
1.0
 41
15.0
 42
0.0
 43
0.38
 44
10.0
 45
0.0
 46
0.0
 47
0.0
 48
0.0
 71
           0
 72
           0
 73
           0
 74
           0
 75
           0
 76
           0
 77
           1
 78
           8
140
15.0
141
0.09
142
0.0
143
25.4
144
1.0
145
0.0
146
1.0
147
0.625
170
           0
171
           2
172
           0
173
           1
174
           0
175
           0
176
           3
177
           3
178
           2
270
           2
271
           2
272
           4
273
           2
274
           2
275
           0
280
           0
281
           0
282
           0
283
           1
284
           0
285
           0
286
           0
287
           3
288
           0
340
17
  0
ENDTAB
  0
TABLE
  2
BLOCK_RECORD
  5
1
100
AcDbSymbolTable
 70
          74
  0
BLOCK_RECORD
  5
A
100
AcDbSymbolTableRecord
100
AcDbBlockTableRecord
  2
*MODEL_SPACE
  0
BLOCK_RECORD
  5
B
100
AcDbSymbolTableRecord
100
AcDbBlockTableRecord
  2
*PAPER_SPACE
  0
BLOCK_RECORD
  5
26
100
AcDbSymbolTableRecord
100
AcDbBlockTableRecord
  2
DINA3_INTERNETRAHMEN
  0
BLOCK_RECORD
  5
28
100
AcDbSymbolTableRecord
100
AcDbBlockTableRecord
  2
GETRIEBE
  0
BLOCK_RECORD
  5
296
100
AcDbSymbolTableRecord
100
AcDbBlockTableRecord
  2
*D2
  0
BLOCK_RECORD
  5
2A8
100
AcDbSymbolTableRecord
100
AcDbBlockTableRecord
  2
*D5
  0
BLOCK_RECORD
  5
2BA
100
AcDbSymbolTableRecord
100
AcDbBlockTableRecord
  2
*D8
  0
BLOCK_RECORD
  5
2CD
100
AcDbSymbolTableRecord
100
AcDbBlockTableRecord
  2
*D11
  0
BLOCK_RECORD
  5
2E0
100
AcDbSymbolTableRecord
100
AcDbBlockTableRecord
  2
*D14
  0
BLOCK_RECORD
  5
2F1
100
AcDbSymbolTableRecord
100
AcDbBlockTableRecord
  2
*D17
  0
BLOCK_RECORD
  5
302
100
AcDbSymbolTableRecord
100
AcDbBlockTableRecord
  2
*D20
  0
BLOCK_RECORD
  5
314
100
AcDbSymbolTableRecord
100
AcDbBlockTableRecord
  2
*D23
  0
BLOCK_RECORD
  5
326
100
AcDbSymbolTableRecord
100
AcDbBlockTableRecord
  2
*D26
  0
BLOCK_RECORD
  5
339
100
AcDbSymbolTableRecord
100
AcDbBlockTableRecord
  2
*D29
  0
BLOCK_RECORD
  5
34A
100
AcDbSymbolTableRecord
100
AcDbBlockTableRecord
  2
*D32
  0
BLOCK_RECORD
  5
35B
100
AcDbSymbolTableRecord
100
AcDbBlockTableRecord
  2
*D35
  0
BLOCK_RECORD
  5
36C
100
AcDbSymbolTableRecord
100
AcDbBlockTableRecord
  2
*D38
  0
BLOCK_RECORD
  5
37E
100
AcDbSymbolTableRecord
100
AcDbBlockTableRecord
  2
*D41
  0
BLOCK_RECORD
  5
38F
100
AcDbSymbolTableRecord
100
AcDbBlockTableRecord
  2
*D44
  0
BLOCK_RECORD
  5
3A0
100
AcDbSymbolTableRecord
100
AcDbBlockTableRecord
  2
*D47
  0
BLOCK_RECORD
  5
3B2
100
AcDbSymbolTableRecord
100
AcDbBlockTableRecord
  2
*D50
  0
BLOCK_RECORD
  5
3C5
100
AcDbSymbolTableRecord
100
AcDbBlockTableRecord
  2
*D53
  0
BLOCK_RECORD
  5
3D6
100
AcDbSymbolTableRecord
100
AcDbBlockTableRecord
  2
*D56
  0
BLOCK_RECORD
  5
3E7
100
AcDbSymbolTableRecord
100
AcDbBlockTableRecord
  2
*D59
  0
BLOCK_RECORD
  5
3F8
100
AcDbSymbolTableRecord
100
AcDbBlockTableRecord
  2
*D62
  0
BLOCK_RECORD
  5
409
100
AcDbSymbolTableRecord
100
AcDbBlockTableRecord
  2
*D65
  0
BLOCK_RECORD
  5
41A
100
AcDbSymbolTableRecord
100
AcDbBlockTableRecord
  2
*D68
  0
BLOCK_RECORD
  5
42B
100
AcDbSymbolTableRecord
100
AcDbBlockTableRecord
  2
*D71
  0
ENDTAB
  0
ENDSEC
  0
SECTION
  2
BLOCKS
  0
BLOCK
  5
D
100
AcDbEntity
  8
0
100
AcDbBlockBegin
  2
*MODEL_SPACE
 70
           0
 10
0.0
 20
0.0
 30
0.0
  3
*MODEL_SPACE
  1

  0
ENDBLK
  5
E
100
AcDbEntity
  8
0
100
AcDbBlockEnd
  0
BLOCK
  5
F
100
AcDbEntity
 67
           1
  8
0
100
AcDbBlockBegin
  2
*PAPER_SPACE
 70
           0
 10
0.0
 20
0.0
 30
0.0
  3
*PAPER_SPACE
  1

  0
ENDBLK
  5
10
100
AcDbEntity
 67
           1
  8
0
100
AcDbBlockEnd
  0
BLOCK
  5
27
100
AcDbEntity
  8
0
100
AcDbBlockBegin
  2
DINA3_INTERNETRAHMEN
 70
           0
 10
223.491105619565
 20
-187.67807586856
 30
0.0
  3
DINA3_INTERNETRAHMEN
  1

  0
HATCH
  5
196
100
AcDbEntity
  8
0
  6
CONTINUOUS
 62
           3
100
AcDbHatch
 10
0.0
 20
0.0
 30
0.0
210
0.0
220
0.0
230
1.0
  2
USER
 70
           0
 71
           1
 91
        2
 92
        1
 93
       66
 72
           1
 10
163.51638169074101
 20
-150.296007554059
 11
167.1052253443959
 21
-150.296007554059
 72
           1
 10
167.1052253443959
 20
-150.296007554059
 11
167.3082186198709
 21
-150.29554807466161
 72
           1
 10
167.3082186198709
 20
-150.29554807466161
 11
167.51071367650019
 21
-150.29654758981431
 72
           1
 10
167.51071367650019
 20
-150.29654758981431
 11
167.7127350822922
 21
-150.3010081126568
 72
           1
 10
167.7127350822922
 20
-150.3010081126568
 11
167.91518538451169
 21
-150.3118535979616
 72
           1
 10
167.91518538451169
 20
-150.3118535979616
 11
168.11904172110539
 21
-150.332123616063
 72
           1
 10
168.11904172110539
 20
-150.332123616063
 11
168.32281973748189
 21
-150.36642041209939
 72
           1
 10
168.32281973748189
 20
-150.36642041209939
 11
168.51997037167521
 21
-150.42259092591911
 72
           1
 10
168.51997037167521
 20
-150.42259092591911
 11
168.7032993523118
 21
-150.5088960756654
 72
           1
 10
168.7032993523118
 20
-150.5088960756654
 11
168.8654818743228
 21
-150.63242570575451
 72
           1
 10
168.8654818743228
 20
-150.63242570575451
 11
168.99782439360601
 21
-150.78953606132171
 72
           1
 10
168.99782439360601
 20
-150.78953606132171
 11
169.09107020640329
 21
-150.9707951505055
 72
           1
 10
169.09107020640329
 20
-150.9707951505055
 11
169.1447456618784
 21
-151.16695745814931
 72
           1
 10
169.1447456618784
 20
-151.16695745814931
 11
169.17129994502059
 21
-151.369195176923
 72
           1
 10
169.17129994502059
 20
-151.369195176923
 11
169.18224239821421
 21
-151.57150375684421
 72
           1
 10
169.18224239821421
 20
-151.57150375684421
 11
169.18478967003821
 21
-151.77403610881549
 72
           1
 10
169.18478967003821
 20
-151.77403610881549
 11
169.18557287220941
 21
-151.97773953450911
 72
           1
 10
169.18557287220941
 20
-151.97773953450911
 11
169.18431601920111
 21
-152.18228210538561
 72
           1
 10
169.18431601920111
 20
-152.18228210538561
 11
169.16360591607059
 21
-152.38412822307291
 72
           1
 10
169.16360591607059
 20
-152.38412822307291
 11
169.1038177541254
 21
-152.5790001119021
 72
           1
 10
169.1038177541254
 20
-152.5790001119021
 11
168.99676147637359
 21
-152.7553958885546
 72
           1
 10
168.99676147637359
 20
-152.7553958885546
 11
168.8471325663088
 21
-152.89372431014681
 72
           1
 10
168.8471325663088
 20
-152.89372431014681
 11
168.6646278127192
 21
-152.9838298551918
 72
           1
 10
168.6646278127192
 20
-152.9838298551918
 11
168.46801423144319
 21
-153.03713981631941
 72
           1
 10
168.46801423144319
 20
-153.03713981631941
 11
168.267272055864
 21
-153.0651262405741
 72
           1
 10
168.267272055864
 20
-153.0651262405741
 11
168.267272055864
 21
-153.0787353106856
 72
           1
 10
168.267272055864
 20
-153.0787353106856
 11
168.37687187590581
 21
-153.1034173676841
 72
           1
 10
168.37687187590581
 20
-153.1034173676841
 11
168.4851663589952
 21
-153.1318103111615
 72
           1
 10
168.4851663589952
 20
-153.1318103111615
 11
168.59084270911191
 21
-153.1676324866641
 72
           1
 10
168.59084270911191
 20
-153.1676324866641
 11
168.69268509812349
 21
-153.2139048168529
 72
           1
 10
168.69268509812349
 20
-153.2139048168529
 11
168.7890338833331
 21
-153.27122402719181
 72
           1
 10
168.7890338833331
 20
-153.27122402719181
 11
168.8770695369241
 21
-153.3407835686082
 72
           1
 10
168.8770695369241
 20
-153.3407835686082
 11
168.95361822533599
 21
-153.4229675831192
 72
           1
 10
168.95361822533599
 20
-153.4229675831192
 11
169.01496533255551
 21
-153.51608659175579
 72
           1
 10
169.01496533255551
 20
-153.51608659175579
 11
169.05989875998469
 21
-153.61799984191569
 72
           1
 10
169.05989875998469
 20
-153.61799984191569
 11
169.09077557320569
 21
-153.72632416127939
 72
           1
 10
169.09077557320569
 20
-153.72632416127939
 11
169.1102176347253
 21
-153.8386651889204
 72
           1
 10
169.1102176347253
 20
-153.8386651889204
 11
169.1208281593797
 21
-153.95262110484799
 72
           1
 10
169.1208281593797
 20
-153.95262110484799
 11
169.12521036200499
 21
-154.06589824556031
 72
           1
 10
169.12521036200499
 20
-154.06589824556031
 11
169.12563179936379
 21
-154.1778551311842
 72
           1
 10
169.12563179936379
 20
-154.1778551311842
 11
169.1241176084994
 21
-154.28914443019571
 72
           1
 10
169.1241176084994
 20
-154.28914443019571
 11
169.12262206530571
 21
-154.40044491780949
 72
           1
 10
169.12262206530571
 20
-154.40044491780949
 11
169.121958208227
 21
-154.51203630908671
 72
           1
 10
169.121958208227
 20
-154.51203630908671
 11
169.121932101488
 21
-154.62385147241301
 72
           1
 10
169.121932101488
 20
-154.62385147241301
 11
169.12230132536871
 21
-154.73580089896919
 72
           1
 10
169.12230132536871
 20
-154.73580089896919
 11
169.12283837828619
 21
-154.84780999807049
 72
           1
 10
169.12283837828619
 20
-154.84780999807049
 11
169.1233008405205
 21
-154.95979299043449
 72
           1
 10
169.1233008405205
 20
-154.95979299043449
 11
169.12349850583041
 21
-155.07168274444291
 72
           1
 10
169.12349850583041
 20
-155.07168274444291
 11
169.1234723990915
 21
-155.18349417823549
 72
           1
 10
169.1234723990915
 20
-155.18349417823549
 11
169.12333067679381
 21
-155.29526831668531
 72
           1
 10
169.12333067679381
 20
-155.29526831668531
 11
168.4876875240802
 21
-155.29526831668531
 72
           1
 10
168.4876875240802
 20
-155.29526831668531
 11
168.48739289088209
 21
-155.0470864667295
 72
           1
 10
168.48739289088209
 20
-155.0470864667295
 11
168.48721014370889
 21
-154.7989195349094
 72
           1
 10
168.48721014370889
 20
-154.7989195349094
 11
168.48858634181011
 21
-154.55095026839919
 72
           1
 10
168.48858634181011
 20
-154.55095026839919
 11
168.4891942558765
 21
-154.30288403400181
 72
           1
 10
168.4891942558765
 20
-154.30288403400181
 11
168.4818246963975
 21
-154.05419869693429
 72
           1
 10
168.4818246963975
 20
-154.05419869693429
 11
168.44405943360309
 21
-153.80898928569559
 72
           1
 10
168.44405943360309
 20
-153.80898928569559
 11
168.3398860857487
 21
-153.58412821277281
 72
           1
 10
168.3398860857487
 20
-153.58412821277281
 11
168.15112690339069
 21
-153.42372840808559
 72
           1
 10
168.15112690339069
 20
-153.42372840808559
 11
167.9137047594547
 21
-153.3485559177756
 72
           1
 10
167.9137047594547
 20
-153.3485559177756
 11
167.66700726408919
 21
-153.3236799250007
 72
           1
 10
167.66700726408919
 20
-153.3236799250007
 11
167.4188030369279
 21
-153.317876769864
 72
           1
 10
167.4188030369279
 20
-153.317876769864
 11
164.19298243829971
 21
-153.3201649973243
 72
           1
 10
164.19298243829971
 20
-153.3201649973243
 11
164.19298243829971
 21
-155.2952679362341
 72
           1
 10
164.19298243829971
 20
-155.2952679362341
 11
163.51638169074101
 21
-155.2952679362341
 72
           1
 10
163.51638169074101
 20
-155.2952679362341
 11
163.51638169074101
 21
-150.296007554059
 97
       64
330
107
330
169
330
A4
330
A3
330
A2
330
A1
330
A0
330
9F
330
9E
330
9D
330
9C
330
9B
330
9A
330
99
330
98
330
97
330
96
330
95
330
94
330
93
330
92
330
91
330
90
330
8F
330
168
330
ED
330
EC
330
EB
330
EA
330
E9
330
E8
330
E7
330
E6
330
E5
330
E4
330
E3
330
E2
330
E1
330
E0
330
DF
330
DE
330
DD
330
DC
330
DB
330
DA
330
D9
330
D8
330
D7
330
167
330
D5
330
D4
330
D3
330
D2
330
D1
330
D0
330
CF
330
CE
330
CD
330
CC
330
CB
330
166
330
10C
330
10A
330
10B
 92
       16
 93
       12
 72
           1
 10
164.19298243829971
 20
-152.76818704775289
 11
164.19298243829971
 21
-150.84832232200449
 72
           1
 10
164.19298243829971
 20
-150.84832232200449
 11
167.08697892460791
 21
-150.848376921593
 72
           1
 10
167.08697892460791
 20
-150.848376921593
 11
167.50001737256019
 21
-150.8521474806181
 72
           1
 10
167.50001737256019
 20
-150.8521474806181
 11
167.9156030923364
 21
-150.8876116208429
 72
           1
 10
167.9156030923364
 20
-150.8876116208429
 11
168.30047982792831
 21
-151.0340741564155
 72
           1
 10
168.30047982792831
 20
-151.0340741564155
 11
168.49745517401681
 21
-151.38887592862781
 72
           1
 10
168.49745517401681
 20
-151.38887592862781
 11
168.50829692978829
 21
-151.8056178039904
 72
           1
 10
168.50829692978829
 20
-151.8056178039904
 11
168.4946207280633
 21
-152.2188017037742
 72
           1
 10
168.4946207280633
 20
-152.2188017037742
 11
168.29349441046699
 21
-152.57213403953321
 72
           1
 10
168.29349441046699
 20
-152.57213403953321
 11
167.91206003489469
 21
-152.7309562512755
 72
           1
 10
167.91206003489469
 20
-152.7309562512755
 11
167.50061409802419
 21
-152.76731175016059
 72
           1
 10
167.50061409802419
 20
-152.76731175016059
 11
164.19298243829971
 21
-152.76818704775289
 97
       12
330
106
330
16B
330
B6
330
B5
330
B4
330
B3
330
B2
330
B1
330
B0
330
AF
330
AE
330
16A
 75
           1
 76
           0
 52
0.0
 41
0.3
 77
           0
 78
           1
 53
0.0
 43
463.014737656294
 44
-326.933005700425
 45
0.0
 46
0.3
 79
           0
 98
        1
 10
0.0
 20
0.0
  0
HATCH
  5
195
100
AcDbEntity
  8
0
  6
CONTINUOUS
 62
           3
100
AcDbHatch
 10
0.0
 20
0.0
 30
0.0
210
0.0
220
0.0
230
1.0
  2
USER
 70
           0
 71
           1
 91
        3
 92
        1
 93
       27
 72
           1
 10
182.68301200955671
 20
-150.29600760540669
 11
186.95458774971939
 21
-150.2949513491979
 72
           1
 10
186.95458774971939
 20
-150.2949513491979
 11
187.2828837227342
 21
-150.3178656070107
 72
           1
 10
187.2828837227342
 20
-150.3178656070107
 11
187.60762917923921
 21
-150.3924786671991
 72
           1
 10
187.60762917923921
 20
-150.3924786671991
 11
187.89726480126291
 21
-150.547944298207
 72
           1
 10
187.89726480126291
 20
-150.547944298207
 11
188.11392089905661
 21
-150.79984449371059
 72
           1
 10
188.11392089905661
 20
-150.79984449371059
 11
188.24206769242289
 21
-151.11062284482659
 72
           1
 10
188.24206769242289
 20
-151.11062284482659
 11
188.2788707354066
 21
-151.4359389200568
 72
           1
 10
188.2788707354066
 20
-151.4359389200568
 11
188.27054641518549
 21
-151.76878492473301
 72
           1
 10
188.27054641518549
 20
-151.76878492473301
 11
188.22878309178299
 21
-152.0987069746366
 72
           1
 10
188.22878309178299
 20
-152.0987069746366
 11
188.06311718487669
 21
-152.3768369838115
 72
           1
 10
188.06311718487669
 20
-152.3768369838115
 11
187.78567713952049
 21
-152.55102487624791
 72
           1
 10
187.78567713952049
 20
-152.55102487624791
 11
187.46551532462169
 21
-152.62335514738911
 72
           1
 10
187.46551532462169
 20
-152.62335514738911
 11
187.46551532462169
 21
-152.65070479927141
 72
           1
 10
187.46551532462169
 20
-152.65070479927141
 11
187.81886253437941
 21
-152.70365606130329
 72
           1
 10
187.81886253437941
 20
-152.70365606130329
 11
188.1412658434393
 21
-152.85100622600291
 72
           1
 10
188.1412658434393
 20
-152.85100622600291
 11
188.3662089661116
 21
-153.1241498480191
 72
           1
 10
188.3662089661116
 20
-153.1241498480191
 11
188.45851493630431
 21
-153.46727071927671
 72
           1
 10
188.45851493630431
 20
-153.46727071927671
 11
188.4677268856519
 21
-153.82275126670569
 72
           1
 10
188.4677268856519
 20
-153.82275126670569
 11
188.4688755821706
 21
-154.1779446400046
 72
           1
 10
188.4688755821706
 20
-154.1779446400046
 11
188.42186107468561
 21
-154.5320825551382
 72
           1
 10
188.42186107468561
 20
-154.5320825551382
 11
188.25386793847051
 21
-154.84392009395299
 72
           1
 10
188.25386793847051
 20
-154.84392009395299
 11
187.9797770147793
 21
-155.07149253820171
 72
           1
 10
187.9797770147793
 20
-155.07149253820171
 11
187.65273416523939
 21
-155.2106004324317
 72
           1
 10
187.65273416523939
 20
-155.2106004324317
 11
187.30397050881419
 21
-155.279734806954
 72
           1
 10
187.30397050881419
 20
-155.279734806954
 11
186.9489039396754
 21
-155.29577553333061
 72
           1
 10
186.9489039396754
 20
-155.29577553333061
 11
182.6830105663779
 21
-155.29526831668531
 72
           1
 10
182.6830105663779
 20
-155.29526831668531
 11
182.68301200955671
 21
-150.29600760540669
 97
       26
330
163
330
38
330
37
330
36
330
35
330
34
330
33
330
32
330
31
330
30
330
2F
330
162
330
FB
330
161
330
74
330
73
330
72
330
71
330
70
330
6F
330
6E
330
6D
330
6C
330
6B
330
6A
330
160
 92
       16
 93
       10
 72
           1
 10
183.35673535682059
 20
-152.44308995419269
 11
183.35673535682059
 21
-150.84832232200449
 72
           1
 10
183.35673535682059
 20
-152.44308995419269
 11
186.54119126648931
 21
-152.44706784137409
 72
           1
 10
186.54119126648931
 20
-152.44706784137409
 11
186.93980387635159
 21
-152.4389076206555
 72
           1
 10
186.93980387635159
 20
-152.4389076206555
 11
187.3252810669419
 21
-152.344524299943
 72
           1
 10
187.3252810669419
 20
-152.344524299943
 11
187.56921497750309
 21
-152.0360246941917
 72
           1
 10
187.56921497750309
 20
-152.0360246941917
 11
187.5970074659817
 21
-151.6403994411821
 72
           1
 10
187.5970074659817
 20
-151.6403994411821
 11
187.58113456864299
 21
-151.240612028062
 72
           1
 10
187.58113456864299
 20
-151.240612028062
 11
187.32753370556799
 21
-150.94189871991821
 72
           1
 10
187.32753370556799
 20
-150.94189871991821
 11
186.93941600480051
 21
-150.85067804416431
 72
           1
 10
186.93941600480051
 20
-150.85067804416431
 11
183.35673535682059
 21
-150.84832232200449
 97
        2
330
FC
330
165
 92
       16
 93
       19
 72
           1
 10
183.35673599228809
 20
-152.9958762504933
 11
183.35673535682059
 21
-154.74248162256819
 72
           1
 10
183.35673535682059
 20
-154.74248162256819
 11
186.70640217022921
 21
-154.74377837251421
 72
           1
 10
186.70640217022921
 20
-154.74377837251421
 11
187.12507967381421
 21
-154.73400326350881
 72
           1
 10
187.12507967381421
 20
-154.73400326350881
 11
187.5263178757192
 21
-154.6232360992779
 72
           1
 10
187.5263178757192
 20
-154.6232360992779
 11
187.76704438691181
 21
-154.29083763869949
 72
           1
 10
187.76704438691181
 20
-154.29083763869949
 11
187.7899138903143
 21
-153.8731410025955
 72
           1
 10
187.7899138903143
 20
-153.8731410025955
 11
187.76369526524559
 21
-153.4551646514291
 72
           1
 10
187.76369526524559
 20
-153.4551646514291
 11
187.53480629544171
 21
-153.11955879148181
 72
           1
 10
187.53480629544171
 20
-153.11955879148181
 11
187.12336408810549
 21
-153.00494647754431
 72
           1
 10
187.12336408810549
 20
-153.00494647754431
 11
186.70464928917929
 21
-152.9910800695769
 72
           1
 10
186.70464928917929
 20
-152.9910800695769
 11
186.28860483670161
 21
-152.99841606324799
 72
           1
 10
186.28860483670161
 20
-152.99841606324799
 11
185.86941265740421
 21
-152.99700629934071
 72
           1
 10
185.86941265740421
 20
-152.99700629934071
 11
185.45004146046659
 21
-152.99508185971919
 72
           1
 10
185.45004146046659
 20
-152.99508185971919
 11
185.03147584290431
 21
-152.9955219447495
 72
           1
 10
185.03147584290431
 20
-152.9955219447495
 11
184.6129251434804
 21
-152.99600678418781
 72
           1
 10
184.6129251434804
 20
-152.99600678418781
 11
184.194165590143
 21
-152.9958687914239
 72
           1
 10
184.194165590143
 20
-152.9958687914239
 11
183.77544333214809
 21
-152.99586506189041
 72
           1
 10
183.77544333214809
 20
-152.99586506189041
 11
183.35673599228809
 21
-152.9958762504933
 72
           1
 10
183.35673599228809
 20
-152.9958762504933
 11
183.35673599228809
 21
-152.9958762504933
 97
        1
330
164
 75
           1
 76
           0
 52
0.0
 41
0.3
 77
           0
 78
           1
 53
0.0
 43
478.378850264612
 44
-326.102403568464
 45
0.0
 46
0.3
 79
           0
 98
        1
 10
0.0
 20
0.0
  0
HATCH
  5
194
100
AcDbEntity
  8
0
  6
CONTINUOUS
 62
           1
100
AcDbHatch
 10
0.0
 20
0.0
 30
0.0
210
0.0
220
0.0
230
1.0
  2
USER
 70
           0
 71
           1
 91
        1
 92
        1
 93
        4
 72
           2
 10
135.2168651565668
 20
-139.3668913533231
 40
7.9080459764773154
 50
-111.389835812799
 51
-28.017530678762
 73
           1
 72
           1
 10
132.10673162599161
 20
-147.38668738052451
 11
132.33270897129859
 21
-146.73023531276559
 72
           2
 10
135.21857481470519
 20
-139.37049815360109
 40
8.5990032999753012
 50
-111.215954643911
 51
-27.268535966438
 73
           1
 72
           1
 10
142.19811905103629
 20
-143.08163027107159
 11
142.86196199094101
 21
-143.31023040683019
 97
        4
330
15E
330
136
330
15F
330
FA
 75
           1
 76
           0
 52
20.0
 41
0.2
 77
           0
 78
           1
 53
20.0
 43
438.579971957639
 44
-322.79498074093
 45
-0.0684040286651337
 46
0.1879385241571817
 79
           0
 98
        1
 10
0.0
 20
0.0
  0
HATCH
  5
193
100
AcDbEntity
  8
0
  6
CONTINUOUS
 62
           4
100
AcDbHatch
 10
0.0
 20
0.0
 30
0.0
210
0.0
220
0.0
230
1.0
  2
USER
 70
           0
 71
           1
 91
        1
 92
        1
 93
        4
 72
           2
 10
145.826436338354
 20
-154.03622952200189
 40
9.0827251411655627
 50
75.086616427323
 51
-141.583441934091
 73
           1
 72
           1
 10
139.3772378293975
 20
-157.7425636044855
 11
138.7099947824577
 21
-159.68000091810291
 72
           2
 10
145.82409766185719
 20
-154.0327345268806
 40
7.438066515191033
 50
75.966597347068
 51
-150.081834826501
 73
           1
 72
           1
 10
148.1639530330018
 20
-145.2594469855479
 11
147.62773599108891
 21
-146.81666064548691
 97
        4
330
15C
330
12B
330
15D
330
123
 75
           1
 76
           0
 52
0.0
 41
0.15
 77
           0
 78
           1
 53
0.0
 43
0.0
 44
0.0
 45
0.0
 46
0.15
 79
           0
 98
        1
 10
0.0
 20
0.0
  0
HATCH
  5
192
100
AcDbEntity
  8
0
  6
CONTINUOUS
 62
           2
100
AcDbHatch
 10
0.0
 20
0.0
 30
0.0
210
0.0
220
0.0
230
1.0
  2
USER
 70
           0
 71
           1
 91
        1
 92
        1
 93
       12
 72
           1
 10
121.9539376860064
 20
-154.0940386378266
 11
125.53781970486649
 21
-151.5114502916166
 72
           1
 10
121.9539376860064
 20
-155.29526763011671
 11
121.9539376860064
 21
-154.0940386378266
 72
           1
 10
127.8855110734366
 20
-155.29526763011671
 11
121.9539376860064
 21
-155.29526763011671
 72
           1
 10
127.8855110734366
 20
-154.0940386378266
 11
127.8855110734366
 21
-155.29526763011671
 72
           1
 10
124.2257775084464
 20
-154.0940386378266
 11
127.8855110734366
 21
-154.0940386378266
 72
           1
 10
124.2257775084464
 20
-154.0796230154867
 11
124.2257775084464
 21
-154.0940386378266
 72
           1
 10
127.8026538993266
 20
-151.49743864458659
 11
124.2257775084464
 21
-154.0796230154867
 72
           1
 10
127.8026538993266
 20
-150.29600746910671
 11
127.8026538993266
 21
-151.49743864458659
 72
           1
 10
122.05046979587659
 20
-150.29600746910671
 11
127.8026538993266
 21
-150.29600746910671
 72
           1
 10
122.05046979587659
 20
-151.49743864458659
 11
122.05046979587659
 21
-150.29600746910671
 72
           1
 10
125.53781970486649
 20
-151.49743864458659
 11
122.05046979587659
 21
-151.49743864458659
 72
           1
 10
125.53781970486649
 20
-151.5114502916166
 11
125.53781970486649
 21
-151.49743864458659
 97
       12
330
14D
330
148
330
149
330
142
330
14A
330
147
330
14B
330
13B
330
14C
330
146
330
14E
330
13A
 75
           1
 76
           0
 52
0.0
 41
0.2
 77
           0
 78
           1
 53
0.0
 43
0.0
 44
0.0
 45
0.0
 46
0.2
 79
           0
 98
        1
 10
0.0
 20
0.0
  0
HATCH
  5
191
100
AcDbEntity
  8
0
  6
CONTINUOUS
 62
           2
100
AcDbHatch
 10
0.0
 20
0.0
 30
0.0
210
0.0
220
0.0
230
1.0
  2
USER
 70
           0
 71
           1
 91
        1
 92
        1
 93
       12
 72
           1
 10
129.20880318054651
 20
-150.29600746910671
 11
134.96078549187649
 21
-150.29600746910671
 72
           1
 10
129.20880318054651
 20
-151.49743864458659
 11
129.20880318054651
 21
-150.29600746910671
 72
           1
 10
132.69595129741629
 20
-151.49743864458659
 11
129.20880318054651
 21
-151.49743864458659
 72
           1
 10
132.69595129741629
 20
-151.5114502916166
 11
132.69595129741629
 21
-151.49743864458659
 72
           1
 10
129.11206888748649
 20
-154.0940386378266
 11
132.69595129741629
 21
-151.5114502916166
 72
           1
 10
129.11206888748649
 20
-155.29526763011671
 11
129.11206888748649
 21
-154.0940386378266
 72
           1
 10
135.04364266598651
 20
-155.29526763011671
 11
129.11206888748649
 21
-155.29526763011671
 72
           1
 10
135.04364266598651
 20
-154.0940386378266
 11
135.04364266598651
 21
-155.29526763011671
 72
           1
 10
131.3839091009965
 20
-154.0940386378266
 11
135.04364266598651
 21
-154.0940386378266
 72
           1
 10
131.3839091009965
 20
-154.0796230154867
 11
131.3839091009965
 21
-154.0940386378266
 72
           1
 10
134.96078549187649
 20
-151.49743864458659
 11
131.3839091009965
 21
-154.0796230154867
 72
           1
 10
134.96078549187649
 20
-150.29600746910671
 11
134.96078549187649
 21
-151.49743864458659
 97
       12
330
13C
330
139
330
13D
330
138
330
144
330
141
330
143
330
13E
330
140
330
13F
330
145
330
137
 75
           1
 76
           0
 52
0.0
 41
0.2
 77
           0
 78
           1
 53
0.0
 43
0.0
 44
0.0
 45
0.0
 46
0.2
 79
           0
 98
        1
 10
0.0
 20
0.0
  0
HATCH
  5
190
100
AcDbEntity
  8
0
  6
CONTINUOUS
 62
           3
100
AcDbHatch
 10
0.0
 20
0.0
 30
0.0
210
0.0
220
0.0
230
1.0
  2
USER
 70
           0
 71
           1
 91
        1
 92
        1
 93
       10
 72
           1
 10
148.55915365657651
 20
-150.29600746910671
 11
149.5673856931667
 21
-150.29600746910671
 72
           1
 10
148.55915365657651
 20
-155.29526763011671
 11
148.55915365657651
 21
-150.29600746910671
 72
           1
 10
149.23595621458639
 20
-155.29526763011671
 11
148.55915365657651
 21
-155.29526763011671
 72
           1
 10
149.23595621458639
 20
-150.9036277887669
 11
149.23595621458639
 21
-155.29526763011671
 72
           1
 10
153.81405901407641
 20
-155.29526763011671
 11
149.23595621458639
 21
-150.9036277887669
 72
           1
 10
154.82222378662681
 20
-155.29526763011671
 11
153.81405901407641
 21
-155.29526763011671
 72
           1
 10
154.82222378662681
 20
-150.29600746910671
 11
154.82222378662681
 21
-155.29526763011671
 72
           1
 10
154.1455557566965
 20
-150.29600746910671
 11
154.82222378662681
 21
-150.29600746910671
 72
           1
 10
154.1455557566965
 20
-154.68778222960691
 11
154.1455557566965
 21
-150.29600746910671
 72
           1
 10
149.5673856931667
 20
-150.29600746910671
 11
154.1455557566965
 21
-154.68778222960691
 97
       10
330
124
330
132
330
126
330
133
330
134
330
11E
330
11F
330
11A
330
120
330
135
 75
           1
 76
           0
 52
0.0
 41
0.3
 77
           0
 78
           1
 53
0.0
 43
469.98900658108
 44
-327.208403005825
 45
0.0
 46
0.3
 79
           0
 98
        1
 10
0.0
 20
0.0
  0
HATCH
  5
18F
100
AcDbEntity
  8
0
  6
CONTINUOUS
 62
           3
100
AcDbHatch
 10
0.0
 20
0.0
 30
0.0
210
0.0
220
0.0
230
1.0
  2
USER
 70
           0
 71
           1
 91
        2
 92
        1
 93
        8
 72
           1
 10
140.31040409267641
 20
-155.2952680211867
 11
143.27966016389649
 21
-150.29600746910671
 72
           1
 10
141.07693531576649
 20
-155.2952680211867
 11
140.31040409267641
 21
-155.2952680211867
 72
           1
 10
141.6985000184165
 20
-154.2388706301868
 11
141.07693531576649
 21
-155.2952680211867
 72
           1
 10
145.70353978986631
 20
-154.2388706301868
 11
141.6985000184165
 21
-154.2388706301868
 72
           1
 10
146.3249023093264
 20
-155.2952680211867
 11
145.70353978986631
 21
-154.2388706301868
 72
           1
 10
147.0913662683767
 20
-155.2952680211867
 11
146.3249023093264
 21
-155.2952680211867
 72
           1
 10
144.12224511630649
 20
-150.29600746910671
 11
147.0913662683767
 21
-155.2952680211867
 72
           1
 10
143.27966016389649
 20
-150.29600746910671
 11
144.12224511630649
 21
-150.29600746910671
 97
        8
330
12F
330
12A
330
129
330
12C
330
128
330
127
330
12E
330
125
 92
       16
 93
        3
 72
           1
 10
145.37891414714659
 20
-153.68621910972669
 11
142.02292347794651
 21
-153.68621910972669
 72
           1
 10
142.02292347794651
 20
-153.68621910972669
 11
143.70102009967641
 21
-150.84832227829691
 72
           1
 10
143.70102009967641
 20
-150.84832227829691
 11
145.37891414714659
 21
-153.68621910972669
 97
        3
330
12D
330
130
330
131
 75
           1
 76
           0
 52
0.0
 41
0.3
 77
           0
 78
           1
 53
0.0
 43
444.760066932193
 44
-328.247283258136
 45
0.0
 46
0.3
 79
           0
 98
        1
 10
0.0
 20
0.0
  0
HATCH
  5
18E
100
AcDbEntity
  8
0
  6
CONTINUOUS
 62
           3
100
AcDbHatch
 10
0.0
 20
0.0
 30
0.0
210
0.0
220
0.0
230
1.0
  2
USER
 70
           0
 71
           1
 91
        1
 92
        1
 93
        8
 72
           1
 10
156.30415734993659
 20
-150.29600746910671
 11
162.0359976009166
 21
-150.29600746910671
 72
           1
 10
156.30415734993659
 20
-150.84832227829691
 11
156.30415734993659
 21
-150.29600746910671
 72
           1
 10
158.8315074497165
 20
-150.84832227829691
 11
156.30415734993659
 21
-150.84832227829691
 72
           1
 10
158.8315074497165
 20
-155.29526763011671
 11
158.8315074497165
 21
-150.84832227829691
 72
           1
 10
159.5081082156066
 20
-155.29526763011671
 11
158.8315074497165
 21
-155.29526763011671
 72
           1
 10
159.5081082156066
 20
-150.84832227829691
 11
159.5081082156066
 21
-155.29526763011671
 72
           1
 10
162.0359976009166
 20
-150.84832227829691
 11
159.5081082156066
 21
-150.84832227829691
 72
           1
 10
162.0359976009166
 20
-150.29600746910671
 11
162.0359976009166
 21
-150.84832227829691
 97
        8
330
11B
330
119
330
11C
330
121
330
11D
330
122
330
118
330
117
 75
           1
 76
           0
 52
0.0
 41
0.3
 77
           0
 78
           1
 53
0.0
 43
455.439735354765
 44
-325.508764189189
 45
0.0
 46
0.3
 79
           0
 98
        1
 10
0.0
 20
0.0
  0
HATCH
  5
18D
100
AcDbEntity
  8
0
  6
CONTINUOUS
 62
           3
100
AcDbHatch
 10
0.0
 20
0.0
 30
0.0
210
0.0
220
0.0
230
1.0
  2
USER
 70
           0
 71
           1
 91
        1
 92
        1
 93
       12
 72
           1
 10
175.2822557232968
 20
-150.29600746910671
 11
180.19158581817669
 21
-150.29600746910671
 72
           1
 10
175.2822557232968
 20
-155.29526763011671
 11
175.2822557232968
 21
-150.29600746910671
 72
           1
 10
180.2189352986266
 20
-155.29526763011671
 11
175.2822557232968
 21
-155.29526763011671
 72
           1
 10
180.2189352986266
 20
-154.7424815815767
 11
180.2189352986266
 21
-155.29526763011671
 72
           1
 10
175.9588564891869
 20
-154.7424815815767
 11
180.2189352986266
 21
-154.7424815815767
 72
           1
 10
175.9588564891869
 20
-152.9958761440368
 11
175.9588564891869
 21
-154.7424815815767
 72
           1
 10
180.02587107888681
 20
-152.9958761440368
 11
175.9588564891869
 21
-152.9958761440368
 72
           1
 10
180.02587107888681
 20
-152.44308970442671
 11
180.02587107888681
 21
-152.9958761440368
 72
           1
 10
175.9588564891869
 20
-152.44308970442671
 11
180.02587107888681
 21
-152.44308970442671
 72
           1
 10
175.9588564891869
 20
-150.84832227829691
 11
175.9588564891869
 21
-152.44308970442671
 72
           1
 10
180.19158581817669
 20
-150.84832227829691
 11
175.9588564891869
 21
-150.84832227829691
 72
           1
 10
180.19158581817669
 20
-150.29600746910671
 11
180.19158581817669
 21
-150.84832227829691
 97
       12
330
113
330
10D
330
111
330
FF
330
112
330
10E
330
114
330
FE
330
115
330
103
330
116
330
FD
 75
           1
 76
           0
 52
0.0
 41
0.3
 77
           0
 78
           1
 53
0.0
 43
470.534094947584
 44
-327.281203031343
 45
0.0
 46
0.3
 79
           0
 98
        1
 10
0.0
 20
0.0
  0
HATCH
  5
18C
100
AcDbEntity
  8
0
  6
CONTINUOUS
 62
           3
100
AcDbHatch
 10
0.0
 20
0.0
 30
0.0
210
0.0
220
0.0
230
1.0
  2
USER
 70
           0
 71
           1
 91
        1
 92
        1
 93
        4
 72
           1
 10
171.8266341055465
 20
-150.29600746910671
 11
172.50323487143669
 21
-150.29600746910671
 72
           1
 10
171.8266341055465
 20
-155.29526763011671
 11
171.8266341055465
 21
-150.29600746910671
 72
           1
 10
172.50323487143669
 20
-155.29526763011671
 11
171.8266341055465
 21
-155.29526763011671
 72
           1
 10
172.50323487143669
 20
-150.29600746910671
 11
172.50323487143669
 21
-155.29526763011671
 97
        4
330
104
330
10F
330
108
330
110
 75
           1
 76
           0
 52
0.0
 41
0.3
 77
           0
 78
           1
 53
0.0
 43
465.732989702146
 44
-329.104220759636
 45
0.0
 46
0.3
 79
           0
 98
        1
 10
0.0
 20
0.0
  0
HATCH
  5
18B
100
AcDbEntity
  8
0
  6
CONTINUOUS
 62
           3
100
AcDbHatch
 10
0.0
 20
0.0
 30
0.0
210
0.0
220
0.0
230
1.0
  2
USER
 70
           0
 71
           1
 91
        1
 92
        1
 93
       12
 72
           1
 10
191.1012675635267
 20
-150.29600746910671
 11
196.01154052817691
 21
-150.29600746910671
 72
           1
 10
191.1012675635267
 20
-155.29526763011671
 11
191.1012675635267
 21
-150.29600746910671
 72
           1
 10
196.03889000862659
 20
-155.29526763011671
 11
191.1012675635267
 21
-155.29526763011671
 72
           1
 10
196.03889000862659
 20
-154.7424815815767
 11
196.03889000862659
 21
-155.29526763011671
 72
           1
 10
191.77881119918661
 20
-154.7424815815767
 11
196.03889000862659
 21
-154.7424815815767
 72
           1
 10
191.77881119918661
 20
-152.9958761440368
 11
191.77881119918661
 21
-154.7424815815767
 72
           1
 10
195.84582578888671
 20
-152.9958761440368
 11
191.77881119918661
 21
-152.9958761440368
 72
           1
 10
195.84582578888671
 20
-152.44308970442671
 11
195.84582578888671
 21
-152.9958761440368
 72
           1
 10
191.77881119918661
 20
-152.44308970442671
 11
195.84582578888671
 21
-152.44308970442671
 72
           1
 10
191.77881119918661
 20
-150.84832227829691
 11
191.77881119918661
 21
-152.44308970442671
 72
           1
 10
196.01154052817691
 20
-150.84832227829691
 11
191.77881119918661
 21
-150.84832227829691
 72
           1
 10
196.01154052817691
 20
-150.29600746910671
 11
196.01154052817691
 21
-150.84832227829691
 97
       12
330
F1
330
F8
330
F6
330
F5
330
F7
330
F9
330
F2
330
EF
330
F3
330
F0
330
F4
330
EE
 75
           1
 76
           0
 52
0.0
 41
0.3
 77
           0
 78
           1
 53
0.0
 43
483.798770870378
 44
-327.29898966355
 45
0.0
 46
0.3
 79
           0
 98
        1
 10
0.0
 20
0.0
  0
TEXT
  5
18A
100
AcDbEntity
  8
1
 62
           7
100
AcDbText
 10
105.491105619565
 20
-58.67807586856
 40
3.0
  1
Bevel Gearbox:
 41
0.765
  7
CONVERTER_3
100
AcDbText
  0
TEXT
  5
189
100
AcDbEntity
  8
1
 62
           3
100
AcDbText
 10
-21.508894380435
 20
-181.67807586856
 40
2.5
  1
Maße und Darstellung unverbindlich, Änderungen vorbehalten.
 41
0.792
  7
CONVERTER_4
100
AcDbText
  0
MTEXT
  5
187
100
AcDbEntity
  8
1
 62
           3
100
AcDbMText
 10
105.491105619565
 20
-178.67807586856
 30
0.0
 40
2.5
 41
0.0
 71
           7
 72
           1
  1
ZZ-Antriebe GmbH\PAn der Tagweide 12\PD-76139 Karlsruhe
  7
CONVERTER_2
  0
MTEXT
  5
186
100
AcDbEntity
  8
1
 62
           3
100
AcDbMText
 10
163.491105619565
 20
-178.67807586856
 30
0.0
 40
2.5
 41
0.0
 71
           7
 72
           1
  1
Tel.: +49-(0)721-6205-0\Pwww.zz-antriebe.de\Pinfo@zz-antriebe.de
  7
CONVERTER_2
  0
TEXT
  5
185
100
AcDbEntity
  8
1
 62
           7
100
AcDbText
 10
105.491105619565
 20
-52.67807586856
 40
4.0
  1
Kegelradgetriebe:
 41
0.9
  7
CONVERTER_2
100
AcDbText
  0
TEXT
  5
184
100
AcDbEntity
  8
1
 62
           7
100
AcDbText
 10
163.491105619565
 20
-55.67807586856
 40
4.5
  1
HK260
 41
0.9
  7
CONVERTER_2
100
AcDbText
  0
TEXT
  5
183
100
AcDbEntity
  8
1
 62
           3
100
AcDbText
 10
105.491105619565
 20
-67.92807586856
 40
3.0
  1
Übersetzung:
 41
0.9
  7
CONVERTER_2
100
AcDbText
  0
TEXT
  5
182
100
AcDbEntity
  8
1
 62
           3
100
AcDbText
 10
105.491105619565
 20
-73.42807586856
 40
3.0
  1
Transmission ratio:
 41
0.765
  7
CONVERTER_3
100
AcDbText
  0
TEXT
  5
181
100
AcDbEntity
  8
1
 62
           3
100
AcDbText
 10
105.491105619565
 20
-86.42807586856
 40
3.0
  1
Shaft configuration:
 41
0.765
  7
CONVERTER_3
100
AcDbText
  0
TEXT
  5
180
100
AcDbEntity
  8
1
 62
           3
100
AcDbText
 10
105.491105619565
 20
-80.92807586856
 40
3.0
  1
Wellenausführung:
 41
0.9
  7
CONVERTER_2
100
AcDbText
  0
TEXT
  5
17F
100
AcDbEntity
  8
1
 62
           3
100
AcDbText
 10
105.491105619565
 20
-93.92807586856
 40
3.0
  1
Verzahnung:
 41
0.9
  7
CONVERTER_2
100
AcDbText
  0
TEXT
  5
17E
100
AcDbEntity
  8
1
 62
           3
100
AcDbText
 10
105.491105619565
 20
-99.42807586856
 40
3.0
  1
Gear teeth:
 41
0.765
  7
CONVERTER_3
100
AcDbText
  0
TEXT
  5
17D
100
AcDbEntity
  8
1
 62
           3
100
AcDbText
 10
105.491105619565
 20
-112.42807586856
 40
3.0
  1
Feather key dimensions:
 41
0.765
  7
CONVERTER_3
100
AcDbText
  0
TEXT
  5
17C
100
AcDbEntity
  8
1
 62
           3
100
AcDbText
 10
105.491105619565
 20
-106.92807586856
 40
3.0
  1
Paßfedermaße:
 41
0.9
  7
CONVERTER_2
100
AcDbText
  0
TEXT
  5
17B
100
AcDbEntity
  8
1
 62
           3
100
AcDbText
 10
105.491105619565
 20
-119.92807586856
 40
3.0
  1
Wellenzentrierung:
 41
0.9
  7
CONVERTER_2
100
AcDbText
  0
TEXT
  5
17A
100
AcDbEntity
  8
1
 62
           3
100
AcDbText
 10
105.491105619565
 20
-125.42807586856
 40
3.0
  1
Centre thread:
 41
0.765
  7
CONVERTER_3
100
AcDbText
  0
TEXT
  5
179
100
AcDbEntity
  8
1
 62
           3
100
AcDbText
 10
105.491105619565
 20
-138.42807586856
 40
3.0
  1
Weight:
 41
0.765
  7
CONVERTER_3
100
AcDbText
  0
TEXT
  5
178
100
AcDbEntity
  8
1
 62
           3
100
AcDbText
 10
105.491105619565
 20
-132.92807586856
 40
3.0
  1
Gewicht:
 41
0.9
  7
CONVERTER_2
100
AcDbText
  0
TEXT
  5
177
100
AcDbEntity
  8
1
 62
           3
100
AcDbText
 10
163.491105619565
 20
-99.42807586856
 40
3.0
  1
Palloid spiral gears
 41
0.765
  7
CONVERTER_3
100
AcDbText
  0
TEXT
  5
176
100
AcDbEntity
  8
1
 62
           3
100
AcDbText
 10
163.491105619565
 20
-93.92807586856
 40
3.0
  1
Palloid spiralverzahnt
 41
0.9
  7
CONVERTER_2
100
AcDbText
  0
TEXT
  5
175
100
AcDbEntity
  8
1
 62
           3
100
AcDbText
 10
163.491105619565
 20
-80.92807586856
 40
3.0
  1
Hohlwelle
 41
0.9
  7
CONVERTER_2
100
AcDbText
  0
TEXT
  5
174
100
AcDbEntity
  8
1
 62
           3
100
AcDbText
 10
163.491105619565
 20
-86.42807586856
 40
3.0
  1
Hollow shaft
 41
0.765
  7
CONVERTER_3
100
AcDbText
  0
TEXT
  5
172
100
AcDbEntity
  8
1
 62
           3
100
AcDbText
 10
163.491105619565
 20
-135.67807586856
 40
3.0
  1
ca. 135kg
 41
0.9
  7
CONVERTER_2
100
AcDbText
  0
TEXT
  5
171
100
AcDbEntity
  8
1
 62
           3
100
AcDbText
 10
163.491105619565
 20
-70.67807586856
 40
3.0
  1
4:1
 41
0.9
  7
CONVERTER_2
100
AcDbText
  0
TEXT
  5
170
100
AcDbEntity
  8
1
 62
           3
100
AcDbText
 10
163.491105619565
 20
-109.67807586856
 40
3.0
  1
DIN 6885/1
 41
0.9
  7
CONVERTER_2
100
AcDbText
  0
TEXT
  5
16F
100
AcDbEntity
  8
1
 62
           3
100
AcDbText
 10
163.491105619565
 20
-122.67807586856
 40
3.0
  1
DIN 332/2-DS
 41
0.9
  7
CONVERTER_2
100
AcDbText
  0
TEXT
  5
16D
100
AcDbEntity
  8
1
 62
           3
100
AcDbText
 10
-176.508894380435
 20
-181.67807586856
 40
2.5
  1
Schutzvermerk DIN ISO 16016 / DIN 34
 41
0.855
  7
CONVERTER_1
100
AcDbText
  0
LWPOLYLINE
  5
16B
100
AcDbEntity
  8
1
  6
CONTINUOUS
 62
           3
 60
           1
100
AcDbPolyline
 90
        2
 70
           0
 10
164.1929824383
 20
-150.848322322004
 10
167.086978924608
 20
-150.848376921593
  0
LWPOLYLINE
  5
16A
100
AcDbEntity
  8
1
  6
CONTINUOUS
 62
           3
 60
           1
100
AcDbPolyline
 90
        2
 70
           0
 10
167.500614098024
 20
-152.767311750161
 10
164.1929824383
 20
-152.768187047753
  0
LWPOLYLINE
  5
169
100
AcDbEntity
  8
1
  6
CONTINUOUS
 62
           3
 60
           1
100
AcDbPolyline
 90
        2
 70
           0
 10
167.105225344396
 20
-150.296007554059
 10
167.308218619871
 20
-150.295548074662
  0
LWPOLYLINE
  5
168
100
AcDbEntity
  8
1
  6
CONTINUOUS
 62
           3
 60
           1
100
AcDbPolyline
 90
        3
 70
           0
 10
168.468014231443
 20
-153.037139816319
 10
168.267272055864
 20
-153.065126240574
 10
168.267272055864
 20
-153.078735310686
  0
LWPOLYLINE
  5
167
100
AcDbEntity
  8
1
  6
CONTINUOUS
 62
           3
 60
           1
100
AcDbPolyline
 90
        3
 70
           0
 10
169.123472399092
 20
-155.183494178235
 10
169.123330676794
 20
-155.295268316685
 10
168.48768752408
 20
-155.295268316685
  0
LWPOLYLINE
  5
166
100
AcDbEntity
  8
1
  6
CONTINUOUS
 62
           3
 60
           1
100
AcDbPolyline
 90
        2
 70
           0
 10
167.418803036928
 20
-153.317876769864
 10
164.1929824383
 20
-153.320164997324
  0
LWPOLYLINE
  5
165
100
AcDbEntity
  8
1
  6
CONTINUOUS
 62
           3
 60
           1
100
AcDbPolyline
 90
       10
 70
           0
 10
183.356735356821
 20
-152.443089954193
 10
186.541191266489
 20
-152.447067841374
 10
186.939803876352
 20
-152.438907620656
 10
187.325281066942
 20
-152.344524299943
 10
187.569214977503
 20
-152.036024694192
 10
187.597007465982
 20
-151.640399441182
 10
187.581134568643
 20
-151.240612028062
 10
187.327533705568
 20
-150.941898719918
 10
186.939416004801
 20
-150.850678044164
 10
183.356735356821
 20
-150.848322322004
  0
LWPOLYLINE
  5
164
100
AcDbEntity
  8
1
  6
CONTINUOUS
 62
           3
 60
           1
100
AcDbPolyline
 90
       19
 70
           1
 10
183.356735992288
 20
-152.995876250493
 10
183.356735356821
 20
-154.742481622568
 10
186.706402170229
 20
-154.743778372514
 10
187.125079673814
 20
-154.734003263509
 10
187.526317875719
 20
-154.623236099278
 10
187.767044386912
 20
-154.290837638699
 10
187.789913890314
 20
-153.873141002596
 10
187.763695265246
 20
-153.455164651429
 10
187.534806295442
 20
-153.119558791482
 10
187.123364088105
 20
-153.004946477544
 10
186.704649289179
 20
-152.991080069577
 10
186.288604836702
 20
-152.998416063248
 10
185.869412657404
 20
-152.997006299341
 10
185.450041460467
 20
-152.995081859719
 10
185.031475842904
 20
-152.99552194475
 10
184.61292514348
 20
-152.996006784188
 10
184.194165590143
 20
-152.995868791424
 10
183.775443332148
 20
-152.99586506189
 10
183.356735992288
 20
-152.995876250493
  0
LWPOLYLINE
  5
163
100
AcDbEntity
  8
1
  6
CONTINUOUS
 62
           3
 60
           1
100
AcDbPolyline
 90
        2
 70
           0
 10
182.683012009557
 20
-150.296007605407
 10
186.954587749719
 20
-150.294951349198
  0
LWPOLYLINE
  5
162
100
AcDbEntity
  8
1
  6
CONTINUOUS
 62
           3
 60
           1
100
AcDbPolyline
 90
        2
 70
           0
 10
187.78567713952
 20
-152.551024876248
 10
187.465515324622
 20
-152.623355147389
  0
LWPOLYLINE
  5
161
100
AcDbEntity
  8
1
  6
CONTINUOUS
 62
           3
 60
           1
100
AcDbPolyline
 90
        2
 70
           0
 10
187.465515324622
 20
-152.650704799271
 10
187.818862534379
 20
-152.703656061303
  0
LWPOLYLINE
  5
160
100
AcDbEntity
  8
1
  6
CONTINUOUS
 62
           3
 60
           1
100
AcDbPolyline
 90
        3
 70
           0
 10
186.948903939675
 20
-155.295775533331
 10
182.683010566378
 20
-155.295268316685
 10
182.683012009557
 20
-150.296007605407
  0
ARC
  5
15F
100
AcDbEntity
  8
KONTUR
  6
CONTINUOUS
 62
           1
100
AcDbCircle
 10
135.218574814705
 20
-139.370498153601
 40
8.599003299975
100
AcDbArc
 50
-111.215954643911
 51
-27.268535966438
  0
ARC
  5
15E
100
AcDbEntity
  8
KONTUR
  6
CONTINUOUS
 62
           1
100
AcDbCircle
 10
135.216865156567
 20
-139.366891353323
 40
7.908045976477
100
AcDbArc
 50
-111.389835812799
 51
-28.017530678762
  0
ARC
  5
15D
100
AcDbEntity
  8
KONTUR
  6
CONTINUOUS
 62
           4
100
AcDbCircle
 10
145.824097661857
 20
-154.032734526881
 40
7.438066515191
100
AcDbArc
 50
75.966597347068
 51
-150.081834826501
  0
ARC
  5
15C
100
AcDbEntity
  8
KONTUR
  6
CONTINUOUS
 62
           4
100
AcDbCircle
 10
145.826436338354
 20
-154.036229522002
 40
9.082725141166
100
AcDbArc
 50
75.086616427323
 51
-141.583441934091
  0
LINE
  5
15B
100
AcDbEntity
  8
1
  6
CONTINUOUS
 62
           6
100
AcDbLine
 10
-186.508894380435
 20
-187.67807586856
 11
223.491105619565
 21
-187.67807586856
  0
LINE
  5
15A
100
AcDbEntity
  8
1
  6
CONTINUOUS
 62
           6
100
AcDbLine
 10
-186.508894380435
 20
99.32192413144
 11
223.491105619565
 21
99.32192413144
  0
LINE
  5
159
100
AcDbEntity
  8
1
  6
CONTINUOUS
 62
           6
100
AcDbLine
 10
-186.508894380435
 20
-187.67807586856
 11
-186.508894380435
 21
99.32192413144
  0
LINE
  5
158
100
AcDbEntity
  8
1
  6
CONTINUOUS
 62
           6
100
AcDbLine
 10
223.491105619565
 20
-187.67807586856
 11
223.491105619565
 21
99.32192413144
  0
LINE
  5
157
100
AcDbEntity
  8
1
  6
CONTINUOUS
 62
           3
100
AcDbLine
 10
-171.508894380435
 20
-187.67807586856
 11
-171.508894380435
 21
-186.97807586856
  0
LINE
  5
156
100
AcDbEntity
  8
1
  6
CONTINUOUS
 62
           3
100
AcDbLine
 10
-171.508894380435
 20
99.32192413144
 11
-171.508894380435
 21
98.62192413144
  0
LINE
  5
155
100
AcDbEntity
  8
1
  6
CONTINUOUS
 62
           2
100
AcDbLine
 10
100.491105619565
 20
-181.67807586856
 11
217.491105619565
 21
-181.67807586856
  0
LINE
  5
154
100
AcDbEntity
  8
1
  6
CONTINUOUS
 62
           2
100
AcDbLine
 10
217.491105619565
 20
-45.67807586856
 11
100.491105619565
 21
-45.67807586856
  0
LINE
  5
153
100
AcDbEntity
  8
1
  6
CONTINUOUS
 62
           3
100
AcDbLine
 10
100.491105619565
 20
-61.67807586856
 11
217.491105619565
 21
-61.67807586856
  0
LINE
  5
152
100
AcDbEntity
  8
1
  6
CONTINUOUS
 62
           2
100
AcDbLine
 10
100.491105619565
 20
-45.67807586856
 11
100.491105619565
 21
-181.67807586856
  0
LINE
  5
151
100
AcDbEntity
  8
1
  6
CONTINUOUS
 62
           3
100
AcDbLine
 10
100.491105619565
 20
-141.67807586856
 11
217.491105619565
 21
-141.67807586856
  0
LINE
  5
150
100
AcDbEntity
  8
1
  6
CONTINUOUS
 62
           2
100
AcDbLine
 10
217.491105619565
 20
-181.67807586856
 11
217.491105619565
 21
-45.67807586856
  0
LINE
  5
14F
100
AcDbEntity
  8
1
  6
CONTINUOUS
 62
           3
100
AcDbLine
 10
217.491105619565
 20
-161.67807586856
 11
100.491105619565
 21
-161.67807586856
  0
LINE
  5
14E
100
AcDbEntity
  8
KONTUR
  6
CONTINUOUS
 62
           2
100
AcDbLine
 10
125.537819704866
 20
-151.497438644587
 11
122.050469795877
 21
-151.497438644587
  0
LINE
  5
14D
100
AcDbEntity
  8
KONTUR
  6
CONTINUOUS
 62
           2
100
AcDbLine
 10
121.953937686006
 20
-154.094038637827
 11
125.537819704866
 21
-151.511450291617
  0
LINE
  5
14C
100
AcDbEntity
  8
KONTUR
  6
CONTINUOUS
 62
           2
100
AcDbLine
 10
122.050469795877
 20
-150.296007469107
 11
127.802653899327
 21
-150.296007469107
  0
LINE
  5
14B
100
AcDbEntity
  8
KONTUR
  6
CONTINUOUS
 62
           2
100
AcDbLine
 10
127.802653899327
 20
-151.497438644587
 11
124.225777508446
 21
-154.079623015487
  0
LINE
  5
14A
100
AcDbEntity
  8
KONTUR
  6
CONTINUOUS
 62
           2
100
AcDbLine
 10
124.225777508446
 20
-154.094038637827
 11
127.885511073437
 21
-154.094038637827
  0
LINE
  5
149
100
AcDbEntity
  8
KONTUR
  6
CONTINUOUS
 62
           2
100
AcDbLine
 10
127.885511073437
 20
-155.295267630117
 11
121.953937686006
 21
-155.295267630117
  0
LINE
  5
148
100
AcDbEntity
  8
KONTUR
  6
CONTINUOUS
 62
           2
100
AcDbLine
 10
121.953937686006
 20
-155.295267630117
 11
121.953937686006
 21
-154.094038637827
  0
LINE
  5
147
100
AcDbEntity
  8
KONTUR
  6
CONTINUOUS
 62
           2
100
AcDbLine
 10
124.225777508446
 20
-154.079623015487
 11
124.225777508446
 21
-154.094038637827
  0
LINE
  5
146
100
AcDbEntity
  8
KONTUR
  6
CONTINUOUS
 62
           2
100
AcDbLine
 10
122.050469795877
 20
-151.497438644587
 11
122.050469795877
 21
-150.296007469107
  0
LINE
  5
145
100
AcDbEntity
  8
KONTUR
  6
CONTINUOUS
 62
           2
100
AcDbLine
 10
134.960785491876
 20
-151.497438644587
 11
131.383909100997
 21
-154.079623015487
  0
LINE
  5
144
100
AcDbEntity
  8
KONTUR
  6
CONTINUOUS
 62
           2
100
AcDbLine
 10
129.112068887486
 20
-154.094038637827
 11
132.695951297416
 21
-151.511450291617
  0
LINE
  5
143
100
AcDbEntity
  8
KONTUR
  6
CONTINUOUS
 62
           2
100
AcDbLine
 10
135.043642665987
 20
-155.295267630117
 11
129.112068887486
 21
-155.295267630117
  0
LINE
  5
142
100
AcDbEntity
  8
KONTUR
  6
CONTINUOUS
 62
           2
100
AcDbLine
 10
127.885511073437
 20
-154.094038637827
 11
127.885511073437
 21
-155.295267630117
  0
LINE
  5
141
100
AcDbEntity
  8
KONTUR
  6
CONTINUOUS
 62
           2
100
AcDbLine
 10
129.112068887486
 20
-155.295267630117
 11
129.112068887486
 21
-154.094038637827
  0
LINE
  5
140
100
AcDbEntity
  8
KONTUR
  6
CONTINUOUS
 62
           2
100
AcDbLine
 10
131.383909100997
 20
-154.094038637827
 11
135.043642665987
 21
-154.094038637827
  0
LINE
  5
13F
100
AcDbEntity
  8
KONTUR
  6
CONTINUOUS
 62
           2
100
AcDbLine
 10
131.383909100997
 20
-154.079623015487
 11
131.383909100997
 21
-154.094038637827
  0
LINE
  5
13E
100
AcDbEntity
  8
KONTUR
  6
CONTINUOUS
 62
           2
100
AcDbLine
 10
135.043642665987
 20
-154.094038637827
 11
135.043642665987
 21
-155.295267630117
  0
LINE
  5
13D
100
AcDbEntity
  8
KONTUR
  6
CONTINUOUS
 62
           2
100
AcDbLine
 10
132.695951297416
 20
-151.497438644587
 11
129.208803180547
 21
-151.497438644587
  0
LINE
  5
13C
100
AcDbEntity
  8
KONTUR
  6
CONTINUOUS
 62
           2
100
AcDbLine
 10
129.208803180547
 20
-150.296007469107
 11
134.960785491876
 21
-150.296007469107
  0
LINE
  5
13B
100
AcDbEntity
  8
KONTUR
  6
CONTINUOUS
 62
           2
100
AcDbLine
 10
127.802653899327
 20
-150.296007469107
 11
127.802653899327
 21
-151.497438644587
  0
LINE
  5
13A
100
AcDbEntity
  8
KONTUR
  6
CONTINUOUS
 62
           2
100
AcDbLine
 10
125.537819704866
 20
-151.511450291617
 11
125.537819704866
 21
-151.497438644587
  0
LINE
  5
139
100
AcDbEntity
  8
KONTUR
  6
CONTINUOUS
 62
           2
100
AcDbLine
 10
129.208803180547
 20
-151.497438644587
 11
129.208803180547
 21
-150.296007469107
  0
LINE
  5
138
100
AcDbEntity
  8
KONTUR
  6
CONTINUOUS
 62
           2
100
AcDbLine
 10
132.695951297416
 20
-151.511450291617
 11
132.695951297416
 21
-151.497438644587
  0
LINE
  5
137
100
AcDbEntity
  8
KONTUR
  6
CONTINUOUS
 62
           2
100
AcDbLine
 10
134.960785491876
 20
-150.296007469107
 11
134.960785491876
 21
-151.497438644587
  0
LINE
  5
136
100
AcDbEntity
  8
KONTUR
  6
CONTINUOUS
 62
           1
100
AcDbLine
 10
132.106731625992
 20
-147.386687380525
 11
132.332708971299
 21
-146.730235312766
  0
LINE
  5
135
100
AcDbEntity
  8
KONTUR
  6
CONTINUOUS
 62
           3
100
AcDbLine
 10
149.567385693167
 20
-150.296007469107
 11
154.145555756697
 21
-154.687782229607
  0
LINE
  5
134
100
AcDbEntity
  8
KONTUR
  6
CONTINUOUS
 62
           3
100
AcDbLine
 10
153.814059014076
 20
-155.295267630117
 11
149.235956214586
 21
-150.903627788767
  0
LINE
  5
133
100
AcDbEntity
  8
KONTUR
  6
CONTINUOUS
 62
           3
100
AcDbLine
 10
149.235956214586
 20
-150.903627788767
 11
149.235956214586
 21
-155.295267630117
  0
LINE
  5
132
100
AcDbEntity
  8
KONTUR
  6
CONTINUOUS
 62
           3
100
AcDbLine
 10
148.559153656577
 20
-155.295267630117
 11
148.559153656577
 21
-150.296007469107
  0
LINE
  5
131
100
AcDbEntity
  8
KONTUR
  6
CONTINUOUS
 62
           3
100
AcDbLine
 10
143.701020099676
 20
-150.848322278297
 11
145.378914147147
 21
-153.686219109727
  0
LINE
  5
130
100
AcDbEntity
  8
KONTUR
  6
CONTINUOUS
 62
           3
100
AcDbLine
 10
142.022923477947
 20
-153.686219109727
 11
143.701020099676
 21
-150.848322278297
  0
LINE
  5
12F
100
AcDbEntity
  8
KONTUR
  6
CONTINUOUS
 62
           3
100
AcDbLine
 10
140.310404092676
 20
-155.295268021187
 11
143.279660163896
 21
-150.296007469107
  0
LINE
  5
12E
100
AcDbEntity
  8
KONTUR
  6
CONTINUOUS
 62
           3
100
AcDbLine
 10
144.122245116306
 20
-150.296007469107
 11
147.091366268377
 21
-155.295268021187
  0
LINE
  5
12D
100
AcDbEntity
  8
KONTUR
  6
CONTINUOUS
 62
           3
100
AcDbLine
 10
145.378914147147
 20
-153.686219109727
 11
142.022923477947
 21
-153.686219109727
  0
LINE
  5
12C
100
AcDbEntity
  8
KONTUR
  6
CONTINUOUS
 62
           3
100
AcDbLine
 10
145.703539789866
 20
-154.238870630187
 11
141.698500018417
 21
-154.238870630187
  0
LINE
  5
12B
100
AcDbEntity
  8
KONTUR
  6
CONTINUOUS
 62
           4
100
AcDbLine
 10
139.377237829398
 20
-157.742563604486
 11
138.709994782458
 21
-159.680000918103
  0
LINE
  5
12A
100
AcDbEntity
  8
KONTUR
  6
CONTINUOUS
 62
           3
100
AcDbLine
 10
141.076935315766
 20
-155.295268021187
 11
140.310404092676
 21
-155.295268021187
  0
LINE
  5
129
100
AcDbEntity
  8
KONTUR
  6
CONTINUOUS
 62
           3
100
AcDbLine
 10
141.698500018417
 20
-154.238870630187
 11
141.076935315766
 21
-155.295268021187
  0
LINE
  5
128
100
AcDbEntity
  8
KONTUR
  6
CONTINUOUS
 62
           3
100
AcDbLine
 10
146.324902309326
 20
-155.295268021187
 11
145.703539789866
 21
-154.238870630187
  0
LINE
  5
127
100
AcDbEntity
  8
KONTUR
  6
CONTINUOUS
 62
           3
100
AcDbLine
 10
147.091366268377
 20
-155.295268021187
 11
146.324902309326
 21
-155.295268021187
  0
LINE
  5
126
100
AcDbEntity
  8
KONTUR
  6
CONTINUOUS
 62
           3
100
AcDbLine
 10
149.235956214586
 20
-155.295267630117
 11
148.559153656577
 21
-155.295267630117
  0
LINE
  5
125
100
AcDbEntity
  8
KONTUR
  6
CONTINUOUS
 62
           3
100
AcDbLine
 10
143.279660163896
 20
-150.296007469107
 11
144.122245116306
 21
-150.296007469107
  0
LINE
  5
124
100
AcDbEntity
  8
KONTUR
  6
CONTINUOUS
 62
           3
100
AcDbLine
 10
148.559153656577
 20
-150.296007469107
 11
149.567385693167
 21
-150.296007469107
  0
LINE
  5
123
100
AcDbEntity
  8
KONTUR
  6
CONTINUOUS
 62
           4
100
AcDbLine
 10
148.163953033002
 20
-145.259446985548
 11
147.627735991089
 21
-146.816660645487
  0
LINE
  5
122
100
AcDbEntity
  8
KONTUR
  6
CONTINUOUS
 62
           3
100
AcDbLine
 10
159.508108215607
 20
-150.848322278297
 11
159.508108215607
 21
-155.295267630117
  0
LINE
  5
121
100
AcDbEntity
  8
KONTUR
  6
CONTINUOUS
 62
           3
100
AcDbLine
 10
158.831507449717
 20
-155.295267630117
 11
158.831507449717
 21
-150.848322278297
  0
LINE
  5
120
100
AcDbEntity
  8
KONTUR
  6
CONTINUOUS
 62
           3
100
AcDbLine
 10
154.145555756697
 20
-154.687782229607
 11
154.145555756697
 21
-150.296007469107
  0
LINE
  5
11F
100
AcDbEntity
  8
KONTUR
  6
CONTINUOUS
 62
           3
100
AcDbLine
 10
154.822223786627
 20
-150.296007469107
 11
154.822223786627
 21
-155.295267630117
  0
LINE
  5
11E
100
AcDbEntity
  8
KONTUR
  6
CONTINUOUS
 62
           3
100
AcDbLine
 10
154.822223786627
 20
-155.295267630117
 11
153.814059014076
 21
-155.295267630117
  0
LINE
  5
11D
100
AcDbEntity
  8
KONTUR
  6
CONTINUOUS
 62
           3
100
AcDbLine
 10
159.508108215607
 20
-155.295267630117
 11
158.831507449717
 21
-155.295267630117
  0
LINE
  5
11C
100
AcDbEntity
  8
KONTUR
  6
CONTINUOUS
 62
           3
100
AcDbLine
 10
158.831507449717
 20
-150.848322278297
 11
156.304157349937
 21
-150.848322278297
  0
LINE
  5
11B
100
AcDbEntity
  8
KONTUR
  6
CONTINUOUS
 62
           3
100
AcDbLine
 10
156.304157349937
 20
-150.296007469107
 11
162.035997600917
 21
-150.296007469107
  0
LINE
  5
11A
100
AcDbEntity
  8
KONTUR
  6
CONTINUOUS
 62
           3
100
AcDbLine
 10
154.145555756697
 20
-150.296007469107
 11
154.822223786627
 21
-150.296007469107
  0
LINE
  5
119
100
AcDbEntity
  8
KONTUR
  6
CONTINUOUS
 62
           3
100
AcDbLine
 10
156.304157349937
 20
-150.848322278297
 11
156.304157349937
 21
-150.296007469107
  0
LINE
  5
118
100
AcDbEntity
  8
KONTUR
  6
CONTINUOUS
 62
           3
100
AcDbLine
 10
162.035997600917
 20
-150.848322278297
 11
159.508108215607
 21
-150.848322278297
  0
LINE
  5
117
100
AcDbEntity
  8
KONTUR
  6
CONTINUOUS
 62
           3
100
AcDbLine
 10
162.035997600917
 20
-150.296007469107
 11
162.035997600917
 21
-150.848322278297
  0
LINE
  5
116
100
AcDbEntity
  8
KONTUR
  6
CONTINUOUS
 62
           3
100
AcDbLine
 10
180.191585818177
 20
-150.848322278297
 11
175.958856489187
 21
-150.848322278297
  0
LINE
  5
115
100
AcDbEntity
  8
KONTUR
  6
CONTINUOUS
 62
           3
100
AcDbLine
 10
175.958856489187
 20
-152.443089704427
 11
180.025871078887
 21
-152.443089704427
  0
LINE
  5
114
100
AcDbEntity
  8
KONTUR
  6
CONTINUOUS
 62
           3
100
AcDbLine
 10
180.025871078887
 20
-152.995876144037
 11
175.958856489187
 21
-152.995876144037
  0
LINE
  5
113
100
AcDbEntity
  8
KONTUR
  6
CONTINUOUS
 62
           3
100
AcDbLine
 10
175.282255723297
 20
-150.296007469107
 11
180.191585818177
 21
-150.296007469107
  0
LINE
  5
112
100
AcDbEntity
  8
KONTUR
  6
CONTINUOUS
 62
           3
100
AcDbLine
 10
175.958856489187
 20
-154.742481581577
 11
180.218935298627
 21
-154.742481581577
  0
LINE
  5
111
100
AcDbEntity
  8
KONTUR
  6
CONTINUOUS
 62
           3
100
AcDbLine
 10
180.218935298627
 20
-155.295267630117
 11
175.282255723297
 21
-155.295267630117
  0
LINE
  5
110
100
AcDbEntity
  8
KONTUR
  6
CONTINUOUS
 62
           3
100
AcDbLine
 10
172.503234871437
 20
-150.296007469107
 11
172.503234871437
 21
-155.295267630117
  0
LINE
  5
10F
100
AcDbEntity
  8
KONTUR
  6
CONTINUOUS
 62
           3
100
AcDbLine
 10
171.826634105547
 20
-155.295267630117
 11
171.826634105547
 21
-150.296007469107
  0
LINE
  5
10E
100
AcDbEntity
  8
KONTUR
  6
CONTINUOUS
 62
           3
100
AcDbLine
 10
175.958856489187
 20
-152.995876144037
 11
175.958856489187
 21
-154.742481581577
  0
LINE
  5
10D
100
AcDbEntity
  8
KONTUR
  6
CONTINUOUS
 62
           3
100
AcDbLine
 10
175.282255723297
 20
-155.295267630117
 11
175.282255723297
 21
-150.296007469107
  0
LINE
  5
10C
100
AcDbEntity
  8
KONTUR
  6
CONTINUOUS
 62
           3
100
AcDbLine
 10
164.1929824383
 20
-153.320164997324
 11
164.1929824383
 21
-155.295267936234
  0
LINE
  5
10B
100
AcDbEntity
  8
KONTUR
  6
CONTINUOUS
 62
           3
100
AcDbLine
 10
163.516381690741
 20
-155.295267936234
 11
163.516381690741
 21
-150.296007554059
  0
LINE
  5
10A
100
AcDbEntity
  8
KONTUR
  6
CONTINUOUS
 62
           3
100
AcDbLine
 10
164.1929824383
 20
-155.295267936234
 11
163.516381690741
 21
-155.295267936234
  0
LINE
  5
109
100
AcDbEntity
  8
KONTUR
  6
CONTINUOUS
 62
           3
100
AcDbLine
 10
169.123329781372
 20
-155.295267936234
 11
168.487686147962
 21
-155.295267936234
  0
LINE
  5
108
100
AcDbEntity
  8
KONTUR
  6
CONTINUOUS
 62
           3
100
AcDbLine
 10
172.503234871437
 20
-155.295267630117
 11
171.826634105547
 21
-155.295267630117
  0
LINE
  5
107
100
AcDbEntity
  8
KONTUR
  6
CONTINUOUS
 62
           3
100
AcDbLine
 10
163.516381690741
 20
-150.296007554059
 11
167.105225344396
 21
-150.296007554059
  0
LINE
  5
106
100
AcDbEntity
  8
KONTUR
  6
CONTINUOUS
 62
           3
100
AcDbLine
 10
164.1929824383
 20
-152.768187047753
 11
164.1929824383
 21
-150.848322322004
  0
LINE
  5
105
100
AcDbEntity
  8
KONTUR
  6
CONTINUOUS
 62
           3
100
AcDbLine
 10
168.267272204711
 20
-153.065126125336
 11
168.267272204711
 21
-153.078733587602
  0
LINE
  5
104
100
AcDbEntity
  8
KONTUR
  6
CONTINUOUS
 62
           3
100
AcDbLine
 10
171.826634105547
 20
-150.296007469107
 11
172.503234871437
 21
-150.296007469107
  0
LINE
  5
103
100
AcDbEntity
  8
KONTUR
  6
CONTINUOUS
 62
           3
100
AcDbLine
 10
175.958856489187
 20
-150.848322278297
 11
175.958856489187
 21
-152.443089704427
  0
LINE
  5
102
100
AcDbEntity
  8
KONTUR
  6
CONTINUOUS
 62
           3
100
AcDbLine
 10
183.356735356821
 20
-154.742481622568
 11
183.356735356821
 21
-152.995876267859
  0
LINE
  5
101
100
AcDbEntity
  8
KONTUR
  6
CONTINUOUS
 62
           3
100
AcDbLine
 10
183.356735356821
 20
-154.742481622568
 11
183.356735356821
 21
-152.995876267859
  0
LINE
  5
100
100
AcDbEntity
  8
KONTUR
  6
CONTINUOUS
 62
           3
100
AcDbLine
 10
182.683012009557
 20
-155.295267935009
 11
182.683012009557
 21
-150.296007605407
  0
LINE
  5
FF
100
AcDbEntity
  8
KONTUR
  6
CONTINUOUS
 62
           3
100
AcDbLine
 10
180.218935298627
 20
-154.742481581577
 11
180.218935298627
 21
-155.295267630117
  0
LINE
  5
FE
100
AcDbEntity
  8
KONTUR
  6
CONTINUOUS
 62
           3
100
AcDbLine
 10
180.025871078887
 20
-152.443089704427
 11
180.025871078887
 21
-152.995876144037
  0
LINE
  5
FD
100
AcDbEntity
  8
KONTUR
  6
CONTINUOUS
 62
           3
100
AcDbLine
 10
180.191585818177
 20
-150.296007469107
 11
180.191585818177
 21
-150.848322278297
  0
LINE
  5
FC
100
AcDbEntity
  8
KONTUR
  6
CONTINUOUS
 62
           3
100
AcDbLine
 10
183.356735356821
 20
-152.443089954193
 11
183.356735356821
 21
-150.848322322004
  0
LINE
  5
FB
100
AcDbEntity
  8
KONTUR
  6
CONTINUOUS
 62
           3
100
AcDbLine
 10
187.465515324622
 20
-152.623355147389
 11
187.465515324622
 21
-152.650704799271
  0
LINE
  5
FA
100
AcDbEntity
  8
KONTUR
  6
CONTINUOUS
 62
           1
100
AcDbLine
 10
142.198119051036
 20
-143.081630271072
 11
142.861961990941
 21
-143.31023040683
  0
LINE
  5
F9
100
AcDbEntity
  8
KONTUR
  6
CONTINUOUS
 62
           3
100
AcDbLine
 10
191.778811199187
 20
-152.995876144037
 11
191.778811199187
 21
-154.742481581577
  0
LINE
  5
F8
100
AcDbEntity
  8
KONTUR
  6
CONTINUOUS
 62
           3
100
AcDbLine
 10
191.101267563527
 20
-155.295267630117
 11
191.101267563527
 21
-150.296007469107
  0
LINE
  5
F7
100
AcDbEntity
  8
KONTUR
  6
CONTINUOUS
 62
           3
100
AcDbLine
 10
191.778811199187
 20
-154.742481581577
 11
196.038890008627
 21
-154.742481581577
  0
LINE
  5
F6
100
AcDbEntity
  8
KONTUR
  6
CONTINUOUS
 62
           3
100
AcDbLine
 10
196.038890008627
 20
-155.295267630117
 11
191.101267563527
 21
-155.295267630117
  0
LINE
  5
F5
100
AcDbEntity
  8
KONTUR
  6
CONTINUOUS
 62
           3
100
AcDbLine
 10
196.038890008627
 20
-154.742481581577
 11
196.038890008627
 21
-155.295267630117
  0
LINE
  5
F4
100
AcDbEntity
  8
KONTUR
  6
CONTINUOUS
 62
           3
100
AcDbLine
 10
196.011540528177
 20
-150.848322278297
 11
191.778811199187
 21
-150.848322278297
  0
LINE
  5
F3
100
AcDbEntity
  8
KONTUR
  6
CONTINUOUS
 62
           3
100
AcDbLine
 10
191.778811199187
 20
-152.443089704427
 11
195.845825788887
 21
-152.443089704427
  0
LINE
  5
F2
100
AcDbEntity
  8
KONTUR
  6
CONTINUOUS
 62
           3
100
AcDbLine
 10
195.845825788887
 20
-152.995876144037
 11
191.778811199187
 21
-152.995876144037
  0
LINE
  5
F1
100
AcDbEntity
  8
KONTUR
  6
CONTINUOUS
 62
           3
100
AcDbLine
 10
191.101267563527
 20
-150.296007469107
 11
196.011540528177
 21
-150.296007469107
  0
LINE
  5
F0
100
AcDbEntity
  8
KONTUR
  6
CONTINUOUS
 62
           3
100
AcDbLine
 10
191.778811199187
 20
-150.848322278297
 11
191.778811199187
 21
-152.443089704427
  0
LINE
  5
EF
100
AcDbEntity
  8
KONTUR
  6
CONTINUOUS
 62
           3
100
AcDbLine
 10
195.845825788887
 20
-152.443089704427
 11
195.845825788887
 21
-152.995876144037
  0
LINE
  5
EE
100
AcDbEntity
  8
KONTUR
  6
CONTINUOUS
 62
           3
100
AcDbLine
 10
196.011540528177
 20
-150.296007469107
 11
196.011540528177
 21
-150.848322278297
  0
LINE
  5
ED
100
AcDbEntity
  8
KONTUR
  6
CONTINUOUS
 62
           3
100
AcDbLine
 10
168.267272055864
 20
-153.078735310686
 11
168.376871875906
 21
-153.103417367684
  0
LINE
  5
EC
100
AcDbEntity
  8
KONTUR
  6
CONTINUOUS
 62
           3
100
AcDbLine
 10
168.376871875906
 20
-153.103417367684
 11
168.485166358995
 21
-153.131810311162
  0
LINE
  5
EB
100
AcDbEntity
  8
KONTUR
  6
CONTINUOUS
 62
           3
100
AcDbLine
 10
168.485166358995
 20
-153.131810311162
 11
168.590842709112
 21
-153.167632486664
  0
LINE
  5
EA
100
AcDbEntity
  8
KONTUR
  6
CONTINUOUS
 62
           3
100
AcDbLine
 10
168.590842709112
 20
-153.167632486664
 11
168.692685098123
 21
-153.213904816853
  0
LINE
  5
E9
100
AcDbEntity
  8
KONTUR
  6
CONTINUOUS
 62
           3
100
AcDbLine
 10
168.692685098123
 20
-153.213904816853
 11
168.789033883333
 21
-153.271224027192
  0
LINE
  5
E8
100
AcDbEntity
  8
KONTUR
  6
CONTINUOUS
 62
           3
100
AcDbLine
 10
168.789033883333
 20
-153.271224027192
 11
168.877069536924
 21
-153.340783568608
  0
LINE
  5
E7
100
AcDbEntity
  8
KONTUR
  6
CONTINUOUS
 62
           3
100
AcDbLine
 10
168.877069536924
 20
-153.340783568608
 11
168.953618225336
 21
-153.422967583119
  0
LINE
  5
E6
100
AcDbEntity
  8
KONTUR
  6
CONTINUOUS
 62
           3
100
AcDbLine
 10
168.953618225336
 20
-153.422967583119
 11
169.014965332556
 21
-153.516086591756
  0
LINE
  5
E5
100
AcDbEntity
  8
KONTUR
  6
CONTINUOUS
 62
           3
100
AcDbLine
 10
169.014965332556
 20
-153.516086591756
 11
169.059898759985
 21
-153.617999841916
  0
LINE
  5
E4
100
AcDbEntity
  8
KONTUR
  6
CONTINUOUS
 62
           3
100
AcDbLine
 10
169.059898759985
 20
-153.617999841916
 11
169.090775573206
 21
-153.726324161279
  0
LINE
  5
E3
100
AcDbEntity
  8
KONTUR
  6
CONTINUOUS
 62
           3
100
AcDbLine
 10
169.090775573206
 20
-153.726324161279
 11
169.110217634725
 21
-153.83866518892
  0
LINE
  5
E2
100
AcDbEntity
  8
KONTUR
  6
CONTINUOUS
 62
           3
100
AcDbLine
 10
169.110217634725
 20
-153.83866518892
 11
169.12082815938
 21
-153.952621104848
  0
LINE
  5
E1
100
AcDbEntity
  8
KONTUR
  6
CONTINUOUS
 62
           3
100
AcDbLine
 10
169.12082815938
 20
-153.952621104848
 11
169.125210362005
 21
-154.06589824556
  0
LINE
  5
E0
100
AcDbEntity
  8
KONTUR
  6
CONTINUOUS
 62
           3
100
AcDbLine
 10
169.125210362005
 20
-154.06589824556
 11
169.125631799364
 21
-154.177855131184
  0
LINE
  5
DF
100
AcDbEntity
  8
KONTUR
  6
CONTINUOUS
 62
           3
100
AcDbLine
 10
169.125631799364
 20
-154.177855131184
 11
169.124117608499
 21
-154.289144430196
  0
LINE
  5
DE
100
AcDbEntity
  8
KONTUR
  6
CONTINUOUS
 62
           3
100
AcDbLine
 10
169.124117608499
 20
-154.289144430196
 11
169.122622065306
 21
-154.400444917809
  0
LINE
  5
DD
100
AcDbEntity
  8
KONTUR
  6
CONTINUOUS
 62
           3
100
AcDbLine
 10
169.122622065306
 20
-154.400444917809
 11
169.121958208227
 21
-154.512036309087
  0
LINE
  5
DC
100
AcDbEntity
  8
KONTUR
  6
CONTINUOUS
 62
           3
100
AcDbLine
 10
169.121958208227
 20
-154.512036309087
 11
169.121932101488
 21
-154.623851472413
  0
LINE
  5
DB
100
AcDbEntity
  8
KONTUR
  6
CONTINUOUS
 62
           3
100
AcDbLine
 10
169.121932101488
 20
-154.623851472413
 11
169.122301325369
 21
-154.735800898969
  0
LINE
  5
DA
100
AcDbEntity
  8
KONTUR
  6
CONTINUOUS
 62
           3
100
AcDbLine
 10
169.122301325369
 20
-154.735800898969
 11
169.122838378286
 21
-154.84780999807
  0
LINE
  5
D9
100
AcDbEntity
  8
KONTUR
  6
CONTINUOUS
 62
           3
100
AcDbLine
 10
169.122838378286
 20
-154.84780999807
 11
169.123300840521
 21
-154.959792990434
  0
LINE
  5
D8
100
AcDbEntity
  8
KONTUR
  6
CONTINUOUS
 62
           3
100
AcDbLine
 10
169.123300840521
 20
-154.959792990434
 11
169.12349850583
 21
-155.071682744443
  0
LINE
  5
D7
100
AcDbEntity
  8
KONTUR
  6
CONTINUOUS
 62
           3
100
AcDbLine
 10
169.12349850583
 20
-155.071682744443
 11
169.123472399092
 21
-155.183494178235
  0
LINE
  5
D6
100
AcDbEntity
  8
KONTUR
  6
CONTINUOUS
 62
           3
100
AcDbLine
 10
169.123472399092
 20
-155.183494178235
 11
169.123330676794
 21
-155.295268316685
  0
LINE
  5
D5
100
AcDbEntity
  8
KONTUR
  6
CONTINUOUS
 62
           3
100
AcDbLine
 10
168.48768752408
 20
-155.295268316685
 11
168.487392890882
 21
-155.04708646673
  0
LINE
  5
D4
100
AcDbEntity
  8
KONTUR
  6
CONTINUOUS
 62
           3
100
AcDbLine
 10
168.487392890882
 20
-155.04708646673
 11
168.487210143709
 21
-154.798919534909
  0
LINE
  5
D3
100
AcDbEntity
  8
KONTUR
  6
CONTINUOUS
 62
           3
100
AcDbLine
 10
168.487210143709
 20
-154.798919534909
 11
168.48858634181
 21
-154.550950268399
  0
LINE
  5
D2
100
AcDbEntity
  8
KONTUR
  6
CONTINUOUS
 62
           3
100
AcDbLine
 10
168.48858634181
 20
-154.550950268399
 11
168.489194255877
 21
-154.302884034002
  0
LINE
  5
D1
100
AcDbEntity
  8
KONTUR
  6
CONTINUOUS
 62
           3
100
AcDbLine
 10
168.489194255877
 20
-154.302884034002
 11
168.481824696398
 21
-154.054198696934
  0
LINE
  5
D0
100
AcDbEntity
  8
KONTUR
  6
CONTINUOUS
 62
           3
100
AcDbLine
 10
168.481824696398
 20
-154.054198696934
 11
168.444059433603
 21
-153.808989285696
  0
LINE
  5
CF
100
AcDbEntity
  8
KONTUR
  6
CONTINUOUS
 62
           3
100
AcDbLine
 10
168.444059433603
 20
-153.808989285696
 11
168.339886085749
 21
-153.584128212773
  0
LINE
  5
CE
100
AcDbEntity
  8
KONTUR
  6
CONTINUOUS
 62
           3
100
AcDbLine
 10
168.339886085749
 20
-153.584128212773
 11
168.151126903391
 21
-153.423728408086
  0
LINE
  5
CD
100
AcDbEntity
  8
KONTUR
  6
CONTINUOUS
 62
           3
100
AcDbLine
 10
168.151126903391
 20
-153.423728408086
 11
167.913704759455
 21
-153.348555917776
  0
LINE
  5
CC
100
AcDbEntity
  8
KONTUR
  6
CONTINUOUS
 62
           3
100
AcDbLine
 10
167.913704759455
 20
-153.348555917776
 11
167.667007264089
 21
-153.323679925001
  0
LINE
  5
CB
100
AcDbEntity
  8
KONTUR
  6
CONTINUOUS
 62
           3
100
AcDbLine
 10
167.667007264089
 20
-153.323679925001
 11
167.418803036928
 21
-153.317876769864
  0
LINE
  5
CA
100
AcDbEntity
  8
KONTUR
  6
CONTINUOUS
 62
           3
100
AcDbLine
 10
167.418803036928
 20
-153.317876769864
 11
167.17067340045
 21
-153.318245993744
  0
LINE
  5
C9
100
AcDbEntity
  8
KONTUR
  6
CONTINUOUS
 62
           3
100
AcDbLine
 10
167.17067340045
 20
-153.318245993744
 11
166.922566141176
 21
-153.320297237527
  0
LINE
  5
C8
100
AcDbEntity
  8
KONTUR
  6
CONTINUOUS
 62
           3
100
AcDbLine
 10
166.922566141176
 20
-153.320297237527
 11
166.674432775163
 21
-153.320811913239
  0
LINE
  5
C7
100
AcDbEntity
  8
KONTUR
  6
CONTINUOUS
 62
           3
100
AcDbLine
 10
166.674432775163
 20
-153.320811913239
 11
166.42628076148
 21
-153.320315885198
  0
LINE
  5
C6
100
AcDbEntity
  8
KONTUR
  6
CONTINUOUS
 62
           3
100
AcDbLine
 10
166.42628076148
 20
-153.320315885198
 11
166.178128747797
 21
-153.319972768055
  0
LINE
  5
C5
100
AcDbEntity
  8
KONTUR
  6
CONTINUOUS
 62
           3
100
AcDbLine
 10
166.178128747797
 20
-153.319972768055
 11
165.929987922716
 21
-153.320017522465
  0
LINE
  5
C4
100
AcDbEntity
  8
KONTUR
  6
CONTINUOUS
 62
           3
100
AcDbLine
 10
165.929987922716
 20
-153.320017522465
 11
165.681847097635
 21
-153.320177892435
  0
LINE
  5
C3
100
AcDbEntity
  8
KONTUR
  6
CONTINUOUS
 62
           3
100
AcDbLine
 10
165.681847097635
 20
-153.320177892435
 11
165.43370254302
 21
-153.32023756498
  0
LINE
  5
C2
100
AcDbEntity
  8
KONTUR
  6
CONTINUOUS
 62
           3
100
AcDbLine
 10
165.43370254302
 20
-153.32023756498
 11
165.185557988405
 21
-153.320215187776
  0
LINE
  5
C1
100
AcDbEntity
  8
KONTUR
  6
CONTINUOUS
 62
           3
100
AcDbLine
 10
165.185557988405
 20
-153.320215187776
 11
164.93741343379
 21
-153.320170433366
  0
LINE
  5
C0
100
AcDbEntity
  8
KONTUR
  6
CONTINUOUS
 62
           3
100
AcDbLine
 10
164.93741343379
 20
-153.320170433366
 11
164.689268879175
 21
-153.320159244763
  0
LINE
  5
BF
100
AcDbEntity
  8
KONTUR
  6
CONTINUOUS
 62
           3
100
AcDbLine
 10
164.689268879175
 20
-153.320159244763
 11
164.441128054094
 21
-153.320166703832
  0
LINE
  5
BE
100
AcDbEntity
  8
KONTUR
  6
CONTINUOUS
 62
           3
100
AcDbLine
 10
164.441128054094
 20
-153.320166703832
 11
164.192983499479
 21
-153.320166703832
  0
LINE
  5
BD
100
AcDbEntity
  8
KONTUR
  6
CONTINUOUS
 62
           3
100
AcDbLine
 10
164.192983499479
 20
-150.848320978582
 11
164.60642473712
 21
-150.848324708115
  0
LINE
  5
BC
100
AcDbEntity
  8
KONTUR
  6
CONTINUOUS
 62
           3
100
AcDbLine
 10
164.60642473712
 20
-150.848324708115
 11
165.019854786158
 21
-150.848332167184
  0
LINE
  5
BB
100
AcDbEntity
  8
KONTUR
  6
CONTINUOUS
 62
           3
100
AcDbLine
 10
165.019854786158
 20
-150.848332167184
 11
165.4333072124
 21
-150.848328437649
  0
LINE
  5
BA
100
AcDbEntity
  8
KONTUR
  6
CONTINUOUS
 62
           3
100
AcDbLine
 10
165.4333072124
 20
-150.848328437649
 11
165.846804393053
 21
-150.848313519513
  0
LINE
  5
B9
100
AcDbEntity
  8
KONTUR
  6
CONTINUOUS
 62
           3
100
AcDbLine
 10
165.846804393053
 20
-150.848313519513
 11
166.260256819296
 21
-150.848309789979
  0
LINE
  5
B8
100
AcDbEntity
  8
KONTUR
  6
CONTINUOUS
 62
           3
100
AcDbLine
 10
166.260256819296
 20
-150.848309789979
 11
166.673511580229
 21
-150.848384380662
  0
LINE
  5
B7
100
AcDbEntity
  8
KONTUR
  6
CONTINUOUS
 62
           3
100
AcDbLine
 10
166.673511580229
 20
-150.848384380662
 11
167.086978924608
 21
-150.848376921593
  0
LINE
  5
B6
100
AcDbEntity
  8
KONTUR
  6
CONTINUOUS
 62
           3
100
AcDbLine
 10
167.086978924608
 20
-150.848376921593
 11
167.50001737256
 21
-150.852147480618
  0
LINE
  5
B5
100
AcDbEntity
  8
KONTUR
  6
CONTINUOUS
 62
           3
100
AcDbLine
 10
167.50001737256
 20
-150.852147480618
 11
167.915603092336
 21
-150.887611620843
  0
LINE
  5
B4
100
AcDbEntity
  8
KONTUR
  6
CONTINUOUS
 62
           3
100
AcDbLine
 10
167.915603092336
 20
-150.887611620843
 11
168.300479827928
 21
-151.034074156416
  0
LINE
  5
B3
100
AcDbEntity
  8
KONTUR
  6
CONTINUOUS
 62
           3
100
AcDbLine
 10
168.300479827928
 20
-151.034074156416
 11
168.497455174017
 21
-151.388875928628
  0
LINE
  5
B2
100
AcDbEntity
  8
KONTUR
  6
CONTINUOUS
 62
           3
100
AcDbLine
 10
168.497455174017
 20
-151.388875928628
 11
168.508296929788
 21
-151.80561780399
  0
LINE
  5
B1
100
AcDbEntity
  8
KONTUR
  6
CONTINUOUS
 62
           3
100
AcDbLine
 10
168.508296929788
 20
-151.80561780399
 11
168.494620728063
 21
-152.218801703774
  0
LINE
  5
B0
100
AcDbEntity
  8
KONTUR
  6
CONTINUOUS
 62
           3
100
AcDbLine
 10
168.494620728063
 20
-152.218801703774
 11
168.293494410467
 21
-152.572134039533
  0
LINE
  5
AF
100
AcDbEntity
  8
KONTUR
  6
CONTINUOUS
 62
           3
100
AcDbLine
 10
168.293494410467
 20
-152.572134039533
 11
167.912060034895
 21
-152.730956251276
  0
LINE
  5
AE
100
AcDbEntity
  8
KONTUR
  6
CONTINUOUS
 62
           3
100
AcDbLine
 10
167.912060034895
 20
-152.730956251276
 11
167.500614098024
 21
-152.767311750161
  0
LINE
  5
AD
100
AcDbEntity
  8
KONTUR
  6
CONTINUOUS
 62
           3
100
AcDbLine
 10
167.500614098024
 20
-152.767311750161
 11
167.087113187837
 21
-152.768337372052
  0
LINE
  5
AC
100
AcDbEntity
  8
KONTUR
  6
CONTINUOUS
 62
           3
100
AcDbLine
 10
167.087113187837
 20
-152.768337372052
 11
166.673694327402
 21
-152.767837614477
  0
LINE
  5
AB
100
AcDbEntity
  8
KONTUR
  6
CONTINUOUS
 62
           3
100
AcDbLine
 10
166.673694327402
 20
-152.767837614477
 11
166.260223253488
 21
-152.768240404164
  0
LINE
  5
AA
100
AcDbEntity
  8
KONTUR
  6
CONTINUOUS
 62
           3
100
AcDbLine
 10
166.260223253488
 20
-152.768240404164
 11
165.846778286314
 21
-152.768177002085
  0
LINE
  5
A9
100
AcDbEntity
  8
KONTUR
  6
CONTINUOUS
 62
           3
100
AcDbLine
 10
165.846778286314
 20
-152.768177002085
 11
165.433329589605
 21
-152.768154624879
  0
LINE
  5
A8
100
AcDbEntity
  8
KONTUR
  6
CONTINUOUS
 62
           3
100
AcDbLine
 10
165.433329589605
 20
-152.768154624879
 11
165.019880892896
 21
-152.768184461152
  0
LINE
  5
A7
100
AcDbEntity
  8
KONTUR
  6
CONTINUOUS
 62
           3
100
AcDbLine
 10
165.019880892896
 20
-152.768184461152
 11
164.606432196188
 21
-152.768188190687
  0
LINE
  5
A6
100
AcDbEntity
  8
KONTUR
  6
CONTINUOUS
 62
           3
100
AcDbLine
 10
164.606432196188
 20
-152.768188190687
 11
164.192983499479
 21
-152.768188190687
  0
LINE
  5
A5
100
AcDbEntity
  8
KONTUR
  6
CONTINUOUS
 62
           3
100
AcDbLine
 10
167.105223805666
 20
-150.296006807363
 11
167.308218619871
 21
-150.295548074662
  0
LINE
  5
A4
100
AcDbEntity
  8
KONTUR
  6
CONTINUOUS
 62
           3
100
AcDbLine
 10
167.308218619871
 20
-150.295548074662
 11
167.5107136765
 21
-150.296547589814
  0
LINE
  5
A3
100
AcDbEntity
  8
KONTUR
  6
CONTINUOUS
 62
           3
100
AcDbLine
 10
167.5107136765
 20
-150.296547589814
 11
167.712735082292
 21
-150.301008112657
  0
LINE
  5
A2
100
AcDbEntity
  8
KONTUR
  6
CONTINUOUS
 62
           3
100
AcDbLine
 10
167.712735082292
 20
-150.301008112657
 11
167.915185384512
 21
-150.311853597962
  0
LINE
  5
A1
100
AcDbEntity
  8
KONTUR
  6
CONTINUOUS
 62
           3
100
AcDbLine
 10
167.915185384512
 20
-150.311853597962
 11
168.119041721105
 21
-150.332123616063
  0
LINE
  5
A0
100
AcDbEntity
  8
KONTUR
  6
CONTINUOUS
 62
           3
100
AcDbLine
 10
168.119041721105
 20
-150.332123616063
 11
168.322819737482
 21
-150.366420412099
  0
LINE
  5
9F
100
AcDbEntity
  8
KONTUR
  6
CONTINUOUS
 62
           3
100
AcDbLine
 10
168.322819737482
 20
-150.366420412099
 11
168.519970371675
 21
-150.422590925919
  0
LINE
  5
9E
100
AcDbEntity
  8
KONTUR
  6
CONTINUOUS
 62
           3
100
AcDbLine
 10
168.519970371675
 20
-150.422590925919
 11
168.703299352312
 21
-150.508896075665
  0
LINE
  5
9D
100
AcDbEntity
  8
KONTUR
  6
CONTINUOUS
 62
           3
100
AcDbLine
 10
168.703299352312
 20
-150.508896075665
 11
168.865481874323
 21
-150.632425705755
  0
LINE
  5
9C
100
AcDbEntity
  8
KONTUR
  6
CONTINUOUS
 62
           3
100
AcDbLine
 10
168.865481874323
 20
-150.632425705755
 11
168.997824393606
 21
-150.789536061322
  0
LINE
  5
9B
100
AcDbEntity
  8
KONTUR
  6
CONTINUOUS
 62
           3
100
AcDbLine
 10
168.997824393606
 20
-150.789536061322
 11
169.091070206403
 21
-150.970795150506
  0
LINE
  5
9A
100
AcDbEntity
  8
KONTUR
  6
CONTINUOUS
 62
           3
100
AcDbLine
 10
169.091070206403
 20
-150.970795150506
 11
169.144745661878
 21
-151.166957458149
  0
LINE
  5
99
100
AcDbEntity
  8
KONTUR
  6
CONTINUOUS
 62
           3
100
AcDbLine
 10
169.144745661878
 20
-151.166957458149
 11
169.171299945021
 21
-151.369195176923
  0
LINE
  5
98
100
AcDbEntity
  8
KONTUR
  6
CONTINUOUS
 62
           3
100
AcDbLine
 10
169.171299945021
 20
-151.369195176923
 11
169.182242398214
 21
-151.571503756844
  0
LINE
  5
97
100
AcDbEntity
  8
KONTUR
  6
CONTINUOUS
 62
           3
100
AcDbLine
 10
169.182242398214
 20
-151.571503756844
 11
169.184789670038
 21
-151.774036108815
  0
LINE
  5
96
100
AcDbEntity
  8
KONTUR
  6
CONTINUOUS
 62
           3
100
AcDbLine
 10
169.184789670038
 20
-151.774036108815
 11
169.185572872209
 21
-151.977739534509
  0
LINE
  5
95
100
AcDbEntity
  8
KONTUR
  6
CONTINUOUS
 62
           3
100
AcDbLine
 10
169.185572872209
 20
-151.977739534509
 11
169.184316019201
 21
-152.182282105386
  0
LINE
  5
94
100
AcDbEntity
  8
KONTUR
  6
CONTINUOUS
 62
           3
100
AcDbLine
 10
169.184316019201
 20
-152.182282105386
 11
169.163605916071
 21
-152.384128223073
  0
LINE
  5
93
100
AcDbEntity
  8
KONTUR
  6
CONTINUOUS
 62
           3
100
AcDbLine
 10
169.163605916071
 20
-152.384128223073
 11
169.103817754125
 21
-152.579000111902
  0
LINE
  5
92
100
AcDbEntity
  8
KONTUR
  6
CONTINUOUS
 62
           3
100
AcDbLine
 10
169.103817754125
 20
-152.579000111902
 11
168.996761476374
 21
-152.755395888555
  0
LINE
  5
91
100
AcDbEntity
  8
KONTUR
  6
CONTINUOUS
 62
           3
100
AcDbLine
 10
168.996761476374
 20
-152.755395888555
 11
168.847132566309
 21
-152.893724310147
  0
LINE
  5
90
100
AcDbEntity
  8
KONTUR
  6
CONTINUOUS
 62
           3
100
AcDbLine
 10
168.847132566309
 20
-152.893724310147
 11
168.664627812719
 21
-152.983829855192
  0
LINE
  5
8F
100
AcDbEntity
  8
KONTUR
  6
CONTINUOUS
 62
           3
100
AcDbLine
 10
168.664627812719
 20
-152.983829855192
 11
168.468014231443
 21
-153.037139816319
  0
LINE
  5
8E
100
AcDbEntity
  8
KONTUR
  6
CONTINUOUS
 62
           3
100
AcDbLine
 10
168.468014231443
 20
-153.037139816319
 11
168.267272055864
 21
-153.065126240574
  0
LINE
  5
8D
100
AcDbEntity
  8
KONTUR
  6
CONTINUOUS
 62
           3
100
AcDbLine
 10
183.356735992288
 20
-152.995876250493
 11
183.775443332148
 21
-152.99586506189
  0
LINE
  5
8C
100
AcDbEntity
  8
KONTUR
  6
CONTINUOUS
 62
           3
100
AcDbLine
 10
183.775443332148
 20
-152.99586506189
 11
184.194165590143
 21
-152.995868791424
  0
LINE
  5
8B
100
AcDbEntity
  8
KONTUR
  6
CONTINUOUS
 62
           3
100
AcDbLine
 10
184.194165590143
 20
-152.995868791424
 11
184.61292514348
 21
-152.996006784188
  0
LINE
  5
8A
100
AcDbEntity
  8
KONTUR
  6
CONTINUOUS
 62
           3
100
AcDbLine
 10
184.61292514348
 20
-152.996006784188
 11
185.031475842904
 21
-152.99552194475
  0
LINE
  5
89
100
AcDbEntity
  8
KONTUR
  6
CONTINUOUS
 62
           3
100
AcDbLine
 10
185.031475842904
 20
-152.99552194475
 11
185.450041460467
 21
-152.995081859719
  0
LINE
  5
88
100
AcDbEntity
  8
KONTUR
  6
CONTINUOUS
 62
           3
100
AcDbLine
 10
185.450041460467
 20
-152.995081859719
 11
185.869412657404
 21
-152.997006299341
  0
LINE
  5
87
100
AcDbEntity
  8
KONTUR
  6
CONTINUOUS
 62
           3
100
AcDbLine
 10
185.869412657404
 20
-152.997006299341
 11
186.288604836702
 21
-152.998416063248
  0
LINE
  5
86
100
AcDbEntity
  8
KONTUR
  6
CONTINUOUS
 62
           3
100
AcDbLine
 10
186.288604836702
 20
-152.998416063248
 11
186.704649289179
 21
-152.991080069577
  0
LINE
  5
85
100
AcDbEntity
  8
KONTUR
  6
CONTINUOUS
 62
           3
100
AcDbLine
 10
186.704649289179
 20
-152.991080069577
 11
187.123364088105
 21
-153.004946477544
  0
LINE
  5
84
100
AcDbEntity
  8
KONTUR
  6
CONTINUOUS
 62
           3
100
AcDbLine
 10
187.123364088105
 20
-153.004946477544
 11
187.534806295442
 21
-153.119558791482
  0
LINE
  5
83
100
AcDbEntity
  8
KONTUR
  6
CONTINUOUS
 62
           3
100
AcDbLine
 10
187.534806295442
 20
-153.119558791482
 11
187.763695265246
 21
-153.455164651429
  0
LINE
  5
82
100
AcDbEntity
  8
KONTUR
  6
CONTINUOUS
 62
           3
100
AcDbLine
 10
187.763695265246
 20
-153.455164651429
 11
187.789913890314
 21
-153.873141002596
  0
LINE
  5
81
100
AcDbEntity
  8
KONTUR
  6
CONTINUOUS
 62
           3
100
AcDbLine
 10
187.789913890314
 20
-153.873141002596
 11
187.767044386912
 21
-154.290837638699
  0
LINE
  5
80
100
AcDbEntity
  8
KONTUR
  6
CONTINUOUS
 62
           3
100
AcDbLine
 10
187.767044386912
 20
-154.290837638699
 11
187.526317875719
 21
-154.623236099278
  0
LINE
  5
7F
100
AcDbEntity
  8
KONTUR
  6
CONTINUOUS
 62
           3
100
AcDbLine
 10
187.526317875719
 20
-154.623236099278
 11
187.125079673814
 21
-154.734003263509
  0
LINE
  5
7E
100
AcDbEntity
  8
KONTUR
  6
CONTINUOUS
 62
           3
100
AcDbLine
 10
187.125079673814
 20
-154.734003263509
 11
186.706402170229
 21
-154.743778372514
  0
LINE
  5
7D
100
AcDbEntity
  8
KONTUR
  6
CONTINUOUS
 62
           3
100
AcDbLine
 10
186.706402170229
 20
-154.743778372514
 11
186.287754502917
 21
-154.742073975408
  0
LINE
  5
7C
100
AcDbEntity
  8
KONTUR
  6
CONTINUOUS
 62
           3
100
AcDbLine
 10
186.287754502917
 20
-154.742073975408
 11
185.869024785852
 21
-154.742584921585
  0
LINE
  5
7B
100
AcDbEntity
  8
KONTUR
  6
CONTINUOUS
 62
           3
100
AcDbLine
 10
185.869024785852
 20
-154.742584921585
 11
185.450309986926
 21
-154.742480494629
  0
LINE
  5
7A
100
AcDbEntity
  8
KONTUR
  6
CONTINUOUS
 62
           3
100
AcDbLine
 10
185.450309986926
 20
-154.742480494629
 11
185.031595187998
 21
-154.742469306026
  0
LINE
  5
79
100
AcDbEntity
  8
KONTUR
  6
CONTINUOUS
 62
           3
100
AcDbLine
 10
185.031595187998
 20
-154.742469306026
 11
184.612880389071
 21
-154.742487953698
  0
LINE
  5
78
100
AcDbEntity
  8
KONTUR
  6
CONTINUOUS
 62
           3
100
AcDbLine
 10
184.612880389071
 20
-154.742487953698
 11
184.194165590143
 21
-154.742480494629
  0
LINE
  5
77
100
AcDbEntity
  8
KONTUR
  6
CONTINUOUS
 62
           3
100
AcDbLine
 10
184.194165590143
 20
-154.742480494629
 11
183.775450791215
 21
-154.742480494629
  0
LINE
  5
76
100
AcDbEntity
  8
KONTUR
  6
CONTINUOUS
 62
           3
100
AcDbLine
 10
183.775450791215
 20
-154.742480494629
 11
183.356735992288
 21
-154.742480494629
  0
LINE
  5
75
100
AcDbEntity
  8
KONTUR
  6
CONTINUOUS
 62
           3
100
AcDbLine
 10
187.465519010019
 20
-152.650704135453
 11
187.818862534379
 21
-152.703656061303
  0
LINE
  5
74
100
AcDbEntity
  8
KONTUR
  6
CONTINUOUS
 62
           3
100
AcDbLine
 10
187.818862534379
 20
-152.703656061303
 11
188.141265843439
 21
-152.851006226003
  0
LINE
  5
73
100
AcDbEntity
  8
KONTUR
  6
CONTINUOUS
 62
           3
100
AcDbLine
 10
188.141265843439
 20
-152.851006226003
 11
188.366208966112
 21
-153.124149848019
  0
LINE
  5
72
100
AcDbEntity
  8
KONTUR
  6
CONTINUOUS
 62
           3
100
AcDbLine
 10
188.366208966112
 20
-153.124149848019
 11
188.458514936304
 21
-153.467270719277
  0
LINE
  5
71
100
AcDbEntity
  8
KONTUR
  6
CONTINUOUS
 62
           3
100
AcDbLine
 10
188.458514936304
 20
-153.467270719277
 11
188.467726885652
 21
-153.822751266706
  0
LINE
  5
70
100
AcDbEntity
  8
KONTUR
  6
CONTINUOUS
 62
           3
100
AcDbLine
 10
188.467726885652
 20
-153.822751266706
 11
188.468875582171
 21
-154.177944640005
  0
LINE
  5
6F
100
AcDbEntity
  8
KONTUR
  6
CONTINUOUS
 62
           3
100
AcDbLine
 10
188.468875582171
 20
-154.177944640005
 11
188.421861074686
 21
-154.532082555138
  0
LINE
  5
6E
100
AcDbEntity
  8
KONTUR
  6
CONTINUOUS
 62
           3
100
AcDbLine
 10
188.421861074686
 20
-154.532082555138
 11
188.253867938471
 21
-154.843920093953
  0
LINE
  5
6D
100
AcDbEntity
  8
KONTUR
  6
CONTINUOUS
 62
           3
100
AcDbLine
 10
188.253867938471
 20
-154.843920093953
 11
187.979777014779
 21
-155.071492538202
  0
LINE
  5
6C
100
AcDbEntity
  8
KONTUR
  6
CONTINUOUS
 62
           3
100
AcDbLine
 10
187.979777014779
 20
-155.071492538202
 11
187.652734165239
 21
-155.210600432432
  0
LINE
  5
6B
100
AcDbEntity
  8
KONTUR
  6
CONTINUOUS
 62
           3
100
AcDbLine
 10
187.652734165239
 20
-155.210600432432
 11
187.303970508814
 21
-155.279734806954
  0
LINE
  5
6A
100
AcDbEntity
  8
KONTUR
  6
CONTINUOUS
 62
           3
100
AcDbLine
 10
187.303970508814
 20
-155.279734806954
 11
186.948903939675
 21
-155.295775533331
  0
LINE
  5
69
100
AcDbEntity
  8
KONTUR
  6
CONTINUOUS
 62
           3
100
AcDbLine
 10
186.948903939675
 20
-155.295775533331
 11
186.593359990168
 21
-155.294537327993
  0
LINE
  5
68
100
AcDbEntity
  8
KONTUR
  6
CONTINUOUS
 62
           3
100
AcDbLine
 10
186.593359990168
 20
-155.294537327993
 11
186.237890631342
 21
-155.295055733239
  0
LINE
  5
67
100
AcDbEntity
  8
KONTUR
  6
CONTINUOUS
 62
           3
100
AcDbLine
 10
186.237890631342
 20
-155.295055733239
 11
185.882421272516
 21
-155.295488359201
  0
LINE
  5
66
100
AcDbEntity
  8
KONTUR
  6
CONTINUOUS
 62
           3
100
AcDbLine
 10
185.882421272516
 20
-155.295488359201
 11
185.526929536485
 21
-155.295380202711
  0
LINE
  5
65
100
AcDbEntity
  8
KONTUR
  6
CONTINUOUS
 62
           3
100
AcDbLine
 10
185.526929536485
 20
-155.295380202711
 11
185.171430341387
 21
-155.295216103208
  0
LINE
  5
64
100
AcDbEntity
  8
KONTUR
  6
CONTINUOUS
 62
           3
100
AcDbLine
 10
185.171430341387
 20
-155.295216103208
 11
184.815946064424
 21
-155.295216103208
  0
LINE
  5
63
100
AcDbEntity
  8
KONTUR
  6
CONTINUOUS
 62
           3
100
AcDbLine
 10
184.815946064424
 20
-155.295216103208
 11
184.460454328394
 21
-155.295268316685
  0
LINE
  5
62
100
AcDbEntity
  8
KONTUR
  6
CONTINUOUS
 62
           3
100
AcDbLine
 10
184.460454328394
 20
-155.295268316685
 11
184.104970051432
 21
-155.295279505288
  0
LINE
  5
61
100
AcDbEntity
  8
KONTUR
  6
CONTINUOUS
 62
           3
100
AcDbLine
 10
184.104970051432
 20
-155.295279505288
 11
183.7494783154
 21
-155.295264587152
  0
LINE
  5
60
100
AcDbEntity
  8
KONTUR
  6
CONTINUOUS
 62
           3
100
AcDbLine
 10
183.7494783154
 20
-155.295264587152
 11
183.393986579371
 21
-155.295264587152
  0
LINE
  5
5F
100
AcDbEntity
  8
KONTUR
  6
CONTINUOUS
 62
           3
100
AcDbLine
 10
183.393986579371
 20
-155.295264587152
 11
183.038502302408
 21
-155.295268316685
  0
LINE
  5
5E
100
AcDbEntity
  8
KONTUR
  6
CONTINUOUS
 62
           3
100
AcDbLine
 10
183.038502302408
 20
-155.295268316685
 11
182.683010566378
 21
-155.295268316685
  0
LINE
  5
5D
100
AcDbEntity
  8
KONTUR
  6
CONTINUOUS
 62
           3
100
AcDbLine
 10
183.356735992288
 20
-150.848320978582
 11
183.754833926439
 21
-150.848320978582
  0
LINE
  5
5C
100
AcDbEntity
  8
KONTUR
  6
CONTINUOUS
 62
           3
100
AcDbLine
 10
183.754833926439
 20
-150.848320978582
 11
184.152931860589
 21
-150.848425405538
  0
LINE
  5
5B
100
AcDbEntity
  8
KONTUR
  6
CONTINUOUS
 62
           3
100
AcDbLine
 10
184.152931860589
 20
-150.848425405538
 11
184.55102979474
 21
-150.848470159947
  0
LINE
  5
5A
100
AcDbEntity
  8
KONTUR
  6
CONTINUOUS
 62
           3
100
AcDbLine
 10
184.55102979474
 20
-150.848470159947
 11
184.949112810754
 21
-150.848197903954
  0
LINE
  5
59
100
AcDbEntity
  8
KONTUR
  6
CONTINUOUS
 62
           3
100
AcDbLine
 10
184.949112810754
 20
-150.848197903954
 11
185.3471883677
 21
-150.847806302869
  0
LINE
  5
58
100
AcDbEntity
  8
KONTUR
  6
CONTINUOUS
 62
           3
100
AcDbLine
 10
185.3471883677
 20
-150.847806302869
 11
185.745301219988
 21
-150.848265035569
  0
LINE
  5
57
100
AcDbEntity
  8
KONTUR
  6
CONTINUOUS
 62
           3
100
AcDbLine
 10
185.745301219988
 20
-150.848265035569
 11
186.143458826684
 21
-150.849876194322
  0
LINE
  5
56
100
AcDbEntity
  8
KONTUR
  6
CONTINUOUS
 62
           3
100
AcDbLine
 10
186.143458826684
 20
-150.849876194322
 11
186.541541842699
 21
-150.849525618112
  0
LINE
  5
55
100
AcDbEntity
  8
KONTUR
  6
CONTINUOUS
 62
           3
100
AcDbLine
 10
186.541541842699
 20
-150.849525618112
 11
186.939416004801
 21
-150.850678044164
  0
LINE
  5
54
100
AcDbEntity
  8
KONTUR
  6
CONTINUOUS
 62
           3
100
AcDbLine
 10
186.939416004801
 20
-150.850678044164
 11
187.327533705568
 21
-150.941898719918
  0
LINE
  5
53
100
AcDbEntity
  8
KONTUR
  6
CONTINUOUS
 62
           3
100
AcDbLine
 10
187.327533705568
 20
-150.941898719918
 11
187.581134568643
 21
-151.240612028062
  0
LINE
  5
52
100
AcDbEntity
  8
KONTUR
  6
CONTINUOUS
 62
           3
100
AcDbLine
 10
187.581134568643
 20
-151.240612028062
 11
187.597007465982
 21
-151.640399441182
  0
LINE
  5
51
100
AcDbEntity
  8
KONTUR
  6
CONTINUOUS
 62
           3
100
AcDbLine
 10
187.597007465982
 20
-151.640399441182
 11
187.569214977503
 21
-152.036024694192
  0
LINE
  5
50
100
AcDbEntity
  8
KONTUR
  6
CONTINUOUS
 62
           3
100
AcDbLine
 10
187.569214977503
 20
-152.036024694192
 11
187.325281066942
 21
-152.344524299943
  0
LINE
  5
4F
100
AcDbEntity
  8
KONTUR
  6
CONTINUOUS
 62
           3
100
AcDbLine
 10
187.325281066942
 20
-152.344524299943
 11
186.939803876352
 21
-152.438907620656
  0
LINE
  5
4E
100
AcDbEntity
  8
KONTUR
  6
CONTINUOUS
 62
           3
100
AcDbLine
 10
186.939803876352
 20
-152.438907620656
 11
186.541191266489
 21
-152.447067841374
  0
LINE
  5
4D
100
AcDbEntity
  8
KONTUR
  6
CONTINUOUS
 62
           3
100
AcDbLine
 10
186.541191266489
 20
-152.447067841374
 11
186.143421531343
 21
-152.442849738252
  0
LINE
  5
4C
100
AcDbEntity
  8
KONTUR
  6
CONTINUOUS
 62
           3
100
AcDbLine
 10
186.143421531343
 20
-152.442849738252
 11
185.745383269739
 21
-152.442096372353
  0
LINE
  5
4B
100
AcDbEntity
  8
KONTUR
  6
CONTINUOUS
 62
           3
100
AcDbLine
 10
185.745383269739
 20
-152.442096372353
 11
185.347195826769
 21
-152.443274905144
  0
LINE
  5
4A
100
AcDbEntity
  8
KONTUR
  6
CONTINUOUS
 62
           3
100
AcDbLine
 10
185.347195826769
 20
-152.443274905144
 11
184.949097892618
 21
-152.443297282349
  0
LINE
  5
49
100
AcDbEntity
  8
KONTUR
  6
CONTINUOUS
 62
           3
100
AcDbLine
 10
184.949097892618
 20
-152.443297282349
 11
184.551022335672
 21
-152.443051133096
  0
LINE
  5
48
100
AcDbEntity
  8
KONTUR
  6
CONTINUOUS
 62
           3
100
AcDbLine
 10
184.551022335672
 20
-152.443051133096
 11
184.152924401522
 21
-152.443099617039
  0
LINE
  5
47
100
AcDbEntity
  8
KONTUR
  6
CONTINUOUS
 62
           3
100
AcDbLine
 10
184.152924401522
 20
-152.443099617039
 11
183.754833926439
 21
-152.443092157972
  0
LINE
  5
46
100
AcDbEntity
  8
KONTUR
  6
CONTINUOUS
 62
           3
100
AcDbLine
 10
183.754833926439
 20
-152.443092157972
 11
183.356735992288
 21
-152.443088428437
  0
LINE
  5
45
100
AcDbEntity
  8
KONTUR
  6
CONTINUOUS
 62
           3
100
AcDbLine
 10
182.683010566378
 20
-150.296006807363
 11
183.011619820261
 21
-150.296006807363
  0
LINE
  5
44
100
AcDbEntity
  8
KONTUR
  6
CONTINUOUS
 62
           3
100
AcDbLine
 10
183.011619820261
 20
-150.296006807363
 11
183.340229074144
 21
-150.295991889225
  0
LINE
  5
43
100
AcDbEntity
  8
KONTUR
  6
CONTINUOUS
 62
           3
100
AcDbLine
 10
183.340229074144
 20
-150.295991889225
 11
183.668838328028
 21
-150.295995618761
  0
LINE
  5
42
100
AcDbEntity
  8
KONTUR
  6
CONTINUOUS
 62
           3
100
AcDbLine
 10
183.668838328028
 20
-150.295995618761
 11
183.997447581911
 21
-150.296066479909
  0
LINE
  5
41
100
AcDbEntity
  8
KONTUR
  6
CONTINUOUS
 62
           3
100
AcDbLine
 10
183.997447581911
 20
-150.296066479909
 11
184.326064294863
 21
-150.296107504784
  0
LINE
  5
40
100
AcDbEntity
  8
KONTUR
  6
CONTINUOUS
 62
           3
100
AcDbLine
 10
184.326064294863
 20
-150.296107504784
 11
184.654658630609
 21
-150.295965782487
  0
LINE
  5
3F
100
AcDbEntity
  8
KONTUR
  6
CONTINUOUS
 62
           3
100
AcDbLine
 10
184.654658630609
 20
-150.295965782487
 11
184.983252966356
 21
-150.295656231153
  0
LINE
  5
3E
100
AcDbEntity
  8
KONTUR
  6
CONTINUOUS
 62
           3
100
AcDbLine
 10
184.983252966356
 20
-150.295656231153
 11
185.311854761172
 21
-150.295652501618
  0
LINE
  5
3D
100
AcDbEntity
  8
KONTUR
  6
CONTINUOUS
 62
           3
100
AcDbLine
 10
185.311854761172
 20
-150.295652501618
 11
185.640523687601
 21
-150.296454351461
  0
LINE
  5
3C
100
AcDbEntity
  8
KONTUR
  6
CONTINUOUS
 62
           3
100
AcDbLine
 10
185.640523687601
 20
-150.296454351461
 11
185.969214991236
 21
-150.29772985214
  0
LINE
  5
3B
100
AcDbEntity
  8
KONTUR
  6
CONTINUOUS
 62
           3
100
AcDbLine
 10
185.969214991236
 20
-150.29772985214
 11
186.297846622324
 21
-150.298061780679
  0
LINE
  5
3A
100
AcDbEntity
  8
KONTUR
  6
CONTINUOUS
 62
           3
100
AcDbLine
 10
186.297846622324
 20
-150.298061780679
 11
186.626314153909
 21
-150.295973241555
  0
LINE
  5
39
100
AcDbEntity
  8
KONTUR
  6
CONTINUOUS
 62
           3
100
AcDbLine
 10
186.626314153909
 20
-150.295973241555
 11
186.954587749719
 21
-150.294951349198
  0
LINE
  5
38
100
AcDbEntity
  8
KONTUR
  6
CONTINUOUS
 62
           3
100
AcDbLine
 10
186.954587749719
 20
-150.294951349198
 11
187.282883722734
 21
-150.317865607011
  0
LINE
  5
37
100
AcDbEntity
  8
KONTUR
  6
CONTINUOUS
 62
           3
100
AcDbLine
 10
187.282883722734
 20
-150.317865607011
 11
187.607629179239
 21
-150.392478667199
  0
LINE
  5
36
100
AcDbEntity
  8
KONTUR
  6
CONTINUOUS
 62
           3
100
AcDbLine
 10
187.607629179239
 20
-150.392478667199
 11
187.897264801263
 21
-150.547944298207
  0
LINE
  5
35
100
AcDbEntity
  8
KONTUR
  6
CONTINUOUS
 62
           3
100
AcDbLine
 10
187.897264801263
 20
-150.547944298207
 11
188.113920899057
 21
-150.799844493711
  0
LINE
  5
34
100
AcDbEntity
  8
KONTUR
  6
CONTINUOUS
 62
           3
100
AcDbLine
 10
188.113920899057
 20
-150.799844493711
 11
188.242067692423
 21
-151.110622844827
  0
LINE
  5
33
100
AcDbEntity
  8
KONTUR
  6
CONTINUOUS
 62
           3
100
AcDbLine
 10
188.242067692423
 20
-151.110622844827
 11
188.278870735407
 21
-151.435938920057
  0
LINE
  5
32
100
AcDbEntity
  8
KONTUR
  6
CONTINUOUS
 62
           3
100
AcDbLine
 10
188.278870735407
 20
-151.435938920057
 11
188.270546415185
 21
-151.768784924733
  0
LINE
  5
31
100
AcDbEntity
  8
KONTUR
  6
CONTINUOUS
 62
           3
100
AcDbLine
 10
188.270546415185
 20
-151.768784924733
 11
188.228783091783
 21
-152.098706974637
  0
LINE
  5
30
100
AcDbEntity
  8
KONTUR
  6
CONTINUOUS
 62
           3
100
AcDbLine
 10
188.228783091783
 20
-152.098706974637
 11
188.063117184877
 21
-152.376836983812
  0
LINE
  5
2F
100
AcDbEntity
  8
KONTUR
  6
CONTINUOUS
 62
           3
100
AcDbLine
 10
188.063117184877
 20
-152.376836983812
 11
187.78567713952
 21
-152.551024876248
  0
LINE
  5
2E
100
AcDbEntity
  8
KONTUR
  6
CONTINUOUS
 62
           3
100
AcDbLine
 10
187.78567713952
 20
-152.551024876248
 11
187.465519010019
 21
-152.623355461537
  0
ENDBLK
  5
197
100
AcDbEntity
  8
0
100
AcDbBlockEnd
  0
BLOCK
  5
29
100
AcDbEntity
  8
0
100
AcDbBlockBegin
  2
GETRIEBE
 70
           0
 10
0.954534850379
 20
-98.723115774382
 30
0.0
  3
GETRIEBE
  1

  0
HATCH
  5
28A
100
AcDbEntity
  8
0
  6
CONTINUOUS
 62
           3
100
AcDbHatch
 10
0.0
 20
0.0
 30
0.0
210
0.0
220
0.0
230
1.0
  2
USER
 70
           0
 71
           1
 91
        1
 92
        1
 93
        4
 72
           1
 10
-402.98447937342962
 20
-239.7323951045669
 11
-384.98447937342962
 21
-270.90930964080587
 72
           1
 10
-402.98447937342962
 20
-239.7323951045669
 11
-402.98447937342962
 21
-415.73239510456591
 72
           1
 10
-384.98447937342962
 20
-384.55548056832589
 11
-402.98447937342962
 21
-415.73239510456591
 72
           1
 10
-384.98447937342962
 20
-270.90930964080587
 11
-384.98447937342962
 21
-384.55548056832589
 97
        4
330
19F
330
19E
330
19C
330
19D
 75
           1
 76
           0
 52
0.0
 41
0.25
 77
           0
 78
           1
 53
0.0
 43
0.0
 44
0.0
 45
0.0
 46
0.25
 79
           0
 98
        1
 10
0.0
 20
0.0
  0
HATCH
  5
289
100
AcDbEntity
  8
0
  6
CONTINUOUS
 62
           3
100
AcDbHatch
 10
0.0
 20
0.0
 30
0.0
210
0.0
220
0.0
230
1.0
  2
USER
 70
           0
 71
           1
 91
        1
 92
        1
 93
        4
 72
           1
 10
-388.55072264368852
 20
-404.73239510456591
 11
-307.7216849571405
 21
-404.73239510456591
 72
           1
 10
-398.9430274891015
 20
-422.73239510456591
 11
-388.55072264368852
 21
-404.73239510456591
 72
           1
 10
-297.32938011172752
 20
-422.73239510456591
 11
-398.9430274891015
 21
-422.73239510456591
 72
           1
 10
-307.7216849571405
 20
-404.73239510456591
 11
-297.32938011172752
 21
-422.73239510456591
 97
        4
330
19A
330
19B
330
198
330
199
 75
           1
 76
           0
 52
0.0
 41
0.25
 77
           0
 78
           1
 53
0.0
 43
0.0
 44
0.0
 45
0.0
 46
0.25
 79
           0
 98
        1
 10
0.0
 20
0.0
  0
ARC
  5
288
100
AcDbEntity
  8
1
  6
CONTINUOUS
 62
           2
100
AcDbCircle
 10
613.325896656206
 20
298.770375891675
 40
1.2
100
AcDbArc
 50
0.0
 51
90.0
  0
ARC
  5
287
100
AcDbEntity
  8
1
  6
CONTINUOUS
 62
           2
100
AcDbCircle
 10
613.325896656206
 20
283.170375891675
 40
1.2
100
AcDbArc
 50
-90.0
 51
0.0
  0
ARC
  5
286
100
AcDbEntity
  8
1
  6
CONTINUOUS
 62
           2
100
AcDbCircle
 10
613.325896656206
 20
141.792670468261
 40
1.2
100
AcDbArc
 50
0.0
 51
90.0
  0
ARC
  5
285
100
AcDbEntity
  8
1
  6
CONTINUOUS
 62
           2
100
AcDbCircle
 10
613.325896656206
 20
126.192670468261
 40
1.2
100
AcDbArc
 50
-90.0
 51
0.0
  0
ARC
  5
284
100
AcDbEntity
  8
1
  6
CONTINUOUS
 62
           2
100
AcDbCircle
 10
-434.425056512121
 20
-488.532395104566
 40
1.2
100
AcDbArc
 50
180.0
 51
-90.0
  0
ARC
  5
283
100
AcDbEntity
  8
1
  6
CONTINUOUS
 62
           2
100
AcDbCircle
 10
-418.825056512121
 20
-488.532395104566
 40
1.2
100
AcDbArc
 50
-90.0
 51
0.0
  0
ARC
  5
282
100
AcDbEntity
  8
1
  6
CONTINUOUS
 62
           2
100
AcDbCircle
 10
-277.447351088707
 20
-488.532395104566
 40
1.2
100
AcDbArc
 50
180.0
 51
-90.0
  0
ARC
  5
281
100
AcDbEntity
  8
1
  6
CONTINUOUS
 62
           2
100
AcDbCircle
 10
-261.847351088707
 20
-488.532395104566
 40
1.2
100
AcDbArc
 50
-90.0
 51
0.0
  0
CIRCLE
  5
280
100
AcDbEntity
  8
1
  6
CONTINUOUS
 62
           2
100
AcDbCircle
 10
-348.136203800414
 20
212.481523179968
 40
100.0
  0
CIRCLE
  5
27F
100
AcDbEntity
  8
1
  6
CONTINUOUS
 62
           2
100
AcDbCircle
 10
-348.136203800414
 20
212.481523179968
 40
57.5
  0
CIRCLE
  5
27E
100
AcDbEntity
  8
1
  6
CONTINUOUS
 62
           2
100
AcDbCircle
 10
-348.136203800414
 20
212.481523179968
 40
45.0
  0
CIRCLE
  5
27D
100
AcDbEntity
  8
1
  6
CONTINUOUS
 62
           2
100
AcDbCircle
 10
-348.136203800414
 20
212.481523179968
 40
21.0
  0
CIRCLE
  5
27C
100
AcDbEntity
  8
1
  6
CONTINUOUS
 62
           2
100
AcDbCircle
 10
-269.647351088707
 20
290.970375891675
 40
9.0
  0
CIRCLE
  5
27B
100
AcDbEntity
  8
1
  6
CONTINUOUS
 62
           2
100
AcDbCircle
 10
-426.625056512121
 20
290.970375891675
 40
9.0
  0
CIRCLE
  5
27A
100
AcDbEntity
  8
1
  6
CONTINUOUS
 62
           2
100
AcDbCircle
 10
-426.625056512121
 20
133.992670468261
 40
9.0
  0
CIRCLE
  5
279
100
AcDbEntity
  8
1
  6
CONTINUOUS
 62
           2
100
AcDbCircle
 10
-269.647351088707
 20
133.992670468261
 40
9.0
  0
CIRCLE
  5
278
100
AcDbEntity
  8
1
  6
CONTINUOUS
 62
           2
100
AcDbCircle
 10
-348.136203800414
 20
212.481523179968
 40
122.5
  0
CIRCLE
  5
277
100
AcDbEntity
  8
1
  6
CONTINUOUS
 62
           2
100
AcDbCircle
 10
-248.136203800414
 20
312.481523179968
 40
6.4
  0
CIRCLE
  5
276
100
AcDbEntity
  8
1
  6
CONTINUOUS
 62
           2
100
AcDbCircle
 10
-248.136203800414
 20
112.481523179968
 40
6.4
  0
CIRCLE
  5
275
100
AcDbEntity
  8
1
  6
CONTINUOUS
 62
           2
100
AcDbCircle
 10
-448.136203800414
 20
312.481523179968
 40
6.4
  0
CIRCLE
  5
274
100
AcDbEntity
  8
1
  6
CONTINUOUS
 62
           2
100
AcDbCircle
 10
-448.136203800414
 20
112.481523179968
 40
6.4
  0
CIRCLE
  5
273
100
AcDbEntity
  8
1
  6
CONTINUOUS
 62
           2
100
AcDbCircle
 10
-248.136203800414
 20
-227.732395104566
 40
6.4
  0
CIRCLE
  5
272
100
AcDbEntity
  8
1
  6
CONTINUOUS
 62
           2
100
AcDbCircle
 10
-248.136203800414
 20
-427.732395104566
 40
6.4
  0
CIRCLE
  5
271
100
AcDbEntity
  8
1
  6
CONTINUOUS
 62
           2
100
AcDbCircle
 10
-448.136203800414
 20
-227.732395104566
 40
6.4
  0
CIRCLE
  5
270
100
AcDbEntity
  8
1
  6
CONTINUOUS
 62
           2
100
AcDbCircle
 10
-448.136203800414
 20
-427.732395104566
 40
6.4
  0
CIRCLE
  5
26F
100
AcDbEntity
  8
1
  6
CONTINUOUS
 62
           2
100
AcDbCircle
 10
452.525896656206
 20
212.481523179968
 40
122.5
  0
CIRCLE
  5
26E
100
AcDbEntity
  8
1
  6
CONTINUOUS
 62
           2
100
AcDbCircle
 10
552.525896656206
 20
312.481523179968
 40
6.4
  0
CIRCLE
  5
26D
100
AcDbEntity
  8
1
  6
CONTINUOUS
 62
           2
100
AcDbCircle
 10
352.525896656206
 20
312.481523179968
 40
6.4
  0
CIRCLE
  5
26C
100
AcDbEntity
  8
1
  6
CONTINUOUS
 62
           2
100
AcDbCircle
 10
352.525896656206
 20
112.481523179968
 40
6.4
  0
CIRCLE
  5
26B
100
AcDbEntity
  8
1
  6
CONTINUOUS
 62
           2
100
AcDbCircle
 10
552.525896656206
 20
112.481523179968
 40
6.4
  0
CIRCLE
  5
26A
100
AcDbEntity
  8
1
  6
CONTINUOUS
 62
           2
100
AcDbCircle
 10
452.525896656206
 20
212.481523179968
 40
35.0
  0
CIRCLE
  5
269
100
AcDbEntity
  8
1
  6
CONTINUOUS
 62
           2
100
AcDbCircle
 10
452.525896656206
 20
212.481523179968
 40
45.0
  0
ARC
  5
268
100
AcDbEntity
  8
1
  6
CONTINUOUS
 62
           2
100
AcDbCircle
 10
-348.136203800414
 20
-627.732395104566
 40
6.0
100
AcDbArc
 50
180.0
 51
0.0
  0
ARC
  5
267
100
AcDbEntity
  8
1
  6
CONTINUOUS
 62
           2
100
AcDbCircle
 10
-348.136203800414
 20
-576.732395104566
 40
6.0
100
AcDbArc
 50
0.0
 51
180.0
  0
ARC
  5
266
100
AcDbEntity
  8
1
  6
CONTINUOUS
 62
           2
100
AcDbCircle
 10
-348.136203800414
 20
212.481523179968
 40
22.5
100
AcDbArc
 50
105.466009953421
 51
0.0
  0
ARC
  5
265
100
AcDbEntity
  8
1
  6
CONTINUOUS
 62
           2
100
AcDbCircle
 10
-348.136203800414
 20
212.481523179968
 40
22.5
100
AcDbArc
 50
0.0
 51
74.53399004658
  0
ARC
  5
264
100
AcDbEntity
  8
1
  6
CONTINUOUS
 62
           3
100
AcDbCircle
 10
-248.136203800414
 20
312.481523179968
 40
8.0
100
AcDbArc
 50
170.0
 51
100.0
  0
ARC
  5
263
100
AcDbEntity
  8
1
  6
CONTINUOUS
 62
           3
100
AcDbCircle
 10
-248.136203800414
 20
112.481523179968
 40
8.0
100
AcDbArc
 50
170.0
 51
100.0
  0
ARC
  5
262
100
AcDbEntity
  8
1
  6
CONTINUOUS
 62
           3
100
AcDbCircle
 10
-448.136203800414
 20
312.481523179968
 40
8.0
100
AcDbArc
 50
170.0
 51
100.0
  0
ARC
  5
261
100
AcDbEntity
  8
1
  6
CONTINUOUS
 62
           3
100
AcDbCircle
 10
-448.136203800414
 20
112.481523179968
 40
8.0
100
AcDbArc
 50
170.0
 51
100.0
  0
ARC
  5
260
100
AcDbEntity
  8
1
  6
CONTINUOUS
 62
           3
100
AcDbCircle
 10
-248.136203800414
 20
-227.732395104566
 40
8.0
100
AcDbArc
 50
169.999999999999
 51
100.0
  0
ARC
  5
25F
100
AcDbEntity
  8
1
  6
CONTINUOUS
 62
           3
100
AcDbCircle
 10
-248.136203800414
 20
-427.732395104566
 40
8.0
100
AcDbArc
 50
169.999999999999
 51
100.0
  0
ARC
  5
25E
100
AcDbEntity
  8
1
  6
CONTINUOUS
 62
           3
100
AcDbCircle
 10
-448.136203800414
 20
-227.732395104566
 40
8.0
100
AcDbArc
 50
169.999999999999
 51
100.0
  0
ARC
  5
25D
100
AcDbEntity
  8
1
  6
CONTINUOUS
 62
           3
100
AcDbCircle
 10
-448.136203800414
 20
-427.732395104566
 40
8.0
100
AcDbArc
 50
169.999999999999
 51
100.0
  0
ARC
  5
25C
100
AcDbEntity
  8
1
  6
CONTINUOUS
 62
           3
100
AcDbCircle
 10
552.525896656206
 20
312.481523179968
 40
8.0
100
AcDbArc
 50
170.0
 51
100.000000000002
  0
ARC
  5
25B
100
AcDbEntity
  8
1
  6
CONTINUOUS
 62
           3
100
AcDbCircle
 10
352.525896656206
 20
312.481523179968
 40
8.0
100
AcDbArc
 50
170.0
 51
100.000000000002
  0
ARC
  5
25A
100
AcDbEntity
  8
1
  6
CONTINUOUS
 62
           3
100
AcDbCircle
 10
352.525896656206
 20
112.481523179968
 40
8.0
100
AcDbArc
 50
170.0
 51
100.000000000002
  0
ARC
  5
259
100
AcDbEntity
  8
1
  6
CONTINUOUS
 62
           3
100
AcDbCircle
 10
552.525896656206
 20
112.481523179968
 40
8.0
100
AcDbArc
 50
170.0
 51
100.000000000002
  0
ARC
  5
258
100
AcDbEntity
  8
1
  6
CONTINUOUS
 62
           2
100
AcDbCircle
 10
452.525896656206
 20
212.481523179968
 40
27.5
100
AcDbArc
 50
-163.087610196574
 51
163.087610196574
  0
LINE
  5
257
100
AcDbEntity
  8
1
  6
DOT_CENTER
 62
           3
100
AcDbLine
 10
-348.136203800414
 20
-503.846152248885
 11
-348.136203800414
 21
-196.084941890854
  0
LINE
  5
256
100
AcDbEntity
  8
1
  6
CONTINUOUS
 62
           2
100
AcDbLine
 10
-405.636203800414
 20
-482.732395104566
 11
-290.636203800414
 21
-482.732395104566
  0
LINE
  5
255
100
AcDbEntity
  8
1
  6
CONTINUOUS
 62
           2
100
AcDbLine
 10
-290.636203800414
 20
-482.732395104566
 11
-278.647351088707
 21
-482.732395104566
  0
LINE
  5
254
100
AcDbEntity
  8
1
  6
CONTINUOUS
 62
           2
100
AcDbLine
 10
-354.136203800414
 20
-576.732395104566
 11
-354.136203800414
 21
-627.732395104566
  0
LINE
  5
253
100
AcDbEntity
  8
1
  6
CONTINUOUS
 62
           2
100
AcDbLine
 10
-342.136203800414
 20
-576.732395104566
 11
-342.136203800414
 21
-627.732395104566
  0
LINE
  5
252
100
AcDbEntity
  8
1
  6
CONTINUOUS
 62
           2
100
AcDbLine
 10
607.525896656206
 20
154.981523179968
 11
607.525896656206
 21
142.992670468261
  0
LINE
  5
251
100
AcDbEntity
  8
1
  6
CONTINUOUS
 62
           2
100
AcDbLine
 10
607.525896656206
 20
269.981523179968
 11
607.525896656206
 21
154.981523179968
  0
LINE
  5
250
100
AcDbEntity
  8
1
  6
CONTINUOUS
 62
           2
100
AcDbLine
 10
-342.136203800414
 20
236.481523179968
 11
-342.136203800414
 21
232.606134977466
  0
LINE
  5
24F
100
AcDbEntity
  8
1
  6
CONTINUOUS
 62
           2
100
AcDbLine
 10
-354.136203800414
 20
236.481523179968
 11
-342.136203800414
 21
236.481523179968
  0
LINE
  5
24E
100
AcDbEntity
  8
1
  6
CONTINUOUS
 62
           2
100
AcDbLine
 10
-354.136203800414
 20
232.606134977466
 11
-354.136203800414
 21
236.481523179968
  0
LINE
  5
24D
100
AcDbEntity
  8
1
  6
CONTINUOUS
 62
           2
100
AcDbLine
 10
-417.625056512121
 20
-482.732395104566
 11
-405.636203800414
 21
-482.732395104566
  0
LINE
  5
24C
100
AcDbEntity
  8
1
  6
CONTINUOUS
 62
           2
100
AcDbLine
 10
-260.647351088707
 20
-482.732395104566
 11
-248.136203800414
 21
-482.732395104566
  0
LINE
  5
24B
100
AcDbEntity
  8
1
  6
CONTINUOUS
 62
           2
100
AcDbLine
 10
607.525896656206
 20
124.992670468261
 11
607.525896656206
 21
112.481523179968
  0
LINE
  5
24A
100
AcDbEntity
  8
1
  6
CONTINUOUS
 62
           2
100
AcDbLine
 10
607.525896656206
 20
281.970375891675
 11
607.525896656206
 21
269.981523179968
  0
LINE
  5
249
100
AcDbEntity
  8
1
  6
DOT_CENTER
 62
           3
100
AcDbLine
 10
-280.447351088707
 20
290.970375891675
 11
-258.847351088707
 21
290.970375891675
  0
LINE
  5
248
100
AcDbEntity
  8
1
  6
DOT_CENTER
 62
           3
100
AcDbLine
 10
-269.647351088707
 20
301.770375891675
 11
-269.647351088707
 21
280.170375891675
  0
LINE
  5
247
100
AcDbEntity
  8
1
  6
CONTINUOUS
 62
           2
100
AcDbLine
 10
-264.647351088707
 20
293.857127237623
 11
-269.647351088707
 21
296.743878583571
  0
LINE
  5
246
100
AcDbEntity
  8
1
  6
CONTINUOUS
 62
           2
100
AcDbLine
 10
-264.647351088707
 20
288.083624545727
 11
-264.647351088707
 21
293.857127237623
  0
LINE
  5
245
100
AcDbEntity
  8
1
  6
CONTINUOUS
 62
           2
100
AcDbLine
 10
-269.647351088707
 20
285.196873199779
 11
-264.647351088707
 21
288.083624545727
  0
LINE
  5
244
100
AcDbEntity
  8
1
  6
CONTINUOUS
 62
           2
100
AcDbLine
 10
-274.647351088707
 20
288.083624545727
 11
-269.647351088707
 21
285.196873199779
  0
LINE
  5
243
100
AcDbEntity
  8
1
  6
CONTINUOUS
 62
           2
100
AcDbLine
 10
-274.647351088707
 20
293.857127237623
 11
-274.647351088707
 21
288.083624545727
  0
LINE
  5
242
100
AcDbEntity
  8
1
  6
CONTINUOUS
 62
           2
100
AcDbLine
 10
-269.647351088707
 20
296.743878583571
 11
-274.647351088707
 21
293.857127237623
  0
LINE
  5
241
100
AcDbEntity
  8
1
  6
DOT_CENTER
 62
           3
100
AcDbLine
 10
-437.425056512121
 20
290.970375891675
 11
-415.825056512121
 21
290.970375891675
  0
LINE
  5
240
100
AcDbEntity
  8
1
  6
DOT_CENTER
 62
           3
100
AcDbLine
 10
-426.625056512121
 20
301.770375891675
 11
-426.625056512121
 21
280.170375891675
  0
LINE
  5
23F
100
AcDbEntity
  8
1
  6
CONTINUOUS
 62
           2
100
AcDbLine
 10
-421.625056512121
 20
293.857127237623
 11
-426.625056512121
 21
296.743878583571
  0
LINE
  5
23E
100
AcDbEntity
  8
1
  6
CONTINUOUS
 62
           2
100
AcDbLine
 10
-421.625056512121
 20
288.083624545727
 11
-421.625056512121
 21
293.857127237623
  0
LINE
  5
23D
100
AcDbEntity
  8
1
  6
CONTINUOUS
 62
           2
100
AcDbLine
 10
-426.625056512121
 20
285.196873199779
 11
-421.625056512121
 21
288.083624545727
  0
LINE
  5
23C
100
AcDbEntity
  8
1
  6
CONTINUOUS
 62
           2
100
AcDbLine
 10
-431.625056512121
 20
288.083624545727
 11
-426.625056512121
 21
285.196873199779
  0
LINE
  5
23B
100
AcDbEntity
  8
1
  6
CONTINUOUS
 62
           2
100
AcDbLine
 10
-431.625056512121
 20
293.857127237623
 11
-431.625056512121
 21
288.083624545727
  0
LINE
  5
23A
100
AcDbEntity
  8
1
  6
CONTINUOUS
 62
           2
100
AcDbLine
 10
-426.625056512121
 20
296.743878583571
 11
-431.625056512121
 21
293.857127237623
  0
LINE
  5
239
100
AcDbEntity
  8
1
  6
DOT_CENTER
 62
           3
100
AcDbLine
 10
-437.425056512121
 20
133.992670468261
 11
-415.825056512121
 21
133.992670468261
  0
LINE
  5
238
100
AcDbEntity
  8
1
  6
DOT_CENTER
 62
           3
100
AcDbLine
 10
-426.625056512121
 20
144.792670468261
 11
-426.625056512121
 21
123.192670468261
  0
LINE
  5
237
100
AcDbEntity
  8
1
  6
CONTINUOUS
 62
           2
100
AcDbLine
 10
-421.625056512121
 20
136.879421814209
 11
-426.625056512121
 21
139.766173160158
  0
LINE
  5
236
100
AcDbEntity
  8
1
  6
CONTINUOUS
 62
           2
100
AcDbLine
 10
-421.625056512121
 20
131.105919122313
 11
-421.625056512121
 21
136.879421814209
  0
LINE
  5
235
100
AcDbEntity
  8
1
  6
CONTINUOUS
 62
           2
100
AcDbLine
 10
-426.625056512121
 20
128.219167776365
 11
-421.625056512121
 21
131.105919122313
  0
LINE
  5
234
100
AcDbEntity
  8
1
  6
CONTINUOUS
 62
           2
100
AcDbLine
 10
-431.625056512121
 20
131.105919122313
 11
-426.625056512121
 21
128.219167776365
  0
LINE
  5
233
100
AcDbEntity
  8
1
  6
CONTINUOUS
 62
           2
100
AcDbLine
 10
-431.625056512121
 20
136.879421814209
 11
-431.625056512121
 21
131.105919122313
  0
LINE
  5
232
100
AcDbEntity
  8
1
  6
CONTINUOUS
 62
           2
100
AcDbLine
 10
-426.625056512121
 20
139.766173160158
 11
-431.625056512121
 21
136.879421814209
  0
LINE
  5
231
100
AcDbEntity
  8
1
  6
DOT_CENTER
 62
           3
100
AcDbLine
 10
-280.447351088707
 20
133.992670468261
 11
-258.847351088707
 21
133.992670468261
  0
LINE
  5
230
100
AcDbEntity
  8
1
  6
DOT_CENTER
 62
           3
100
AcDbLine
 10
-269.647351088707
 20
144.792670468261
 11
-269.647351088707
 21
123.192670468261
  0
LINE
  5
22F
100
AcDbEntity
  8
1
  6
CONTINUOUS
 62
           2
100
AcDbLine
 10
-264.647351088707
 20
136.879421814209
 11
-269.647351088707
 21
139.766173160158
  0
LINE
  5
22E
100
AcDbEntity
  8
1
  6
CONTINUOUS
 62
           2
100
AcDbLine
 10
-264.647351088707
 20
131.105919122313
 11
-264.647351088707
 21
136.879421814209
  0
LINE
  5
22D
100
AcDbEntity
  8
1
  6
CONTINUOUS
 62
           2
100
AcDbLine
 10
-269.647351088707
 20
128.219167776365
 11
-264.647351088707
 21
131.105919122313
  0
LINE
  5
22C
100
AcDbEntity
  8
1
  6
CONTINUOUS
 62
           2
100
AcDbLine
 10
-274.647351088707
 20
131.105919122313
 11
-269.647351088707
 21
128.219167776365
  0
LINE
  5
22B
100
AcDbEntity
  8
1
  6
CONTINUOUS
 62
           2
100
AcDbLine
 10
-274.647351088707
 20
136.879421814209
 11
-274.647351088707
 21
131.105919122313
  0
LINE
  5
22A
100
AcDbEntity
  8
1
  6
CONTINUOUS
 62
           2
100
AcDbLine
 10
-269.647351088707
 20
139.766173160158
 11
-274.647351088707
 21
136.879421814209
  0
LINE
  5
229
100
AcDbEntity
  8
1
  6
CONTINUOUS
 62
           2
100
AcDbLine
 10
602.525896656206
 20
299.970375891675
 11
613.325896656206
 21
299.970375891675
  0
LINE
  5
228
100
AcDbEntity
  8
1
  6
CONTINUOUS
 62
           2
100
AcDbLine
 10
614.525896656206
 20
298.770375891675
 11
614.525896656206
 21
284.981523179968
  0
LINE
  5
227
100
AcDbEntity
  8
1
  6
CONTINUOUS
 62
           2
100
AcDbLine
 10
613.325896656206
 20
281.970375891675
 11
602.525896656206
 21
281.970375891675
  0
LINE
  5
226
100
AcDbEntity
  8
1
  6
DOT_CENTER
 62
           3
100
AcDbLine
 10
580.525896656206
 20
290.970375891675
 11
615.725896656206
 21
290.970375891675
  0
LINE
  5
225
100
AcDbEntity
  8
1
  6
DOT_CENTER
 62
           3
100
AcDbLine
 10
615.725896656206
 20
133.992670468261
 11
580.525896656206
 21
133.992670468261
  0
LINE
  5
224
100
AcDbEntity
  8
1
  6
CONTINUOUS
 62
           2
100
AcDbLine
 10
602.525896656206
 20
142.992670468261
 11
613.325896656206
 21
142.992670468261
  0
LINE
  5
223
100
AcDbEntity
  8
1
  6
CONTINUOUS
 62
           2
100
AcDbLine
 10
614.525896656206
 20
141.792670468261
 11
614.525896656206
 21
139.981523179968
  0
LINE
  5
222
100
AcDbEntity
  8
1
  6
CONTINUOUS
 62
           2
100
AcDbLine
 10
613.325896656206
 20
124.992670468261
 11
602.525896656206
 21
124.992670468261
  0
LINE
  5
221
100
AcDbEntity
  8
1
  6
CONTINUOUS
 62
           2
100
AcDbLine
 10
-435.625056512121
 20
-488.532395104566
 11
-435.625056512121
 21
-477.732395104566
  0
LINE
  5
220
100
AcDbEntity
  8
1
  6
CONTINUOUS
 62
           2
100
AcDbLine
 10
-418.825056512121
 20
-489.732395104566
 11
-420.636203800414
 21
-489.732395104566
  0
LINE
  5
21F
100
AcDbEntity
  8
1
  6
CONTINUOUS
 62
           2
100
AcDbLine
 10
-417.625056512121
 20
-477.732395104566
 11
-417.625056512121
 21
-488.532395104566
  0
LINE
  5
21E
100
AcDbEntity
  8
1
  6
DOT_CENTER
 62
           3
100
AcDbLine
 10
-426.625056512121
 20
-490.932395104566
 11
-426.625056512121
 21
-455.732395104566
  0
LINE
  5
21D
100
AcDbEntity
  8
1
  6
DOT_CENTER
 62
           3
100
AcDbLine
 10
-269.647351088707
 20
-455.732395104566
 11
-269.647351088707
 21
-490.932395104566
  0
LINE
  5
21C
100
AcDbEntity
  8
1
  6
CONTINUOUS
 62
           2
100
AcDbLine
 10
-278.647351088707
 20
-488.532395104566
 11
-278.647351088707
 21
-477.732395104566
  0
LINE
  5
21B
100
AcDbEntity
  8
1
  6
CONTINUOUS
 62
           2
100
AcDbLine
 10
-261.847351088707
 20
-489.732395104566
 11
-275.636203800414
 21
-489.732395104566
  0
LINE
  5
21A
100
AcDbEntity
  8
1
  6
CONTINUOUS
 62
           2
100
AcDbLine
 10
-260.647351088707
 20
-477.732395104566
 11
-260.647351088707
 21
-488.532395104566
  0
LINE
  5
219
100
AcDbEntity
  8
1
  6
CONTINUOUS
 62
           2
100
AcDbLine
 10
-515.136203800414
 20
89.981523179968
 11
-515.136203800414
 21
334.981523179968
  0
LINE
  5
218
100
AcDbEntity
  8
1
  6
CONTINUOUS
 62
           2
100
AcDbLine
 10
-181.136203800414
 20
89.981523179968
 11
-181.136203800414
 21
334.981523179968
  0
LINE
  5
217
100
AcDbEntity
  8
1
  6
CONTINUOUS
 62
           2
100
AcDbLine
 10
-515.136203800414
 20
334.981523179968
 11
-498.136203800414
 21
334.981523179968
  0
LINE
  5
216
100
AcDbEntity
  8
1
  6
CONTINUOUS
 62
           2
100
AcDbLine
 10
-515.136203800414
 20
89.981523179968
 11
-498.136203800414
 21
89.981523179968
  0
LINE
  5
215
100
AcDbEntity
  8
1
  6
CONTINUOUS
 62
           2
100
AcDbLine
 10
-181.136203800414
 20
334.981523179968
 11
-198.136203800414
 21
334.981523179968
  0
LINE
  5
214
100
AcDbEntity
  8
1
  6
CONTINUOUS
 62
           2
100
AcDbLine
 10
-181.136203800414
 20
89.981523179968
 11
-198.136203800414
 21
89.981523179968
  0
LINE
  5
213
100
AcDbEntity
  8
1
  6
CONTINUOUS
 62
           2
100
AcDbLine
 10
-498.136203800414
 20
82.481523179968
 11
-198.136203800414
 21
82.481523179968
  0
LINE
  5
212
100
AcDbEntity
  8
1
  6
CONTINUOUS
 62
           2
100
AcDbLine
 10
-198.136203800414
 20
82.481523179968
 11
-198.136203800414
 21
342.481523179968
  0
LINE
  5
211
100
AcDbEntity
  8
1
  6
CONTINUOUS
 62
           2
100
AcDbLine
 10
-198.136203800414
 20
342.481523179968
 11
-498.136203800414
 21
342.481523179968
  0
LINE
  5
210
100
AcDbEntity
  8
1
  6
CONTINUOUS
 62
           2
100
AcDbLine
 10
-498.136203800414
 20
342.481523179968
 11
-498.136203800414
 21
82.481523179968
  0
LINE
  5
20F
100
AcDbEntity
  8
1
  6
DOT_CENTER
 62
           3
100
AcDbLine
 10
-239.336203800414
 20
312.481523179968
 11
-256.936203800414
 21
312.481523179968
  0
LINE
  5
20E
100
AcDbEntity
  8
1
  6
DOT_CENTER
 62
           3
100
AcDbLine
 10
-248.136203800414
 20
321.281523179968
 11
-248.136203800414
 21
303.681523179968
  0
LINE
  5
20D
100
AcDbEntity
  8
1
  6
DOT_CENTER
 62
           3
100
AcDbLine
 10
-239.336203800414
 20
112.481523179968
 11
-256.936203800414
 21
112.481523179968
  0
LINE
  5
20C
100
AcDbEntity
  8
1
  6
DOT_CENTER
 62
           3
100
AcDbLine
 10
-248.136203800414
 20
121.281523179968
 11
-248.136203800414
 21
103.681523179968
  0
LINE
  5
20B
100
AcDbEntity
  8
1
  6
DOT_CENTER
 62
           3
100
AcDbLine
 10
-439.336203800414
 20
312.481523179968
 11
-456.936203800414
 21
312.481523179968
  0
LINE
  5
20A
100
AcDbEntity
  8
1
  6
DOT_CENTER
 62
           3
100
AcDbLine
 10
-448.136203800414
 20
321.281523179968
 11
-448.136203800414
 21
303.681523179968
  0
LINE
  5
209
100
AcDbEntity
  8
1
  6
DOT_CENTER
 62
           3
100
AcDbLine
 10
-439.336203800414
 20
112.481523179968
 11
-456.936203800414
 21
112.481523179968
  0
LINE
  5
208
100
AcDbEntity
  8
1
  6
DOT_CENTER
 62
           3
100
AcDbLine
 10
-448.136203800414
 20
121.281523179968
 11
-448.136203800414
 21
103.681523179968
  0
LINE
  5
207
100
AcDbEntity
  8
1
  6
DOT_CENTER
 62
           3
100
AcDbLine
 10
-521.636203800414
 20
212.481523179968
 11
-174.636203800414
 21
212.481523179968
  0
LINE
  5
206
100
AcDbEntity
  8
1
  6
CONTINUOUS
 62
           2
100
AcDbLine
 10
-515.136203800414
 20
-450.232395104566
 11
-515.136203800414
 21
-205.232395104566
  0
LINE
  5
205
100
AcDbEntity
  8
1
  6
CONTINUOUS
 62
           2
100
AcDbLine
 10
-515.136203800414
 20
-450.232395104566
 11
-498.136203800414
 21
-450.232395104566
  0
LINE
  5
204
100
AcDbEntity
  8
1
  6
CONTINUOUS
 62
           2
100
AcDbLine
 10
-515.136203800414
 20
-205.232395104566
 11
-498.136203800414
 21
-205.232395104566
  0
LINE
  5
203
100
AcDbEntity
  8
1
  6
CONTINUOUS
 62
           2
100
AcDbLine
 10
-181.136203800414
 20
-205.232395104566
 11
-181.136203800414
 21
-450.232395104566
  0
LINE
  5
202
100
AcDbEntity
  8
1
  6
CONTINUOUS
 62
           2
100
AcDbLine
 10
-198.136203800414
 20
-450.232395104566
 11
-181.136203800414
 21
-450.232395104566
  0
LINE
  5
201
100
AcDbEntity
  8
1
  6
CONTINUOUS
 62
           2
100
AcDbLine
 10
-198.136203800414
 20
-205.232395104566
 11
-181.136203800414
 21
-205.232395104566
  0
LINE
  5
200
100
AcDbEntity
  8
1
  6
CONTINUOUS
 62
           2
100
AcDbLine
 10
-470.636203800414
 20
-477.732395104566
 11
-225.636203800414
 21
-477.732395104566
  0
LINE
  5
1FF
100
AcDbEntity
  8
1
  6
CONTINUOUS
 62
           2
100
AcDbLine
 10
-448.136203800414
 20
-477.732395104566
 11
-448.136203800414
 21
-482.732395104566
  0
LINE
  5
1FE
100
AcDbEntity
  8
1
  6
CONTINUOUS
 62
           2
100
AcDbLine
 10
-448.136203800414
 20
-482.732395104566
 11
-435.625056512121
 21
-482.732395104566
  0
LINE
  5
1FD
100
AcDbEntity
  8
1
  6
CONTINUOUS
 62
           2
100
AcDbLine
 10
-248.136203800414
 20
-482.732395104566
 11
-248.136203800414
 21
-477.732395104566
  0
LINE
  5
1FC
100
AcDbEntity
  8
1
  6
CONTINUOUS
 62
           2
100
AcDbLine
 10
-290.636203800414
 20
-564.732395104566
 11
-405.636203800414
 21
-564.732395104566
  0
LINE
  5
1FB
100
AcDbEntity
  8
1
  6
CONTINUOUS
 62
           2
100
AcDbLine
 10
-405.636203800414
 20
-564.732395104566
 11
-405.636203800414
 21
-482.732395104566
  0
LINE
  5
1FA
100
AcDbEntity
  8
1
  6
CONTINUOUS
 62
           2
100
AcDbLine
 10
-290.636203800414
 20
-564.732395104566
 11
-290.636203800414
 21
-482.732395104566
  0
LINE
  5
1F9
100
AcDbEntity
  8
1
  6
CONTINUOUS
 62
           2
100
AcDbLine
 10
-470.636203800414
 20
-477.732395104566
 11
-470.636203800414
 21
-457.732395104566
  0
LINE
  5
1F8
100
AcDbEntity
  8
1
  6
CONTINUOUS
 62
           2
100
AcDbLine
 10
-225.636203800414
 20
-477.732395104566
 11
-225.636203800414
 21
-457.732395104566
  0
LINE
  5
1F7
100
AcDbEntity
  8
1
  6
CONTINUOUS
 62
           2
100
AcDbLine
 10
-369.136203800414
 20
-567.732395104566
 11
-369.136203800414
 21
-637.732395104566
  0
LINE
  5
1F6
100
AcDbEntity
  8
1
  6
CONTINUOUS
 62
           2
100
AcDbLine
 10
-327.136203800414
 20
-637.732395104566
 11
-369.136203800414
 21
-637.732395104566
  0
LINE
  5
1F5
100
AcDbEntity
  8
1
  6
CONTINUOUS
 62
           2
100
AcDbLine
 10
-327.136203800414
 20
-567.732395104566
 11
-327.136203800414
 21
-637.732395104566
  0
LINE
  5
1F4
100
AcDbEntity
  8
1
  6
CONTINUOUS
 62
           2
100
AcDbLine
 10
-370.636203800414
 20
-564.732395104566
 11
-370.636203800414
 21
-567.732395104566
  0
LINE
  5
1F3
100
AcDbEntity
  8
1
  6
CONTINUOUS
 62
           2
100
AcDbLine
 10
-370.636203800414
 20
-567.732395104566
 11
-325.636203800414
 21
-567.732395104566
  0
LINE
  5
1F2
100
AcDbEntity
  8
1
  6
CONTINUOUS
 62
           2
100
AcDbLine
 10
-325.636203800414
 20
-564.732395104566
 11
-325.636203800414
 21
-567.732395104566
  0
LINE
  5
1F1
100
AcDbEntity
  8
1
  6
CONTINUOUS
 62
           2
100
AcDbLine
 10
-498.136203800414
 20
-457.732395104566
 11
-198.136203800414
 21
-457.732395104566
  0
LINE
  5
1F0
100
AcDbEntity
  8
1
  6
CONTINUOUS
 62
           2
100
AcDbLine
 10
-198.136203800414
 20
-457.732395104566
 11
-198.136203800414
 21
-197.732395104566
  0
LINE
  5
1EF
100
AcDbEntity
  8
1
  6
CONTINUOUS
 62
           2
100
AcDbLine
 10
-198.136203800414
 20
-197.732395104566
 11
-498.136203800414
 21
-197.732395104566
  0
LINE
  5
1EE
100
AcDbEntity
  8
1
  6
CONTINUOUS
 62
           2
100
AcDbLine
 10
-498.136203800414
 20
-197.732395104566
 11
-498.136203800414
 21
-457.732395104566
  0
LINE
  5
1ED
100
AcDbEntity
  8
1
  6
DOT_CENTER
 62
           3
100
AcDbLine
 10
-239.336203800414
 20
-227.732395104566
 11
-248.136203800414
 21
-227.732395104566
  0
LINE
  5
1EC
100
AcDbEntity
  8
1
  6
DOT_CENTER
 62
           3
100
AcDbLine
 10
-248.136203800414
 20
-218.932395104566
 11
-248.136203800414
 21
-227.732395104566
  0
LINE
  5
1EB
100
AcDbEntity
  8
1
  6
DOT_CENTER
 62
           3
100
AcDbLine
 10
-239.336203800414
 20
-427.732395104566
 11
-256.936203800414
 21
-427.732395104566
  0
LINE
  5
1EA
100
AcDbEntity
  8
1
  6
DOT_CENTER
 62
           3
100
AcDbLine
 10
-248.136203800414
 20
-418.932395104566
 11
-248.136203800414
 21
-436.532395104566
  0
LINE
  5
1E9
100
AcDbEntity
  8
1
  6
DOT_CENTER
 62
           3
100
AcDbLine
 10
-439.336203800414
 20
-227.732395104566
 11
-456.936203800414
 21
-227.732395104566
  0
LINE
  5
1E8
100
AcDbEntity
  8
1
  6
DOT_CENTER
 62
           3
100
AcDbLine
 10
-448.136203800414
 20
-218.932395104566
 11
-448.136203800414
 21
-236.532395104566
  0
LINE
  5
1E7
100
AcDbEntity
  8
1
  6
DOT_CENTER
 62
           3
100
AcDbLine
 10
-439.336203800414
 20
-427.732395104566
 11
-456.936203800414
 21
-427.732395104566
  0
LINE
  5
1E6
100
AcDbEntity
  8
1
  6
DOT_CENTER
 62
           3
100
AcDbLine
 10
-448.136203800414
 20
-418.932395104566
 11
-448.136203800414
 21
-436.532395104566
  0
LINE
  5
1E5
100
AcDbEntity
  8
1
  6
DOT_CENTER
 62
           3
100
AcDbLine
 10
-248.136203800414
 20
-227.732395104566
 11
-256.936203800414
 21
-227.732395104566
  0
LINE
  5
1E4
100
AcDbEntity
  8
1
  6
DOT_CENTER
 62
           3
100
AcDbLine
 10
-248.136203800414
 20
-227.732395104566
 11
-248.136203800414
 21
-236.532395104566
  0
LINE
  5
1E3
100
AcDbEntity
  8
1
  6
DOT_CENTER
 62
           3
100
AcDbLine
 10
-521.636203800414
 20
-327.732395104566
 11
-174.636203800414
 21
-327.732395104566
  0
LINE
  5
1E2
100
AcDbEntity
  8
1
  6
DOT_CENTER
 62
           3
100
AcDbLine
 10
-348.136203800414
 20
-650.363117048603
 11
-348.136203800414
 21
-552.9352561996
  0
LINE
  5
1E1
100
AcDbEntity
  8
1
  6
DOT_CENTER
 62
           3
100
AcDbLine
 10
-348.136203800414
 20
347.524807795104
 11
-348.136203800414
 21
80.21334920852
  0
LINE
  5
1E0
100
AcDbEntity
  8
1
  6
CONTINUOUS
 62
           2
100
AcDbLine
 10
602.525896656206
 20
89.981523179968
 11
602.525896656206
 21
334.981523179968
  0
LINE
  5
1DF
100
AcDbEntity
  8
1
  6
CONTINUOUS
 62
           2
100
AcDbLine
 10
602.525896656206
 20
112.481523179968
 11
607.525896656206
 21
112.481523179968
  0
LINE
  5
1DE
100
AcDbEntity
  8
1
  6
CONTINUOUS
 62
           2
100
AcDbLine
 10
607.525896656206
 20
312.481523179968
 11
602.525896656206
 21
312.481523179968
  0
LINE
  5
1DD
100
AcDbEntity
  8
1
  6
CONTINUOUS
 62
           2
100
AcDbLine
 10
689.525896656206
 20
269.981523179968
 11
689.525896656206
 21
154.981523179968
  0
LINE
  5
1DC
100
AcDbEntity
  8
1
  6
CONTINUOUS
 62
           2
100
AcDbLine
 10
607.525896656206
 20
312.481523179968
 11
607.525896656206
 21
299.970375891675
  0
LINE
  5
1DB
100
AcDbEntity
  8
1
  6
CONTINUOUS
 62
           2
100
AcDbLine
 10
602.525896656206
 20
89.981523179968
 11
582.525896656206
 21
89.981523179968
  0
LINE
  5
1DA
100
AcDbEntity
  8
1
  6
CONTINUOUS
 62
           2
100
AcDbLine
 10
602.525896656206
 20
334.981523179968
 11
582.525896656206
 21
334.981523179968
  0
LINE
  5
1D9
100
AcDbEntity
  8
1
  6
CONTINUOUS
 62
           2
100
AcDbLine
 10
689.525896656206
 20
269.981523179968
 11
607.525896656206
 21
269.981523179968
  0
LINE
  5
1D8
100
AcDbEntity
  8
1
  6
CONTINUOUS
 62
           2
100
AcDbLine
 10
689.525896656206
 20
154.981523179968
 11
607.525896656206
 21
154.981523179968
  0
LINE
  5
1D7
100
AcDbEntity
  8
1
  6
CONTINUOUS
 62
           2
100
AcDbLine
 10
695.525896656206
 20
233.481523179968
 11
695.525896656206
 21
236.481523179968
  0
LINE
  5
1D6
100
AcDbEntity
  8
1
  6
CONTINUOUS
 62
           2
100
AcDbLine
 10
695.525896656206
 20
236.481523179968
 11
758.525896656206
 21
236.481523179968
  0
LINE
  5
1D5
100
AcDbEntity
  8
1
  6
CONTINUOUS
 62
           2
100
AcDbLine
 10
758.525896656206
 20
236.481523179968
 11
758.525896656206
 21
233.481523179968
  0
LINE
  5
1D4
100
AcDbEntity
  8
1
  6
CONTINUOUS
 62
           2
100
AcDbLine
 10
692.525896656206
 20
212.481523179968
 11
692.525896656206
 21
234.981523179968
  0
LINE
  5
1D3
100
AcDbEntity
  8
1
  6
CONTINUOUS
 62
           2
100
AcDbLine
 10
689.525896656206
 20
234.981523179968
 11
692.525896656206
 21
234.981523179968
  0
LINE
  5
1D2
100
AcDbEntity
  8
1
  6
CONTINUOUS
 62
           2
100
AcDbLine
 10
692.525896656206
 20
212.481523179968
 11
692.525896656206
 21
189.981523179968
  0
LINE
  5
1D1
100
AcDbEntity
  8
1
  6
CONTINUOUS
 62
           2
100
AcDbLine
 10
689.525896656206
 20
189.981523179968
 11
692.525896656206
 21
189.981523179968
  0
LINE
  5
1D0
100
AcDbEntity
  8
1
  6
CONTINUOUS
 62
           2
100
AcDbLine
 10
692.525896656206
 20
233.481523179968
 11
762.525896656206
 21
233.481523179968
  0
LINE
  5
1CF
100
AcDbEntity
  8
1
  6
CONTINUOUS
 62
           2
100
AcDbLine
 10
762.525896656206
 20
212.481523179968
 11
762.525896656206
 21
233.481523179968
  0
LINE
  5
1CE
100
AcDbEntity
  8
1
  6
CONTINUOUS
 62
           2
100
AcDbLine
 10
762.525896656206
 20
212.481523179968
 11
762.525896656206
 21
191.481523179968
  0
LINE
  5
1CD
100
AcDbEntity
  8
1
  6
CONTINUOUS
 62
           2
100
AcDbLine
 10
692.525896656206
 20
191.481523179968
 11
762.525896656206
 21
191.481523179968
  0
LINE
  5
1CC
100
AcDbEntity
  8
1
  6
CONTINUOUS
 62
           2
100
AcDbLine
 10
322.525896656206
 20
82.481523179968
 11
582.525896656206
 21
82.481523179968
  0
LINE
  5
1CB
100
AcDbEntity
  8
1
  6
CONTINUOUS
 62
           2
100
AcDbLine
 10
582.525896656206
 20
82.481523179968
 11
582.525896656206
 21
342.481523179968
  0
LINE
  5
1CA
100
AcDbEntity
  8
1
  6
CONTINUOUS
 62
           2
100
AcDbLine
 10
582.525896656206
 20
342.481523179968
 11
322.525896656206
 21
342.481523179968
  0
LINE
  5
1C9
100
AcDbEntity
  8
1
  6
CONTINUOUS
 62
           2
100
AcDbLine
 10
322.525896656206
 20
342.481523179968
 11
322.525896656206
 21
82.481523179968
  0
LINE
  5
1C8
100
AcDbEntity
  8
1
  6
DOT_CENTER
 62
           3
100
AcDbLine
 10
561.325896656206
 20
312.481523179968
 11
543.725896656206
 21
312.481523179968
  0
LINE
  5
1C7
100
AcDbEntity
  8
1
  6
DOT_CENTER
 62
           3
100
AcDbLine
 10
552.525896656206
 20
321.281523179968
 11
552.525896656206
 21
303.681523179968
  0
LINE
  5
1C6
100
AcDbEntity
  8
1
  6
DOT_CENTER
 62
           3
100
AcDbLine
 10
361.325896656206
 20
312.481523179968
 11
343.725896656206
 21
312.481523179968
  0
LINE
  5
1C5
100
AcDbEntity
  8
1
  6
DOT_CENTER
 62
           3
100
AcDbLine
 10
352.525896656206
 20
321.281523179968
 11
352.525896656206
 21
303.681523179968
  0
LINE
  5
1C4
100
AcDbEntity
  8
1
  6
DOT_CENTER
 62
           3
100
AcDbLine
 10
361.325896656206
 20
112.481523179968
 11
343.725896656206
 21
112.481523179968
  0
LINE
  5
1C3
100
AcDbEntity
  8
1
  6
DOT_CENTER
 62
           3
100
AcDbLine
 10
352.525896656206
 20
121.281523179968
 11
352.525896656206
 21
103.681523179968
  0
LINE
  5
1C2
100
AcDbEntity
  8
1
  6
DOT_CENTER
 62
           3
100
AcDbLine
 10
561.325896656206
 20
112.481523179968
 11
543.725896656206
 21
112.481523179968
  0
LINE
  5
1C1
100
AcDbEntity
  8
1
  6
DOT_CENTER
 62
           3
100
AcDbLine
 10
552.525896656206
 20
121.281523179968
 11
552.525896656206
 21
103.681523179968
  0
LINE
  5
1C0
100
AcDbEntity
  8
1
  6
DOT_CENTER
 62
           3
100
AcDbLine
 10
452.525896656206
 20
75.036604671164
 11
452.525896656206
 21
349.928641414561
  0
LINE
  5
1BF
100
AcDbEntity
  8
1
  6
DOT_CENTER
 62
           3
100
AcDbLine
 10
765.955877099627
 20
212.481523179968
 11
319.305428268401
 21
212.481523179968
  0
LINE
  5
1BE
100
AcDbEntity
  8
1
  6
DASHED
 62
           3
100
AcDbLine
 10
-278.136203800414
 20
-295.932395104566
 11
-178.136203800414
 21
-295.932395104566
  0
LINE
  5
1BD
100
AcDbEntity
  8
1
  6
DASHED
 62
           3
100
AcDbLine
 10
-518.136203800414
 20
-295.932395104566
 11
-418.136203800414
 21
-295.932395104566
  0
LINE
  5
1BC
100
AcDbEntity
  8
1
  6
DASHED
 62
           3
100
AcDbLine
 10
-418.136203800414
 20
-293.732395104566
 11
-418.136203800414
 21
-361.732395104566
  0
LINE
  5
1BB
100
AcDbEntity
  8
1
  6
DASHED
 62
           3
100
AcDbLine
 10
-278.136203800414
 20
-293.732395104566
 11
-278.136203800414
 21
-361.732395104566
  0
LINE
  5
1BA
100
AcDbEntity
  8
1
  6
DASHED
 62
           3
100
AcDbLine
 10
-418.136203800414
 20
-355.232395104566
 11
-518.136203800414
 21
-355.232395104566
  0
LINE
  5
1B9
100
AcDbEntity
  8
1
  6
DASHED
 62
           3
100
AcDbLine
 10
-278.136203800414
 20
-361.732395104566
 11
-418.136203800414
 21
-361.732395104566
  0
LINE
  5
1B8
100
AcDbEntity
  8
1
  6
DASHED
 62
           3
100
AcDbLine
 10
-178.136203800414
 20
-355.232395104566
 11
-278.136203800414
 21
-355.232395104566
  0
LINE
  5
1B7
100
AcDbEntity
  8
1
  6
DASHED
 62
           3
100
AcDbLine
 10
-278.136203800414
 20
-300.232395104566
 11
-178.136203800414
 21
-300.232395104566
  0
LINE
  5
1B6
100
AcDbEntity
  8
1
  6
DASHED
 62
           3
100
AcDbLine
 10
-418.136203800414
 20
-293.732395104566
 11
-278.136203800414
 21
-293.732395104566
  0
LINE
  5
1B5
100
AcDbEntity
  8
1
  6
DASHED
 62
           3
100
AcDbLine
 10
-518.136203800414
 20
-300.232395104566
 11
-418.136203800414
 21
-300.232395104566
  0
LINE
  5
1B4
100
AcDbEntity
  8
1
  6
CONTINUOUS
 62
           2
100
AcDbLine
 10
-178.136203800414
 20
-292.732395104566
 11
-178.136203800414
 21
-327.732395104566
  0
LINE
  5
1B3
100
AcDbEntity
  8
1
  6
CONTINUOUS
 62
           2
100
AcDbLine
 10
-178.136203800414
 20
-292.732395104566
 11
-181.136203800414
 21
-292.732395104566
  0
LINE
  5
1B2
100
AcDbEntity
  8
1
  6
CONTINUOUS
 62
           2
100
AcDbLine
 10
-178.136203800414
 20
-362.732395104566
 11
-178.136203800414
 21
-327.732395104566
  0
LINE
  5
1B1
100
AcDbEntity
  8
1
  6
CONTINUOUS
 62
           2
100
AcDbLine
 10
-178.136203800414
 20
-362.732395104566
 11
-181.136203800414
 21
-362.732395104566
  0
LINE
  5
1B0
100
AcDbEntity
  8
1
  6
CONTINUOUS
 62
           2
100
AcDbLine
 10
-518.136203800414
 20
-327.732395104566
 11
-518.136203800414
 21
-292.732395104566
  0
LINE
  5
1AF
100
AcDbEntity
  8
1
  6
CONTINUOUS
 62
           2
100
AcDbLine
 10
-515.136203800414
 20
-292.732395104566
 11
-518.136203800414
 21
-292.732395104566
  0
LINE
  5
1AE
100
AcDbEntity
  8
1
  6
CONTINUOUS
 62
           2
100
AcDbLine
 10
-518.136203800414
 20
-327.732395104566
 11
-518.136203800414
 21
-362.732395104566
  0
LINE
  5
1AD
100
AcDbEntity
  8
1
  6
CONTINUOUS
 62
           2
100
AcDbLine
 10
-515.136203800414
 20
-362.732395104566
 11
-518.136203800414
 21
-362.732395104566
  0
LINE
  5
1AC
100
AcDbEntity
  8
1
  6
CONTINUOUS
 62
           2
100
AcDbLine
 10
-178.136203800414
 20
247.481523179968
 11
-178.136203800414
 21
177.481523179968
  0
LINE
  5
1AB
100
AcDbEntity
  8
1
  6
CONTINUOUS
 62
           2
100
AcDbLine
 10
-178.136203800414
 20
247.481523179968
 11
-181.136203800414
 21
247.481523179968
  0
LINE
  5
1AA
100
AcDbEntity
  8
1
  6
CONTINUOUS
 62
           2
100
AcDbLine
 10
-178.136203800414
 20
177.481523179968
 11
-181.136203800414
 21
177.481523179968
  0
LINE
  5
1A9
100
AcDbEntity
  8
1
  6
CONTINUOUS
 62
           2
100
AcDbLine
 10
-518.136203800414
 20
177.481523179968
 11
-518.136203800414
 21
247.481523179968
  0
LINE
  5
1A8
100
AcDbEntity
  8
1
  6
CONTINUOUS
 62
           2
100
AcDbLine
 10
-515.136203800414
 20
247.481523179968
 11
-518.136203800414
 21
247.481523179968
  0
LINE
  5
1A7
100
AcDbEntity
  8
1
  6
CONTINUOUS
 62
           2
100
AcDbLine
 10
-515.136203800414
 20
177.481523179968
 11
-518.136203800414
 21
177.481523179968
  0
LINE
  5
1A6
100
AcDbEntity
  8
1
  6
CONTINUOUS
 62
           2
100
AcDbLine
 10
420.725896656206
 20
204.481523179968
 11
426.21525242236
 21
204.481523179968
  0
LINE
  5
1A5
100
AcDbEntity
  8
1
  6
CONTINUOUS
 62
           2
100
AcDbLine
 10
420.725896656206
 20
220.481523179968
 11
420.725896656206
 21
204.481523179968
  0
LINE
  5
1A4
100
AcDbEntity
  8
1
  6
CONTINUOUS
 62
           2
100
AcDbLine
 10
426.21525242236
 20
220.481523179968
 11
420.725896656206
 21
220.481523179968
  0
LINE
  5
1A3
100
AcDbEntity
  8
1
  6
CONTINUOUS
 62
           2
100
AcDbLine
 10
-275.636203800414
 20
-489.732395104566
 11
-277.447351088707
 21
-489.732395104566
  0
LINE
  5
1A2
100
AcDbEntity
  8
1
  6
CONTINUOUS
 62
           2
100
AcDbLine
 10
-420.636203800414
 20
-489.732395104566
 11
-434.425056512121
 21
-489.732395104566
  0
LINE
  5
1A1
100
AcDbEntity
  8
1
  6
CONTINUOUS
 62
           2
100
AcDbLine
 10
614.525896656206
 20
284.981523179968
 11
614.525896656206
 21
283.170375891675
  0
LINE
  5
1A0
100
AcDbEntity
  8
1
  6
CONTINUOUS
 62
           2
100
AcDbLine
 10
614.525896656206
 20
139.981523179968
 11
614.525896656206
 21
126.192670468261
  0
LINE
  5
19F
100
AcDbEntity
  8
1
  6
CONTINUOUS
 62
           3
100
AcDbLine
 10
-402.98447937343
 20
-239.732395104567
 11
-384.98447937343
 21
-270.909309640806
  0
LINE
  5
19E
100
AcDbEntity
  8
1
  6
CONTINUOUS
 62
           3
100
AcDbLine
 10
-402.98447937343
 20
-239.732395104567
 11
-402.98447937343
 21
-415.732395104566
  0
LINE
  5
19D
100
AcDbEntity
  8
1
  6
CONTINUOUS
 62
           3
100
AcDbLine
 10
-384.98447937343
 20
-270.909309640806
 11
-384.98447937343
 21
-384.555480568326
  0
LINE
  5
19C
100
AcDbEntity
  8
1
  6
CONTINUOUS
 62
           3
100
AcDbLine
 10
-384.98447937343
 20
-384.555480568326
 11
-402.98447937343
 21
-415.732395104566
  0
LINE
  5
19B
100
AcDbEntity
  8
1
  6
CONTINUOUS
 62
           3
100
AcDbLine
 10
-398.943027489102
 20
-422.732395104566
 11
-388.550722643689
 21
-404.732395104566
  0
LINE
  5
19A
100
AcDbEntity
  8
1
  6
CONTINUOUS
 62
           3
100
AcDbLine
 10
-388.550722643689
 20
-404.732395104566
 11
-307.721684957141
 21
-404.732395104566
  0
LINE
  5
199
100
AcDbEntity
  8
1
  6
CONTINUOUS
 62
           3
100
AcDbLine
 10
-307.721684957141
 20
-404.732395104566
 11
-297.329380111728
 21
-422.732395104566
  0
LINE
  5
198
100
AcDbEntity
  8
1
  6
CONTINUOUS
 62
           3
100
AcDbLine
 10
-297.329380111728
 20
-422.732395104566
 11
-398.943027489102
 21
-422.732395104566
  0
ENDBLK
  5
28B
100
AcDbEntity
  8
0
100
AcDbBlockEnd
  0
BLOCK
  5
297
100
AcDbEntity
  8
0
100
AcDbBlockBegin
  2
*D2
 70
           1
 10
0.0
 20
0.0
 30
0.0
  3
*D2
  1

  0
LINE
  5
298
100
AcDbEntity
  8
0
  6
CONTINUOUS
 62
           3
100
AcDbLine
 10
-134.703602963276
 20
-300.232395104566
 11
-134.703602963276
 21
-233.242292802247
  0
LINE
  5
299
100
AcDbEntity
  8
0
  6
CONTINUOUS
 62
           3
100
AcDbLine
 10
-134.703602963276
 20
-355.232395104566
 11
-134.703602963276
 21
-300.232395104566
  0
LINE
  5
29A
100
AcDbEntity
  8
0
  6
CONTINUOUS
 62
           3
100
AcDbLine
 10
-178.136203800414
 20
-300.232395104566
 11
-124.703602963276
 21
-300.232395104566
  0
LINE
  5
29B
100
AcDbEntity
  8
0
  6
CONTINUOUS
 62
           3
100
AcDbLine
 10
-178.136203800414
 20
-355.232395104566
 11
-124.703602963276
 21
-355.232395104566
  0
LINE
  5
29C
100
AcDbEntity
  8
0
 62
           3
100
AcDbLine
 10
-134.703602963276
 20
-355.232395104566
 11
-136.678390427087
 21
-340.232395104566
  0
LINE
  5
29D
100
AcDbEntity
  8
0
 62
           3
100
AcDbLine
 10
-134.703602963276
 20
-355.232395104566
 11
-132.728815499465
 21
-340.232395104566
  0
LINE
  5
29E
100
AcDbEntity
  8
0
 62
           3
100
AcDbLine
 10
-136.678390427087
 20
-340.232395104566
 11
-132.728815499465
 21
-340.232395104566
  0
LINE
  5
29F
100
AcDbEntity
  8
0
 62
           3
100
AcDbLine
 10
-134.703602963276
 20
-300.232395104566
 11
-132.728815499465
 21
-315.232395104566
  0
LINE
  5
2A0
100
AcDbEntity
  8
0
 62
           3
100
AcDbLine
 10
-134.703602963276
 20
-300.232395104566
 11
-136.678390427087
 21
-315.232395104566
  0
LINE
  5
2A1
100
AcDbEntity
  8
0
 62
           3
100
AcDbLine
 10
-132.728815499465
 20
-315.232395104566
 11
-136.678390427087
 21
-315.232395104566
  0
MTEXT
  5
2A2
100
AcDbEntity
  8
0
 62
           2
100
AcDbMText
 10
-148.453602963276
 20
-289.942292802247
 30
0.0
 40
15.0
 41
0.0
 71
           7
 72
           1
  1
\C2;Ø\C2;\C2;55\C3;\H9.000000;\SH7^ ;
  7
CONVERTER_2
 11
0.0
 21
1.0
 31
0.0
  0
ENDBLK
  5
2A3
100
AcDbEntity
  8
0
100
AcDbBlockEnd
  0
BLOCK
  5
2A9
100
AcDbEntity
  8
0
100
AcDbBlockBegin
  2
*D5
 70
           1
 10
0.0
 20
0.0
 30
0.0
  3
*D5
  1

  0
LINE
  5
2AA
100
AcDbEntity
  8
0
  6
CONTINUOUS
 62
           3
100
AcDbLine
 10
-543.711811269429
 20
-300.232395104566
 11
-543.711811269429
 21
-221.165278777459
  0
LINE
  5
2AB
100
AcDbEntity
  8
0
  6
CONTINUOUS
 62
           3
100
AcDbLine
 10
-543.711811269429
 20
-355.232395104566
 11
-543.711811269429
 21
-300.232395104566
  0
LINE
  5
2AC
100
AcDbEntity
  8
0
  6
CONTINUOUS
 62
           3
100
AcDbLine
 10
-518.136203800414
 20
-300.232395104566
 11
-553.711811269429
 21
-300.232395104566
  0
LINE
  5
2AD
100
AcDbEntity
  8
0
  6
CONTINUOUS
 62
           3
100
AcDbLine
 10
-518.136203800414
 20
-355.232395104566
 11
-553.711811269429
 21
-355.232395104566
  0
LINE
  5
2AE
100
AcDbEntity
  8
0
 62
           3
100
AcDbLine
 10
-543.711811269429
 20
-355.232395104566
 11
-545.68659873324
 21
-340.232395104566
  0
LINE
  5
2AF
100
AcDbEntity
  8
0
 62
           3
100
AcDbLine
 10
-543.711811269429
 20
-355.232395104566
 11
-541.737023805618
 21
-340.232395104566
  0
LINE
  5
2B0
100
AcDbEntity
  8
0
 62
           3
100
AcDbLine
 10
-545.68659873324
 20
-340.232395104566
 11
-541.737023805618
 21
-340.232395104566
  0
LINE
  5
2B1
100
AcDbEntity
  8
0
 62
           3
100
AcDbLine
 10
-543.711811269429
 20
-300.232395104566
 11
-541.737023805618
 21
-315.232395104566
  0
LINE
  5
2B2
100
AcDbEntity
  8
0
 62
           3
100
AcDbLine
 10
-543.711811269429
 20
-300.232395104566
 11
-545.68659873324
 21
-315.232395104566
  0
LINE
  5
2B3
100
AcDbEntity
  8
0
 62
           3
100
AcDbLine
 10
-541.737023805618
 20
-315.232395104566
 11
-545.68659873324
 21
-315.232395104566
  0
MTEXT
  5
2B4
100
AcDbEntity
  8
0
 62
           2
100
AcDbMText
 10
-557.461811269429
 20
-277.865278777459
 30
0.0
 40
15.0
 41
0.0
 71
           7
 72
           1
  1
\C2;Ø\C2;\C2;55\C3;\H9.000000;\SH7^ ;
  7
CONVERTER_2
 11
0.0
 21
1.0
 31
0.0
  0
ENDBLK
  5
2B5
100
AcDbEntity
  8
0
100
AcDbBlockEnd
  0
BLOCK
  5
2BB
100
AcDbEntity
  8
0
100
AcDbBlockBegin
  2
*D8
 70
           1
 10
0.0
 20
0.0
 30
0.0
  3
*D8
  1

  0
LINE
  5
2BC
100
AcDbEntity
  8
0
  6
CONTINUOUS
 62
           3
100
AcDbLine
 10
-518.136203800414
 20
-43.622549379764
 11
-348.136203800414
 21
-43.622549379764
  0
LINE
  5
2BD
100
AcDbEntity
  8
0
  6
CONTINUOUS
 62
           3
100
AcDbLine
 10
-518.136203800414
 20
-292.732395104566
 11
-518.136203800414
 21
-137.227592978081
  0
LINE
  5
2BE
100
AcDbEntity
  8
0
  6
CONTINUOUS
 62
           3
100
AcDbLine
 10
-348.136203800414
 20
-196.084941890854
 11
-348.136203800414
 21
-185.24939760764
  0
LINE
  5
2BF
100
AcDbEntity
  8
0
  6
CONTINUOUS
 62
           3
100
AcDbLine
 10
-518.136203800414
 20
-123.112473916931
 11
-518.136203800414
 21
-33.622549379764
  0
LINE
  5
2C0
100
AcDbEntity
  8
0
  6
CONTINUOUS
 62
           3
100
AcDbLine
 10
-348.136203800414
 20
-93.983866280954
 11
-348.136203800414
 21
-33.622549379764
  0
LINE
  5
2C1
100
AcDbEntity
  8
0
 62
           3
100
AcDbLine
 10
-348.136203800414
 20
-43.622549379764
 11
-363.136203800414
 21
-45.597336843575
  0
LINE
  5
2C2
100
AcDbEntity
  8
0
 62
           3
100
AcDbLine
 10
-348.136203800414
 20
-43.622549379764
 11
-363.136203800414
 21
-41.647761915953
  0
LINE
  5
2C3
100
AcDbEntity
  8
0
 62
           3
100
AcDbLine
 10
-363.136203800414
 20
-45.597336843575
 11
-363.136203800414
 21
-41.647761915953
  0
LINE
  5
2C4
100
AcDbEntity
  8
0
 62
           3
100
AcDbLine
 10
-518.136203800414
 20
-43.622549379764
 11
-503.136203800414
 21
-41.647761915953
  0
LINE
  5
2C5
100
AcDbEntity
  8
0
 62
           3
100
AcDbLine
 10
-518.136203800414
 20
-43.622549379764
 11
-503.136203800414
 21
-45.597336843575
  0
LINE
  5
2C6
100
AcDbEntity
  8
0
 62
           3
100
AcDbLine
 10
-503.136203800414
 20
-41.647761915953
 11
-503.136203800414
 21
-45.597336843575
  0
TEXT
  5
2C7
100
AcDbEntity
  8
0
 62
           2
100
AcDbText
 10
-447.059522728442
 20
-33.622549379764
 40
15.0
  1
170
 41
0.9
  7
CONVERTER_2
100
AcDbText
  0
ENDBLK
  5
2C8
100
AcDbEntity
  8
0
100
AcDbBlockEnd
  0
BLOCK
  5
2CE
100
AcDbEntity
  8
0
100
AcDbBlockBegin
  2
*D11
 70
           1
 10
0.0
 20
0.0
 30
0.0
  3
*D11
  1

  0
LINE
  5
2CF
100
AcDbEntity
  8
0
  6
CONTINUOUS
 62
           3
100
AcDbLine
 10
-348.136203800414
 20
-43.622549379764
 11
-178.136203800414
 21
-43.622549379764
  0
LINE
  5
2D0
100
AcDbEntity
  8
0
  6
CONTINUOUS
 62
           3
100
AcDbLine
 10
-348.136203800414
 20
-196.084941890854
 11
-348.136203800414
 21
-185.24939760764
  0
LINE
  5
2D1
100
AcDbEntity
  8
0
  6
CONTINUOUS
 62
           3
100
AcDbLine
 10
-178.136203800414
 20
-292.732395104566
 11
-178.136203800414
 21
-103.415439138407
  0
LINE
  5
2D2
100
AcDbEntity
  8
0
  6
CONTINUOUS
 62
           3
100
AcDbLine
 10
-348.136203800414
 20
-93.983866280954
 11
-348.136203800414
 21
-33.622549379764
  0
LINE
  5
2D3
100
AcDbEntity
  8
0
  6
CONTINUOUS
 62
           3
100
AcDbLine
 10
-178.136203800414
 20
-63.963859990767
 11
-178.136203800414
 21
-33.622549379764
  0
LINE
  5
2D4
100
AcDbEntity
  8
0
 62
           3
100
AcDbLine
 10
-348.136203800414
 20
-43.622549379764
 11
-333.136203800414
 21
-41.647761915953
  0
LINE
  5
2D5
100
AcDbEntity
  8
0
 62
           3
100
AcDbLine
 10
-348.136203800414
 20
-43.622549379764
 11
-333.136203800414
 21
-45.597336843575
  0
LINE
  5
2D6
100
AcDbEntity
  8
0
 62
           3
100
AcDbLine
 10
-333.136203800414
 20
-41.647761915953
 11
-333.136203800414
 21
-45.597336843575
  0
LINE
  5
2D7
100
AcDbEntity
  8
0
 62
           3
100
AcDbLine
 10
-178.136203800414
 20
-43.622549379764
 11
-193.136203800414
 21
-45.597336843575
  0
LINE
  5
2D8
100
AcDbEntity
  8
0
 62
           3
100
AcDbLine
 10
-178.136203800414
 20
-43.622549379764
 11
-193.136203800414
 21
-41.647761915953
  0
LINE
  5
2D9
100
AcDbEntity
  8
0
 62
           3
100
AcDbLine
 10
-193.136203800414
 20
-45.597336843575
 11
-193.136203800414
 21
-41.647761915953
  0
TEXT
  5
2DA
100
AcDbEntity
  8
0
 62
           2
100
AcDbText
 10
-278.78646064973
 20
-33.622549379764
 40
15.0
  1
170
 41
0.9
  7
CONVERTER_2
100
AcDbText
  0
ENDBLK
  5
2DB
100
AcDbEntity
  8
0
100
AcDbBlockEnd
  0
BLOCK
  5
2E1
100
AcDbEntity
  8
0
100
AcDbBlockBegin
  2
*D14
 70
           1
 10
0.0
 20
0.0
 30
0.0
  3
*D14
  1

  0
LINE
  5
2E2
100
AcDbEntity
  8
0
  6
CONTINUOUS
 62
           3
100
AcDbLine
 10
-278.136203800414
 20
-400.458057098833
 11
-178.136203800414
 21
-400.458057098833
  0
LINE
  5
2E3
100
AcDbEntity
  8
0
  6
CONTINUOUS
 62
           3
100
AcDbLine
 10
-178.136203800414
 20
-362.732395104566
 11
-178.136203800414
 21
-410.458057098833
  0
LINE
  5
2E4
100
AcDbEntity
  8
0
  6
CONTINUOUS
 62
           3
100
AcDbLine
 10
-278.136203800414
 20
-361.732395104566
 11
-278.136203800414
 21
-410.458057098833
  0
LINE
  5
2E5
100
AcDbEntity
  8
0
 62
           3
100
AcDbLine
 10
-178.136203800414
 20
-400.458057098833
 11
-193.136203800414
 21
-402.432844562644
  0
LINE
  5
2E6
100
AcDbEntity
  8
0
 62
           3
100
AcDbLine
 10
-178.136203800414
 20
-400.458057098833
 11
-193.136203800414
 21
-398.483269635022
  0
LINE
  5
2E7
100
AcDbEntity
  8
0
 62
           3
100
AcDbLine
 10
-193.136203800414
 20
-402.432844562644
 11
-193.136203800414
 21
-398.483269635022
  0
LINE
  5
2E8
100
AcDbEntity
  8
0
 62
           3
100
AcDbLine
 10
-278.136203800414
 20
-400.458057098833
 11
-263.136203800414
 21
-398.483269635022
  0
LINE
  5
2E9
100
AcDbEntity
  8
0
 62
           3
100
AcDbLine
 10
-278.136203800414
 20
-400.458057098833
 11
-263.136203800414
 21
-402.432844562644
  0
LINE
  5
2EA
100
AcDbEntity
  8
0
 62
           3
100
AcDbLine
 10
-263.136203800414
 20
-398.483269635022
 11
-263.136203800414
 21
-402.432844562644
  0
TEXT
  5
2EB
100
AcDbEntity
  8
0
 62
           2
100
AcDbText
 10
-249.077006148751
 20
-390.458057098833
 40
15.0
  1
100
 41
0.9
  7
CONVERTER_2
100
AcDbText
  0
ENDBLK
  5
2EC
100
AcDbEntity
  8
0
100
AcDbBlockEnd
  0
BLOCK
  5
2F2
100
AcDbEntity
  8
0
100
AcDbBlockBegin
  2
*D17
 70
           1
 10
0.0
 20
0.0
 30
0.0
  3
*D17
  1

  0
LINE
  5
2F3
100
AcDbEntity
  8
0
  6
CONTINUOUS
 62
           3
100
AcDbLine
 10
12.360860778842
 20
-637.732395104566
 11
12.360860778842
 21
-567.732395104566
  0
LINE
  5
2F4
100
AcDbEntity
  8
0
  6
CONTINUOUS
 62
           3
100
AcDbLine
 10
-327.136203800414
 20
-637.732395104566
 11
22.360860778842
 21
-637.732395104566
  0
LINE
  5
2F5
100
AcDbEntity
  8
0
  6
CONTINUOUS
 62
           3
100
AcDbLine
 10
-327.136203800414
 20
-567.732395104566
 11
22.360860778842
 21
-567.732395104566
  0
LINE
  5
2F6
100
AcDbEntity
  8
0
 62
           3
100
AcDbLine
 10
12.360860778842
 20
-637.732395104566
 11
10.386073315031
 21
-622.732395104566
  0
LINE
  5
2F7
100
AcDbEntity
  8
0
 62
           3
100
AcDbLine
 10
12.360860778842
 20
-637.732395104566
 11
14.335648242653
 21
-622.732395104566
  0
LINE
  5
2F8
100
AcDbEntity
  8
0
 62
           3
100
AcDbLine
 10
10.386073315031
 20
-622.732395104566
 11
14.335648242653
 21
-622.732395104566
  0
LINE
  5
2F9
100
AcDbEntity
  8
0
 62
           3
100
AcDbLine
 10
12.360860778842
 20
-567.732395104566
 11
14.335648242653
 21
-582.732395104566
  0
LINE
  5
2FA
100
AcDbEntity
  8
0
 62
           3
100
AcDbLine
 10
12.360860778842
 20
-567.732395104566
 11
10.386073315031
 21
-582.732395104566
  0
LINE
  5
2FB
100
AcDbEntity
  8
0
 62
           3
100
AcDbLine
 10
14.335648242653
 20
-582.732395104566
 11
10.386073315031
 21
-582.732395104566
  0
MTEXT
  5
2FC
100
AcDbEntity
  8
0
 62
           2
100
AcDbMText
 10
2.360860778842
 20
-613.117657011858
 30
0.0
 40
15.0
 41
0.0
 71
           7
 72
           1
  1
70
  7
CONVERTER_2
 11
0.0
 21
1.0
 31
0.0
  0
ENDBLK
  5
2FD
100
AcDbEntity
  8
0
100
AcDbBlockEnd
  0
BLOCK
  5
303
100
AcDbEntity
  8
0
100
AcDbBlockBegin
  2
*D20
 70
           1
 10
0.0
 20
0.0
 30
0.0
  3
*D20
  1

  0
LINE
  5
304
100
AcDbEntity
  8
0
  6
CONTINUOUS
 62
           3
100
AcDbLine
 10
12.360860778842
 20
-564.732395104566
 11
12.360860778842
 21
-327.732395104566
  0
LINE
  5
305
100
AcDbEntity
  8
0
  6
CONTINUOUS
 62
           3
100
AcDbLine
 10
-290.636203800414
 20
-564.732395104566
 11
22.360860778842
 21
-564.732395104566
  0
LINE
  5
306
100
AcDbEntity
  8
0
  6
CONTINUOUS
 62
           3
100
AcDbLine
 10
-174.636203800414
 20
-327.732395104566
 11
-154.556458203546
 21
-327.732395104566
  0
LINE
  5
307
100
AcDbEntity
  8
0
  6
CONTINUOUS
 62
           3
100
AcDbLine
 10
-13.719545037541
 20
-327.732395104566
 11
22.360860778842
 21
-327.732395104566
  0
LINE
  5
308
100
AcDbEntity
  8
0
 62
           3
100
AcDbLine
 10
12.360860778842
 20
-327.732395104566
 11
14.335648242653
 21
-342.732395104566
  0
LINE
  5
309
100
AcDbEntity
  8
0
 62
           3
100
AcDbLine
 10
12.360860778842
 20
-327.732395104566
 11
10.386073315031
 21
-342.732395104566
  0
LINE
  5
30A
100
AcDbEntity
  8
0
 62
           3
100
AcDbLine
 10
14.335648242653
 20
-342.732395104566
 11
10.386073315031
 21
-342.732395104566
  0
LINE
  5
30B
100
AcDbEntity
  8
0
 62
           3
100
AcDbLine
 10
12.360860778842
 20
-564.732395104566
 11
10.386073315031
 21
-549.732395104566
  0
LINE
  5
30C
100
AcDbEntity
  8
0
 62
           3
100
AcDbLine
 10
12.360860778842
 20
-564.732395104566
 11
14.335648242653
 21
-549.732395104566
  0
LINE
  5
30D
100
AcDbEntity
  8
0
 62
           3
100
AcDbLine
 10
10.386073315031
 20
-549.732395104566
 11
14.335648242653
 21
-549.732395104566
  0
MTEXT
  5
30E
100
AcDbEntity
  8
0
 62
           2
100
AcDbMText
 10
2.360860778842
 20
-444.545630484352
 30
0.0
 40
15.0
 41
0.0
 71
           7
 72
           1
  1
237
  7
CONVERTER_2
 11
0.0
 21
1.0
 31
0.0
  0
ENDBLK
  5
30F
100
AcDbEntity
  8
0
100
AcDbBlockEnd
  0
BLOCK
  5
315
100
AcDbEntity
  8
0
100
AcDbBlockBegin
  2
*D23
 70
           1
 10
0.0
 20
0.0
 30
0.0
  3
*D23
  1

  0
LINE
  5
316
100
AcDbEntity
  8
0
  6
CONTINUOUS
 62
           3
100
AcDbLine
 10
57.733659213284
 20
-637.732395104566
 11
57.733659213284
 21
-327.732395104566
  0
LINE
  5
317
100
AcDbEntity
  8
0
  6
CONTINUOUS
 62
           3
100
AcDbLine
 10
-327.136203800414
 20
-637.732395104566
 11
67.733659213284
 21
-637.732395104566
  0
LINE
  5
318
100
AcDbEntity
  8
0
  6
CONTINUOUS
 62
           3
100
AcDbLine
 10
-16.872985811768
 20
-327.732395104566
 11
67.733659213284
 21
-327.732395104566
  0
LINE
  5
319
100
AcDbEntity
  8
0
  6
CONTINUOUS
 62
           3
100
AcDbLine
 10
-174.636203800414
 20
-327.732395104566
 11
-154.556458203546
 21
-327.732395104566
  0
LINE
  5
31A
100
AcDbEntity
  8
0
 62
           3
100
AcDbLine
 10
57.733659213284
 20
-327.732395104566
 11
59.708446677095
 21
-342.732395104566
  0
LINE
  5
31B
100
AcDbEntity
  8
0
 62
           3
100
AcDbLine
 10
57.733659213284
 20
-327.732395104566
 11
55.758871749473
 21
-342.732395104566
  0
LINE
  5
31C
100
AcDbEntity
  8
0
 62
           3
100
AcDbLine
 10
59.708446677095
 20
-342.732395104566
 11
55.758871749473
 21
-342.732395104566
  0
LINE
  5
31D
100
AcDbEntity
  8
0
 62
           3
100
AcDbLine
 10
57.733659213284
 20
-637.732395104566
 11
55.758871749473
 21
-622.732395104566
  0
LINE
  5
31E
100
AcDbEntity
  8
0
 62
           3
100
AcDbLine
 10
57.733659213284
 20
-637.732395104566
 11
59.708446677095
 21
-622.732395104566
  0
LINE
  5
31F
100
AcDbEntity
  8
0
 62
           3
100
AcDbLine
 10
55.758871749473
 20
-622.732395104566
 11
59.708446677095
 21
-622.732395104566
  0
MTEXT
  5
320
100
AcDbEntity
  8
0
 62
           2
100
AcDbMText
 10
47.733659213284
 20
-496.34405400011
 30
0.0
 40
15.0
 41
0.0
 71
           7
 72
           1
  1
310
  7
CONVERTER_2
 11
0.0
 21
1.0
 31
0.0
  0
ENDBLK
  5
321
100
AcDbEntity
  8
0
100
AcDbBlockEnd
  0
BLOCK
  5
327
100
AcDbEntity
  8
0
100
AcDbBlockBegin
  2
*D26
 70
           1
 10
0.0
 20
0.0
 30
0.0
  3
*D26
  1

  0
LINE
  5
328
100
AcDbEntity
  8
0
  6
CONTINUOUS
 62
           3
100
AcDbLine
 10
-40.834833937401
 20
-427.732395104566
 11
-40.834833937401
 21
-457.732395104566
  0
LINE
  5
329
100
AcDbEntity
  8
0
  6
CONTINUOUS
 62
           3
100
AcDbLine
 10
-40.834833937401
 20
-477.732395104566
 11
-40.834833937401
 21
-457.732395104566
  0
LINE
  5
32A
100
AcDbEntity
  8
0
  6
CONTINUOUS
 62
           3
100
AcDbLine
 10
-40.834833937401
 20
-477.732395104566
 11
-40.834833937401
 21
-513.381301282351
  0
LINE
  5
32B
100
AcDbEntity
  8
0
  6
CONTINUOUS
 62
           3
100
AcDbLine
 10
-225.636203800414
 20
-477.732395104566
 11
-30.834833937401
 21
-477.732395104566
  0
LINE
  5
32C
100
AcDbEntity
  8
0
  6
CONTINUOUS
 62
           3
100
AcDbLine
 10
-198.136203800414
 20
-457.732395104566
 11
-30.834833937401
 21
-457.732395104566
  0
LINE
  5
32D
100
AcDbEntity
  8
0
 62
           3
100
AcDbLine
 10
-40.834833937401
 20
-457.732395104566
 11
-42.809621401212
 21
-442.732395104566
  0
LINE
  5
32E
100
AcDbEntity
  8
0
 62
           3
100
AcDbLine
 10
-40.834833937401
 20
-457.732395104566
 11
-38.86004647359
 21
-442.732395104566
  0
LINE
  5
32F
100
AcDbEntity
  8
0
 62
           3
100
AcDbLine
 10
-42.809621401212
 20
-442.732395104566
 11
-38.86004647359
 21
-442.732395104566
  0
LINE
  5
330
100
AcDbEntity
  8
0
 62
           3
100
AcDbLine
 10
-40.834833937401
 20
-477.732395104566
 11
-38.86004647359
 21
-492.732395104566
  0
LINE
  5
331
100
AcDbEntity
  8
0
 62
           3
100
AcDbLine
 10
-40.834833937401
 20
-477.732395104566
 11
-42.809621401212
 21
-492.732395104566
  0
LINE
  5
332
100
AcDbEntity
  8
0
 62
           3
100
AcDbLine
 10
-38.86004647359
 20
-492.732395104566
 11
-42.809621401212
 21
-492.732395104566
  0
MTEXT
  5
333
100
AcDbEntity
  8
0
 62
           2
100
AcDbMText
 10
-50.834833937401
 20
-513.381301282351
 30
0.0
 40
15.0
 41
0.0
 71
           7
 72
           1
  1
20
  7
CONVERTER_2
 11
0.0
 21
1.0
 31
0.0
  0
ENDBLK
  5
334
100
AcDbEntity
  8
0
100
AcDbBlockEnd
  0
BLOCK
  5
33A
100
AcDbEntity
  8
0
100
AcDbBlockBegin
  2
*D29
 70
           1
 10
0.0
 20
0.0
 30
0.0
  3
*D29
  1

  0
LINE
  5
33B
100
AcDbEntity
  8
0
  6
CONTINUOUS
 62
           3
100
AcDbLine
 10
-40.834833937401
 20
-457.732395104566
 11
-40.834833937401
 21
-197.732395104566
  0
LINE
  5
33C
100
AcDbEntity
  8
0
  6
CONTINUOUS
 62
           3
100
AcDbLine
 10
-198.136203800414
 20
-197.732395104566
 11
-30.834833937401
 21
-197.732395104566
  0
LINE
  5
33D
100
AcDbEntity
  8
0
  6
CONTINUOUS
 62
           3
100
AcDbLine
 10
-198.136203800414
 20
-457.732395104566
 11
-30.834833937401
 21
-457.732395104566
  0
LINE
  5
33E
100
AcDbEntity
  8
0
 62
           3
100
AcDbLine
 10
-40.834833937401
 20
-457.732395104566
 11
-42.809621401212
 21
-442.732395104566
  0
LINE
  5
33F
100
AcDbEntity
  8
0
 62
           3
100
AcDbLine
 10
-40.834833937401
 20
-457.732395104566
 11
-38.86004647359
 21
-442.732395104566
  0
LINE
  5
340
100
AcDbEntity
  8
0
 62
           3
100
AcDbLine
 10
-42.809621401212
 20
-442.732395104566
 11
-38.86004647359
 21
-442.732395104566
  0
LINE
  5
341
100
AcDbEntity
  8
0
 62
           3
100
AcDbLine
 10
-40.834833937401
 20
-197.732395104566
 11
-38.86004647359
 21
-212.732395104566
  0
LINE
  5
342
100
AcDbEntity
  8
0
 62
           3
100
AcDbLine
 10
-40.834833937401
 20
-197.732395104566
 11
-42.809621401212
 21
-212.732395104566
  0
LINE
  5
343
100
AcDbEntity
  8
0
 62
           3
100
AcDbLine
 10
-38.86004647359
 20
-212.732395104566
 11
-42.809621401212
 21
-212.732395104566
  0
MTEXT
  5
344
100
AcDbEntity
  8
0
 62
           2
100
AcDbMText
 10
-50.834833937401
 20
-345.977137333667
 30
0.0
 40
15.0
 41
0.0
 71
           7
 72
           1
  1
260
  7
CONVERTER_2
 11
0.0
 21
1.0
 31
0.0
  0
ENDBLK
  5
345
100
AcDbEntity
  8
0
100
AcDbBlockEnd
  0
BLOCK
  5
34B
100
AcDbEntity
  8
0
100
AcDbBlockBegin
  2
*D32
 70
           1
 10
0.0
 20
0.0
 30
0.0
  3
*D32
  1

  0
LINE
  5
34C
100
AcDbEntity
  8
0
  6
CONTINUOUS
 62
           3
100
AcDbLine
 10
-82.296184230943
 20
-427.732395104566
 11
-82.296184230943
 21
-227.732395104566
  0
LINE
  5
34D
100
AcDbEntity
  8
0
  6
CONTINUOUS
 62
           3
100
AcDbLine
 10
-239.336203800414
 20
-227.732395104566
 11
-72.296184230943
 21
-227.732395104566
  0
LINE
  5
34E
100
AcDbEntity
  8
0
  6
CONTINUOUS
 62
           3
100
AcDbLine
 10
-239.336203800414
 20
-427.732395104566
 11
-72.296184230943
 21
-427.732395104566
  0
LINE
  5
34F
100
AcDbEntity
  8
0
 62
           3
100
AcDbLine
 10
-82.296184230943
 20
-227.732395104566
 11
-80.321396767132
 21
-242.732395104566
  0
LINE
  5
350
100
AcDbEntity
  8
0
 62
           3
100
AcDbLine
 10
-82.296184230943
 20
-227.732395104566
 11
-84.270971694754
 21
-242.732395104566
  0
LINE
  5
351
100
AcDbEntity
  8
0
 62
           3
100
AcDbLine
 10
-80.321396767132
 20
-242.732395104566
 11
-84.270971694754
 21
-242.732395104566
  0
LINE
  5
352
100
AcDbEntity
  8
0
 62
           3
100
AcDbLine
 10
-82.296184230943
 20
-427.732395104566
 11
-84.270971694754
 21
-412.732395104566
  0
LINE
  5
353
100
AcDbEntity
  8
0
 62
           3
100
AcDbLine
 10
-82.296184230943
 20
-427.732395104566
 11
-80.321396767132
 21
-412.732395104566
  0
LINE
  5
354
100
AcDbEntity
  8
0
 62
           3
100
AcDbLine
 10
-84.270971694754
 20
-412.732395104566
 11
-80.321396767132
 21
-412.732395104566
  0
MTEXT
  5
355
100
AcDbEntity
  8
0
 62
           2
100
AcDbMText
 10
-92.296184230943
 20
-347.541716590027
 30
0.0
 40
15.0
 41
0.0
 71
           7
 72
           1
  1
200
  7
CONVERTER_2
 11
0.0
 21
1.0
 31
0.0
  0
ENDBLK
  5
356
100
AcDbEntity
  8
0
100
AcDbBlockEnd
  0
BLOCK
  5
35C
100
AcDbEntity
  8
0
100
AcDbBlockBegin
  2
*D35
 70
           1
 10
0.0
 20
0.0
 30
0.0
  3
*D35
  1

  0
LINE
  5
35D
100
AcDbEntity
  8
0
  6
CONTINUOUS
 62
           3
100
AcDbLine
 10
-470.636203800414
 20
-739.124645474004
 11
-225.636203800414
 21
-739.124645474004
  0
LINE
  5
35E
100
AcDbEntity
  8
0
  6
CONTINUOUS
 62
           3
100
AcDbLine
 10
-470.636203800414
 20
-477.732395104566
 11
-470.636203800414
 21
-749.124645474004
  0
LINE
  5
35F
100
AcDbEntity
  8
0
  6
CONTINUOUS
 62
           3
100
AcDbLine
 10
-225.636203800414
 20
-477.732395104566
 11
-225.636203800414
 21
-749.124645474004
  0
LINE
  5
360
100
AcDbEntity
  8
0
 62
           3
100
AcDbLine
 10
-225.636203800414
 20
-739.124645474004
 11
-240.636203800414
 21
-741.099432937815
  0
LINE
  5
361
100
AcDbEntity
  8
0
 62
           3
100
AcDbLine
 10
-225.636203800414
 20
-739.124645474004
 11
-240.636203800414
 21
-737.149858010193
  0
LINE
  5
362
100
AcDbEntity
  8
0
 62
           3
100
AcDbLine
 10
-240.636203800414
 20
-741.099432937815
 11
-240.636203800414
 21
-737.149858010193
  0
LINE
  5
363
100
AcDbEntity
  8
0
 62
           3
100
AcDbLine
 10
-470.636203800414
 20
-739.124645474004
 11
-455.636203800414
 21
-737.149858010193
  0
LINE
  5
364
100
AcDbEntity
  8
0
 62
           3
100
AcDbLine
 10
-470.636203800414
 20
-739.124645474004
 11
-455.636203800414
 21
-741.099432937815
  0
LINE
  5
365
100
AcDbEntity
  8
0
 62
           3
100
AcDbLine
 10
-455.636203800414
 20
-737.149858010193
 11
-455.636203800414
 21
-741.099432937815
  0
MTEXT
  5
366
100
AcDbEntity
  8
0
 62
           2
100
AcDbMText
 10
-377.394692143007
 20
-725.374645474004
 30
0.0
 40
15.0
 41
0.0
 71
           7
 72
           1
  1
\C2;Ø\C2;\C2;245\C3;\H9.000000;\S^ h8;
  7
CONVERTER_2
  0
ENDBLK
  5
367
100
AcDbEntity
  8
0
100
AcDbBlockEnd
  0
BLOCK
  5
36D
100
AcDbEntity
  8
0
100
AcDbBlockBegin
  2
*D38
 70
           1
 10
0.0
 20
0.0
 30
0.0
  3
*D38
  1

  0
LINE
  5
36E
100
AcDbEntity
  8
0
  6
CONTINUOUS
 62
           3
100
AcDbLine
 10
-369.136203800414
 20
-681.500783778545
 11
-327.136203800414
 21
-681.500783778545
  0
LINE
  5
36F
100
AcDbEntity
  8
0
  6
CONTINUOUS
 62
           3
100
AcDbLine
 10
-327.136203800414
 20
-681.500783778545
 11
-254.72932186956
 21
-681.500783778545
  0
LINE
  5
370
100
AcDbEntity
  8
0
  6
CONTINUOUS
 62
           3
100
AcDbLine
 10
-369.136203800414
 20
-637.732395104566
 11
-369.136203800414
 21
-691.500783778545
  0
LINE
  5
371
100
AcDbEntity
  8
0
  6
CONTINUOUS
 62
           3
100
AcDbLine
 10
-327.136203800414
 20
-637.732395104566
 11
-327.136203800414
 21
-691.500783778545
  0
LINE
  5
372
100
AcDbEntity
  8
0
 62
           3
100
AcDbLine
 10
-327.136203800414
 20
-681.500783778545
 11
-342.136203800414
 21
-683.475571242356
  0
LINE
  5
373
100
AcDbEntity
  8
0
 62
           3
100
AcDbLine
 10
-327.136203800414
 20
-681.500783778545
 11
-342.136203800414
 21
-679.525996314734
  0
LINE
  5
374
100
AcDbEntity
  8
0
 62
           3
100
AcDbLine
 10
-342.136203800414
 20
-683.475571242356
 11
-342.136203800414
 21
-679.525996314734
  0
LINE
  5
375
100
AcDbEntity
  8
0
 62
           3
100
AcDbLine
 10
-369.136203800414
 20
-681.500783778545
 11
-354.136203800414
 21
-679.525996314734
  0
LINE
  5
376
100
AcDbEntity
  8
0
 62
           3
100
AcDbLine
 10
-369.136203800414
 20
-681.500783778545
 11
-354.136203800414
 21
-683.475571242356
  0
LINE
  5
377
100
AcDbEntity
  8
0
 62
           3
100
AcDbLine
 10
-354.136203800414
 20
-679.525996314734
 11
-354.136203800414
 21
-683.475571242356
  0
MTEXT
  5
378
100
AcDbEntity
  8
0
 62
           2
100
AcDbMText
 10
-310.52932186956
 20
-667.750783778545
 30
0.0
 40
15.0
 41
0.0
 71
           7
 72
           1
  1
\C2;Ø\C2;\C2;42\C3;\H9.000000;\S^ k6;
  7
CONVERTER_2
  0
ENDBLK
  5
379
100
AcDbEntity
  8
0
100
AcDbBlockEnd
  0
BLOCK
  5
37F
100
AcDbEntity
  8
0
100
AcDbBlockBegin
  2
*D41
 70
           1
 10
0.0
 20
0.0
 30
0.0
  3
*D41
  1

  0
LINE
  5
380
100
AcDbEntity
  8
0
  6
CONTINUOUS
 62
           3
100
AcDbLine
 10
-405.636203800414
 20
-540.196368165959
 11
-290.636203800414
 21
-540.196368165959
  0
LINE
  5
381
100
AcDbEntity
  8
0
  6
CONTINUOUS
 62
           3
100
AcDbLine
 10
-405.636203800414
 20
-564.732395104566
 11
-405.636203800414
 21
-530.196368165959
  0
LINE
  5
382
100
AcDbEntity
  8
0
  6
CONTINUOUS
 62
           3
100
AcDbLine
 10
-290.636203800414
 20
-564.732395104566
 11
-290.636203800414
 21
-530.196368165959
  0
LINE
  5
383
100
AcDbEntity
  8
0
 62
           3
100
AcDbLine
 10
-290.636203800414
 20
-540.196368165959
 11
-305.636203800414
 21
-542.17115562977
  0
LINE
  5
384
100
AcDbEntity
  8
0
 62
           3
100
AcDbLine
 10
-290.636203800414
 20
-540.196368165959
 11
-305.636203800414
 21
-538.221580702148
  0
LINE
  5
385
100
AcDbEntity
  8
0
 62
           3
100
AcDbLine
 10
-305.636203800414
 20
-542.17115562977
 11
-305.636203800414
 21
-538.221580702148
  0
LINE
  5
386
100
AcDbEntity
  8
0
 62
           3
100
AcDbLine
 10
-405.636203800414
 20
-540.196368165959
 11
-390.636203800414
 21
-538.221580702148
  0
LINE
  5
387
100
AcDbEntity
  8
0
 62
           3
100
AcDbLine
 10
-405.636203800414
 20
-540.196368165959
 11
-390.636203800414
 21
-542.17115562977
  0
LINE
  5
388
100
AcDbEntity
  8
0
 62
           3
100
AcDbLine
 10
-390.636203800414
 20
-538.221580702148
 11
-390.636203800414
 21
-542.17115562977
  0
MTEXT
  5
389
100
AcDbEntity
  8
0
 62
           2
100
AcDbMText
 10
-363.572830637824
 20
-530.196368165959
 30
0.0
 40
15.0
 41
0.0
 71
           7
 72
           1
  1
\C2;Ø\C2;115
  7
CONVERTER_2
  0
ENDBLK
  5
38A
100
AcDbEntity
  8
0
100
AcDbBlockEnd
  0
BLOCK
  5
390
100
AcDbEntity
  8
0
100
AcDbBlockBegin
  2
*D44
 70
           1
 10
0.0
 20
0.0
 30
0.0
  3
*D44
  1

  0
LINE
  5
391
100
AcDbEntity
  8
0
  6
CONTINUOUS
 62
           3
100
AcDbLine
 10
-590.409598831943
 20
-450.232395104566
 11
-590.409598831943
 21
-205.232395104566
  0
LINE
  5
392
100
AcDbEntity
  8
0
  6
CONTINUOUS
 62
           3
100
AcDbLine
 10
-515.136203800414
 20
-205.232395104566
 11
-600.409598831943
 21
-205.232395104566
  0
LINE
  5
393
100
AcDbEntity
  8
0
  6
CONTINUOUS
 62
           3
100
AcDbLine
 10
-515.136203800414
 20
-450.232395104566
 11
-600.409598831943
 21
-450.232395104566
  0
LINE
  5
394
100
AcDbEntity
  8
0
 62
           3
100
AcDbLine
 10
-590.409598831943
 20
-205.232395104566
 11
-588.434811368132
 21
-220.232395104566
  0
LINE
  5
395
100
AcDbEntity
  8
0
 62
           3
100
AcDbLine
 10
-590.409598831943
 20
-205.232395104566
 11
-592.384386295754
 21
-220.232395104566
  0
LINE
  5
396
100
AcDbEntity
  8
0
 62
           3
100
AcDbLine
 10
-588.434811368132
 20
-220.232395104566
 11
-592.384386295754
 21
-220.232395104566
  0
LINE
  5
397
100
AcDbEntity
  8
0
 62
           3
100
AcDbLine
 10
-590.409598831943
 20
-450.232395104566
 11
-592.384386295754
 21
-435.232395104566
  0
LINE
  5
398
100
AcDbEntity
  8
0
 62
           3
100
AcDbLine
 10
-590.409598831943
 20
-450.232395104566
 11
-588.434811368132
 21
-435.232395104566
  0
LINE
  5
399
100
AcDbEntity
  8
0
 62
           3
100
AcDbLine
 10
-592.384386295754
 20
-435.232395104566
 11
-588.434811368132
 21
-435.232395104566
  0
MTEXT
  5
39A
100
AcDbEntity
  8
0
 62
           2
100
AcDbMText
 10
-604.159598831943
 20
-350.186288779633
 30
0.0
 40
15.0
 41
0.0
 71
           7
 72
           1
  1
\C2;Ø\C2;\C2;245\C3;\H9.000000;\S^ h8;
  7
CONVERTER_2
 11
0.0
 21
1.0
 31
0.0
  0
ENDBLK
  5
39B
100
AcDbEntity
  8
0
100
AcDbBlockEnd
  0
BLOCK
  5
3A1
100
AcDbEntity
  8
0
100
AcDbBlockBegin
  2
*D47
 70
           1
 10
0.0
 20
0.0
 30
0.0
  3
*D47
  1

  0
LINE
  5
3A2
100
AcDbEntity
  8
0
  6
CONTINUOUS
 62
           3
100
AcDbLine
 10
-515.136203800414
 20
-85.623256055129
 11
-348.136203800414
 21
-85.623256055129
  0
LINE
  5
3A3
100
AcDbEntity
  8
0
  6
CONTINUOUS
 62
           3
100
AcDbLine
 10
-515.136203800414
 20
-205.232395104566
 11
-515.136203800414
 21
-75.623256055129
  0
LINE
  5
3A4
100
AcDbEntity
  8
0
  6
CONTINUOUS
 62
           3
100
AcDbLine
 10
-348.136203800414
 20
-196.084941890854
 11
-348.136203800414
 21
-185.24939760764
  0
LINE
  5
3A5
100
AcDbEntity
  8
0
  6
CONTINUOUS
 62
           3
100
AcDbLine
 10
-348.136203800414
 20
-93.397228657868
 11
-348.136203800414
 21
-75.623256055129
  0
LINE
  5
3A6
100
AcDbEntity
  8
0
 62
           3
100
AcDbLine
 10
-348.136203800414
 20
-85.623256055129
 11
-363.136203800414
 21
-87.59804351894
  0
LINE
  5
3A7
100
AcDbEntity
  8
0
 62
           3
100
AcDbLine
 10
-348.136203800414
 20
-85.623256055129
 11
-363.136203800414
 21
-83.648468591318
  0
LINE
  5
3A8
100
AcDbEntity
  8
0
 62
           3
100
AcDbLine
 10
-363.136203800414
 20
-87.59804351894
 11
-363.136203800414
 21
-83.648468591318
  0
LINE
  5
3A9
100
AcDbEntity
  8
0
 62
           3
100
AcDbLine
 10
-515.136203800414
 20
-85.623256055129
 11
-500.136203800414
 21
-83.648468591318
  0
LINE
  5
3AA
100
AcDbEntity
  8
0
 62
           3
100
AcDbLine
 10
-515.136203800414
 20
-85.623256055129
 11
-500.136203800414
 21
-87.59804351894
  0
LINE
  5
3AB
100
AcDbEntity
  8
0
 62
           3
100
AcDbLine
 10
-500.136203800414
 20
-83.648468591318
 11
-500.136203800414
 21
-87.59804351894
  0
TEXT
  5
3AC
100
AcDbEntity
  8
0
 62
           2
100
AcDbText
 10
-439.791454941967
 20
-75.623256055129
 40
15.0
  1
167
 41
0.9
  7
CONVERTER_2
100
AcDbText
  0
ENDBLK
  5
3AD
100
AcDbEntity
  8
0
100
AcDbBlockEnd
  0
BLOCK
  5
3B3
100
AcDbEntity
  8
0
100
AcDbBlockBegin
  2
*D50
 70
           1
 10
0.0
 20
0.0
 30
0.0
  3
*D50
  1

  0
LINE
  5
3B4
100
AcDbEntity
  8
0
  6
CONTINUOUS
 62
           3
100
AcDbLine
 10
-515.136203800414
 20
-129.993119068827
 11
-555.667025718222
 21
-129.993119068827
  0
LINE
  5
3B5
100
AcDbEntity
  8
0
  6
CONTINUOUS
 62
           3
100
AcDbLine
 10
-515.136203800414
 20
-129.993119068827
 11
-498.136203800414
 21
-129.993119068827
  0
LINE
  5
3B6
100
AcDbEntity
  8
0
  6
CONTINUOUS
 62
           3
100
AcDbLine
 10
-468.136203800414
 20
-129.993119068827
 11
-498.136203800414
 21
-129.993119068827
  0
LINE
  5
3B7
100
AcDbEntity
  8
0
  6
CONTINUOUS
 62
           3
100
AcDbLine
 10
-498.136203800414
 20
-197.732395104566
 11
-498.136203800414
 21
-119.993119068827
  0
LINE
  5
3B8
100
AcDbEntity
  8
0
  6
CONTINUOUS
 62
           3
100
AcDbLine
 10
-515.136203800414
 20
-205.232395104566
 11
-515.136203800414
 21
-119.993119068827
  0
LINE
  5
3B9
100
AcDbEntity
  8
0
 62
           3
100
AcDbLine
 10
-498.136203800414
 20
-129.993119068827
 11
-483.136203800414
 21
-128.018331605016
  0
LINE
  5
3BA
100
AcDbEntity
  8
0
 62
           3
100
AcDbLine
 10
-498.136203800414
 20
-129.993119068827
 11
-483.136203800414
 21
-131.967906532638
  0
LINE
  5
3BB
100
AcDbEntity
  8
0
 62
           3
100
AcDbLine
 10
-483.136203800414
 20
-128.018331605016
 11
-483.136203800414
 21
-131.967906532638
  0
LINE
  5
3BC
100
AcDbEntity
  8
0
 62
           3
100
AcDbLine
 10
-515.136203800414
 20
-129.993119068827
 11
-530.136203800414
 21
-131.967906532638
  0
LINE
  5
3BD
100
AcDbEntity
  8
0
 62
           3
100
AcDbLine
 10
-515.136203800414
 20
-129.993119068827
 11
-530.136203800414
 21
-128.018331605016
  0
LINE
  5
3BE
100
AcDbEntity
  8
0
 62
           3
100
AcDbLine
 10
-530.136203800414
 20
-131.967906532638
 11
-530.136203800414
 21
-128.018331605016
  0
TEXT
  5
3BF
100
AcDbEntity
  8
0
 62
           2
100
AcDbText
 10
-555.667025718222
 20
-119.993119068827
 40
15.0
  1
17
 41
0.9
  7
CONVERTER_2
100
AcDbText
  0
ENDBLK
  5
3C0
100
AcDbEntity
  8
0
100
AcDbBlockEnd
  0
BLOCK
  5
3C6
100
AcDbEntity
  8
0
100
AcDbBlockBegin
  2
*D53
 70
           1
 10
0.0
 20
0.0
 30
0.0
  3
*D53
  1

  0
LINE
  5
3C7
100
AcDbEntity
  8
0
  6
CONTINUOUS
 62
           3
100
AcDbLine
 10
-498.136203800414
 20
-129.993119068827
 11
-198.136203800414
 21
-129.993119068827
  0
LINE
  5
3C8
100
AcDbEntity
  8
0
  6
CONTINUOUS
 62
           3
100
AcDbLine
 10
-198.136203800414
 20
-197.732395104566
 11
-198.136203800414
 21
-119.993119068827
  0
LINE
  5
3C9
100
AcDbEntity
  8
0
  6
CONTINUOUS
 62
           3
100
AcDbLine
 10
-498.136203800414
 20
-197.732395104566
 11
-498.136203800414
 21
-119.993119068827
  0
LINE
  5
3CA
100
AcDbEntity
  8
0
 62
           3
100
AcDbLine
 10
-498.136203800414
 20
-129.993119068827
 11
-483.136203800414
 21
-128.018331605016
  0
LINE
  5
3CB
100
AcDbEntity
  8
0
 62
           3
100
AcDbLine
 10
-498.136203800414
 20
-129.993119068827
 11
-483.136203800414
 21
-131.967906532638
  0
LINE
  5
3CC
100
AcDbEntity
  8
0
 62
           3
100
AcDbLine
 10
-483.136203800414
 20
-128.018331605016
 11
-483.136203800414
 21
-131.967906532638
  0
LINE
  5
3CD
100
AcDbEntity
  8
0
 62
           3
100
AcDbLine
 10
-198.136203800414
 20
-129.993119068827
 11
-213.136203800414
 21
-131.967906532638
  0
LINE
  5
3CE
100
AcDbEntity
  8
0
 62
           3
100
AcDbLine
 10
-198.136203800414
 20
-129.993119068827
 11
-213.136203800414
 21
-128.018331605016
  0
LINE
  5
3CF
100
AcDbEntity
  8
0
 62
           3
100
AcDbLine
 10
-213.136203800414
 20
-131.967906532638
 11
-213.136203800414
 21
-128.018331605016
  0
TEXT
  5
3D0
100
AcDbEntity
  8
0
 62
           2
100
AcDbText
 10
-369.448989188542
 20
-119.993119068827
 40
15.0
  1
300
 41
0.9
  7
CONVERTER_2
100
AcDbText
  0
ENDBLK
  5
3D1
100
AcDbEntity
  8
0
100
AcDbBlockEnd
  0
BLOCK
  5
3D7
100
AcDbEntity
  8
0
100
AcDbBlockBegin
  2
*D56
 70
           1
 10
0.0
 20
0.0
 30
0.0
  3
*D56
  1

  0
LINE
  5
3D8
100
AcDbEntity
  8
0
  6
CONTINUOUS
 62
           3
100
AcDbLine
 10
-448.136203800414
 20
-175.299055141887
 11
-248.136203800414
 21
-175.299055141887
  0
LINE
  5
3D9
100
AcDbEntity
  8
0
  6
CONTINUOUS
 62
           3
100
AcDbLine
 10
-248.136203800414
 20
-218.932395104566
 11
-248.136203800414
 21
-165.299055141887
  0
LINE
  5
3DA
100
AcDbEntity
  8
0
  6
CONTINUOUS
 62
           3
100
AcDbLine
 10
-448.136203800414
 20
-218.932395104566
 11
-448.136203800414
 21
-165.299055141887
  0
LINE
  5
3DB
100
AcDbEntity
  8
0
 62
           3
100
AcDbLine
 10
-448.136203800414
 20
-175.299055141887
 11
-433.136203800414
 21
-173.324267678076
  0
LINE
  5
3DC
100
AcDbEntity
  8
0
 62
           3
100
AcDbLine
 10
-448.136203800414
 20
-175.299055141887
 11
-433.136203800414
 21
-177.273842605698
  0
LINE
  5
3DD
100
AcDbEntity
  8
0
 62
           3
100
AcDbLine
 10
-433.136203800414
 20
-173.324267678076
 11
-433.136203800414
 21
-177.273842605698
  0
LINE
  5
3DE
100
AcDbEntity
  8
0
 62
           3
100
AcDbLine
 10
-248.136203800414
 20
-175.299055141887
 11
-263.136203800414
 21
-177.273842605698
  0
LINE
  5
3DF
100
AcDbEntity
  8
0
 62
           3
100
AcDbLine
 10
-248.136203800414
 20
-175.299055141887
 11
-263.136203800414
 21
-173.324267678076
  0
LINE
  5
3E0
100
AcDbEntity
  8
0
 62
           3
100
AcDbLine
 10
-263.136203800414
 20
-177.273842605698
 11
-263.136203800414
 21
-173.324267678076
  0
TEXT
  5
3E1
100
AcDbEntity
  8
0
 62
           2
100
AcDbText
 10
-367.202413846076
 20
-165.299055141887
 40
15.0
  1
200
 41
0.9
  7
CONVERTER_2
100
AcDbText
  0
ENDBLK
  5
3E2
100
AcDbEntity
  8
0
100
AcDbBlockEnd
  0
BLOCK
  5
3E8
100
AcDbEntity
  8
0
100
AcDbBlockBegin
  2
*D59
 70
           1
 10
0.0
 20
0.0
 30
0.0
  3
*D59
  1

  0
LINE
  5
3E9
100
AcDbEntity
  8
0
  6
CONTINUOUS
 62
           3
100
AcDbLine
 10
352.525896656206
 20
363.156913546959
 11
552.525896656206
 21
363.156913546959
  0
LINE
  5
3EA
100
AcDbEntity
  8
0
  6
CONTINUOUS
 62
           3
100
AcDbLine
 10
552.525896656206
 20
321.281523179968
 11
552.525896656206
 21
373.156913546959
  0
LINE
  5
3EB
100
AcDbEntity
  8
0
  6
CONTINUOUS
 62
           3
100
AcDbLine
 10
352.525896656206
 20
321.281523179968
 11
352.525896656206
 21
373.156913546959
  0
LINE
  5
3EC
100
AcDbEntity
  8
0
 62
           3
100
AcDbLine
 10
352.525896656206
 20
363.156913546959
 11
367.525896656206
 21
365.13170101077
  0
LINE
  5
3ED
100
AcDbEntity
  8
0
 62
           3
100
AcDbLine
 10
352.525896656206
 20
363.156913546959
 11
367.525896656206
 21
361.182126083148
  0
LINE
  5
3EE
100
AcDbEntity
  8
0
 62
           3
100
AcDbLine
 10
367.525896656206
 20
365.13170101077
 11
367.525896656206
 21
361.182126083148
  0
LINE
  5
3EF
100
AcDbEntity
  8
0
 62
           3
100
AcDbLine
 10
552.525896656206
 20
363.156913546959
 11
537.525896656206
 21
361.182126083148
  0
LINE
  5
3F0
100
AcDbEntity
  8
0
 62
           3
100
AcDbLine
 10
552.525896656206
 20
363.156913546959
 11
537.525896656206
 21
365.13170101077
  0
LINE
  5
3F1
100
AcDbEntity
  8
0
 62
           3
100
AcDbLine
 10
537.525896656206
 20
361.182126083148
 11
537.525896656206
 21
365.13170101077
  0
TEXT
  5
3F2
100
AcDbEntity
  8
0
 62
           2
100
AcDbText
 10
434.637768802325
 20
373.156913546959
 40
15.0
  1
200
 41
0.9
  7
CONVERTER_2
100
AcDbText
  0
ENDBLK
  5
3F3
100
AcDbEntity
  8
0
100
AcDbBlockEnd
  0
BLOCK
  5
3F9
100
AcDbEntity
  8
0
100
AcDbBlockBegin
  2
*D62
 70
           1
 10
0.0
 20
0.0
 30
0.0
  3
*D62
  1

  0
LINE
  5
3FA
100
AcDbEntity
  8
0
  6
CONTINUOUS
 62
           3
100
AcDbLine
 10
303.914595286343
 20
112.481523179968
 11
303.914595286343
 21
312.481523179968
  0
LINE
  5
3FB
100
AcDbEntity
  8
0
  6
CONTINUOUS
 62
           3
100
AcDbLine
 10
343.725896656206
 20
312.481523179968
 11
293.914595286343
 21
312.481523179968
  0
LINE
  5
3FC
100
AcDbEntity
  8
0
  6
CONTINUOUS
 62
           3
100
AcDbLine
 10
343.725896656206
 20
112.481523179968
 11
293.914595286343
 21
112.481523179968
  0
LINE
  5
3FD
100
AcDbEntity
  8
0
 62
           3
100
AcDbLine
 10
303.914595286343
 20
312.481523179968
 11
305.889382750154
 21
297.481523179968
  0
LINE
  5
3FE
100
AcDbEntity
  8
0
 62
           3
100
AcDbLine
 10
303.914595286343
 20
312.481523179968
 11
301.939807822532
 21
297.481523179968
  0
LINE
  5
3FF
100
AcDbEntity
  8
0
 62
           3
100
AcDbLine
 10
305.889382750154
 20
297.481523179968
 11
301.939807822532
 21
297.481523179968
  0
LINE
  5
400
100
AcDbEntity
  8
0
 62
           3
100
AcDbLine
 10
303.914595286343
 20
112.481523179968
 11
301.939807822532
 21
127.481523179968
  0
LINE
  5
401
100
AcDbEntity
  8
0
 62
           3
100
AcDbLine
 10
303.914595286343
 20
112.481523179968
 11
305.889382750154
 21
127.481523179968
  0
LINE
  5
402
100
AcDbEntity
  8
0
 62
           3
100
AcDbLine
 10
301.939807822532
 20
127.481523179968
 11
305.889382750154
 21
127.481523179968
  0
MTEXT
  5
403
100
AcDbEntity
  8
0
 62
           2
100
AcDbMText
 10
293.914595286343
 20
192.920122940305
 30
0.0
 40
15.0
 41
0.0
 71
           7
 72
           1
  1
200
  7
CONVERTER_2
 11
0.0
 21
1.0
 31
0.0
  0
ENDBLK
  5
404
100
AcDbEntity
  8
0
100
AcDbBlockEnd
  0
BLOCK
  5
40A
100
AcDbEntity
  8
0
100
AcDbBlockBegin
  2
*D65
 70
           1
 10
0.0
 20
0.0
 30
0.0
  3
*D65
  1

  0
LINE
  5
40B
100
AcDbEntity
  8
0
  6
CONTINUOUS
 62
           3
100
AcDbLine
 10
-91.85415879063
 20
82.481523179968
 11
-91.85415879063
 21
342.481523179968
  0
LINE
  5
40C
100
AcDbEntity
  8
0
  6
CONTINUOUS
 62
           3
100
AcDbLine
 10
-198.136203800414
 20
342.481523179968
 11
-81.85415879063
 21
342.481523179968
  0
LINE
  5
40D
100
AcDbEntity
  8
0
  6
CONTINUOUS
 62
           3
100
AcDbLine
 10
-198.136203800414
 20
82.481523179968
 11
-81.85415879063
 21
82.481523179968
  0
LINE
  5
40E
100
AcDbEntity
  8
0
 62
           3
100
AcDbLine
 10
-91.85415879063
 20
342.481523179968
 11
-89.879371326819
 21
327.481523179968
  0
LINE
  5
40F
100
AcDbEntity
  8
0
 62
           3
100
AcDbLine
 10
-91.85415879063
 20
342.481523179968
 11
-93.828946254441
 21
327.481523179968
  0
LINE
  5
410
100
AcDbEntity
  8
0
 62
           3
100
AcDbLine
 10
-89.879371326819
 20
327.481523179968
 11
-93.828946254441
 21
327.481523179968
  0
LINE
  5
411
100
AcDbEntity
  8
0
 62
           3
100
AcDbLine
 10
-91.85415879063
 20
82.481523179968
 11
-93.828946254441
 21
97.481523179968
  0
LINE
  5
412
100
AcDbEntity
  8
0
 62
           3
100
AcDbLine
 10
-91.85415879063
 20
82.481523179968
 11
-89.879371326819
 21
97.481523179968
  0
LINE
  5
413
100
AcDbEntity
  8
0
 62
           3
100
AcDbLine
 10
-93.828946254441
 20
97.481523179968
 11
-89.879371326819
 21
97.481523179968
  0
MTEXT
  5
414
100
AcDbEntity
  8
0
 62
           2
100
AcDbMText
 10
-101.85415879063
 20
192.037539770051
 30
0.0
 40
15.0
 41
0.0
 71
           7
 72
           1
  1
260
  7
CONVERTER_2
 11
0.0
 21
1.0
 31
0.0
  0
ENDBLK
  5
415
100
AcDbEntity
  8
0
100
AcDbBlockEnd
  0
BLOCK
  5
41B
100
AcDbEntity
  8
0
100
AcDbBlockBegin
  2
*D68
 70
           1
 10
0.0
 20
0.0
 30
0.0
  3
*D68
  1

  0
LINE
  5
41C
100
AcDbEntity
  8
0
  6
CONTINUOUS
 62
           3
100
AcDbLine
 10
-137.58801397654
 20
112.481523179968
 11
-137.58801397654
 21
312.481523179968
  0
LINE
  5
41D
100
AcDbEntity
  8
0
  6
CONTINUOUS
 62
           3
100
AcDbLine
 10
-239.336203800414
 20
312.481523179968
 11
-127.58801397654
 21
312.481523179968
  0
LINE
  5
41E
100
AcDbEntity
  8
0
  6
CONTINUOUS
 62
           3
100
AcDbLine
 10
-239.336203800414
 20
112.481523179968
 11
-127.58801397654
 21
112.481523179968
  0
LINE
  5
41F
100
AcDbEntity
  8
0
 62
           3
100
AcDbLine
 10
-137.58801397654
 20
312.481523179968
 11
-135.613226512729
 21
297.481523179968
  0
LINE
  5
420
100
AcDbEntity
  8
0
 62
           3
100
AcDbLine
 10
-137.58801397654
 20
312.481523179968
 11
-139.562801440351
 21
297.481523179968
  0
LINE
  5
421
100
AcDbEntity
  8
0
 62
           3
100
AcDbLine
 10
-135.613226512729
 20
297.481523179968
 11
-139.562801440351
 21
297.481523179968
  0
LINE
  5
422
100
AcDbEntity
  8
0
 62
           3
100
AcDbLine
 10
-137.58801397654
 20
112.481523179968
 11
-139.562801440351
 21
127.481523179968
  0
LINE
  5
423
100
AcDbEntity
  8
0
 62
           3
100
AcDbLine
 10
-137.58801397654
 20
112.481523179968
 11
-135.613226512729
 21
127.481523179968
  0
LINE
  5
424
100
AcDbEntity
  8
0
 62
           3
100
AcDbLine
 10
-139.562801440351
 20
127.481523179968
 11
-135.613226512729
 21
127.481523179968
  0
MTEXT
  5
425
100
AcDbEntity
  8
0
 62
           2
100
AcDbMText
 10
-147.58801397654
 20
192.037539770051
 30
0.0
 40
15.0
 41
0.0
 71
           7
 72
           1
  1
200
  7
CONVERTER_2
 11
0.0
 21
1.0
 31
0.0
  0
ENDBLK
  5
426
100
AcDbEntity
  8
0
100
AcDbBlockEnd
  0
BLOCK
  5
42C
100
AcDbEntity
  8
0
100
AcDbBlockBegin
  2
*D71
 70
           1
 10
0.0
 20
0.0
 30
0.0
  3
*D71
  1

  0
LINE
  5
42D
100
AcDbEntity
  8
0
  6
CONTINUOUS
 62
           3
100
AcDbLine
 10
-448.136203800414
 20
363.557716257693
 11
-248.136203800414
 21
363.557716257693
  0
LINE
  5
42E
100
AcDbEntity
  8
0
  6
CONTINUOUS
 62
           3
100
AcDbLine
 10
-248.136203800414
 20
321.281523179968
 11
-248.136203800414
 21
373.557716257693
  0
LINE
  5
42F
100
AcDbEntity
  8
0
  6
CONTINUOUS
 62
           3
100
AcDbLine
 10
-448.136203800414
 20
321.281523179968
 11
-448.136203800414
 21
373.557716257693
  0
LINE
  5
430
100
AcDbEntity
  8
0
 62
           3
100
AcDbLine
 10
-448.136203800414
 20
363.557716257693
 11
-433.136203800414
 21
365.532503721504
  0
LINE
  5
431
100
AcDbEntity
  8
0
 62
           3
100
AcDbLine
 10
-448.136203800414
 20
363.557716257693
 11
-433.136203800414
 21
361.582928793882
  0
LINE
  5
432
100
AcDbEntity
  8
0
 62
           3
100
AcDbLine
 10
-433.136203800414
 20
365.532503721504
 11
-433.136203800414
 21
361.582928793882
  0
LINE
  5
433
100
AcDbEntity
  8
0
 62
           3
100
AcDbLine
 10
-248.136203800414
 20
363.557716257693
 11
-263.136203800414
 21
361.582928793882
  0
LINE
  5
434
100
AcDbEntity
  8
0
 62
           3
100
AcDbLine
 10
-248.136203800414
 20
363.557716257693
 11
-263.136203800414
 21
365.532503721504
  0
LINE
  5
435
100
AcDbEntity
  8
0
 62
           3
100
AcDbLine
 10
-263.136203800414
 20
361.582928793882
 11
-263.136203800414
 21
365.532503721504
  0
TEXT
  5
436
100
AcDbEntity
  8
0
 62
           2
100
AcDbText
 10
-366.392543493827
 20
373.557716257693
 40
15.0
  1
200
 41
0.9
  7
CONVERTER_2
100
AcDbText
  0
ENDBLK
  5
437
100
AcDbEntity
  8
0
100
AcDbBlockEnd
  0
ENDSEC
  0
SECTION
  2
ENTITIES
  0
DIMENSION
  5
43B
100
AcDbEntity
  8
0
100
AcDbDimension
  2
*D71
 10
-448.136203800414
 20
363.557716257693
 11
-348.392543493827
 21
381.057716257693
 31
0.0
  1
<>
  3
ME10_DIM_23
100
AcDbAlignedDimension
 13
-248.136203800414
 23
321.281523179968
 14
-448.136203800414
 24
321.281523179968
100
AcDbRotatedDimension
  0
DIMENSION
  5
42A
100
AcDbEntity
  8
0
100
AcDbDimension
  2
*D68
 10
-137.58801397654
 20
312.481523179968
 11
-155.08801397654
 21
210.037539770051
 31
0.0
 53
90.0
  1
<>
  3
ME10_DIM_22
100
AcDbAlignedDimension
 13
-239.336203800414
 23
112.481523179968
 14
-239.336203800414
 24
312.481523179968
 50
90.0
100
AcDbRotatedDimension
  0
DIMENSION
  5
419
100
AcDbEntity
  8
0
100
AcDbDimension
  2
*D65
 10
-91.85415879063
 20
342.481523179968
 11
-109.35415879063
 21
210.037539770051
 31
0.0
 53
90.0
  1
<>
  3
ME10_DIM_21
100
AcDbAlignedDimension
 13
-198.136203800414
 23
82.481523179968
 14
-198.136203800414
 24
342.481523179968
 50
90.0
100
AcDbRotatedDimension
  0
DIMENSION
  5
408
100
AcDbEntity
  8
0
100
AcDbDimension
  2
*D62
 10
303.914595286343
 20
312.481523179968
 11
286.414595286343
 21
210.920122940305
 31
0.0
 53
90.0
  1
<>
  3
ME10_DIM_20
100
AcDbAlignedDimension
 13
343.725896656206
 23
112.481523179968
 14
343.725896656206
 24
312.481523179968
 50
90.0
100
AcDbRotatedDimension
  0
DIMENSION
  5
3F7
100
AcDbEntity
  8
0
100
AcDbDimension
  2
*D59
 10
352.525896656206
 20
363.156913546959
 11
452.637768802325
 21
380.656913546959
 31
0.0
  1
<>
  3
ME10_DIM_19
100
AcDbAlignedDimension
 13
552.525896656206
 23
321.281523179968
 14
352.525896656206
 24
321.281523179968
100
AcDbRotatedDimension
  0
DIMENSION
  5
3E6
100
AcDbEntity
  8
0
100
AcDbDimension
  2
*D56
 10
-448.136203800414
 20
-175.299055141887
 11
-349.202413846076
 21
-157.799055141887
 31
0.0
  1
<>
  3
ME10_DIM_18
100
AcDbAlignedDimension
 13
-248.136203800414
 23
-218.932395104566
 14
-448.136203800414
 24
-218.932395104566
100
AcDbRotatedDimension
  0
DIMENSION
  5
3D5
100
AcDbEntity
  8
0
100
AcDbDimension
  2
*D53
 10
-498.136203800414
 20
-129.993119068827
 11
-351.448989188542
 21
-112.493119068827
 31
0.0
  1
<>
  3
ME10_DIM_17
100
AcDbAlignedDimension
 13
-198.136203800414
 23
-197.732395104566
 14
-498.136203800414
 24
-197.732395104566
100
AcDbRotatedDimension
  0
DIMENSION
  5
3C4
100
AcDbEntity
  8
0
100
AcDbDimension
  2
*D50
 10
-498.136203800414
 20
-129.993119068827
 11
-546.667025718222
 21
-112.493119068827
 31
0.0
  1
<>
  3
ME10_DIM_16
100
AcDbAlignedDimension
 13
-515.136203800414
 23
-205.232395104566
 14
-498.136203800414
 24
-197.732395104566
100
AcDbRotatedDimension
  0
DIMENSION
  5
3B1
100
AcDbEntity
  8
0
100
AcDbDimension
  2
*D47
 10
-348.136203800414
 20
-85.623256055129
 11
-424.041454941967
 21
-68.123256055129
 31
0.0
  1
<>
  3
ME10_DIM_15
100
AcDbAlignedDimension
 13
-515.136203800414
 23
-205.232395104566
 14
-348.136203800414
 24
-196.084941890854
100
AcDbRotatedDimension
  0
DIMENSION
  5
39F
100
AcDbEntity
  8
0
100
AcDbDimension
  2
*D44
 10
-590.409598831943
 20
-205.232395104566
 11
-611.659598831943
 21
-318.386288779633
 31
0.0
 53
90.0
  1
<>
  3
ME10_DIM_14
100
AcDbAlignedDimension
 13
-515.136203800414
 23
-450.232395104566
 14
-515.136203800414
 24
-205.232395104566
 50
90.0
100
AcDbRotatedDimension
  0
DIMENSION
  5
38E
100
AcDbEntity
  8
0
100
AcDbDimension
  2
*D41
 10
-290.636203800414
 20
-540.196368165959
 11
-346.772830637824
 21
-522.696368165959
 31
0.0
  1
<>
  3
ME10_DIM_13
100
AcDbAlignedDimension
 13
-405.636203800414
 23
-564.732395104566
 14
-290.636203800414
 24
-564.732395104566
100
AcDbRotatedDimension
  0
DIMENSION
  5
37D
100
AcDbEntity
  8
0
100
AcDbDimension
  2
*D38
 10
-327.136203800414
 20
-681.500783778545
 11
-285.47932186956
 21
-660.250783778545
 31
0.0
  1
<>
  3
ME10_DIM_12
100
AcDbAlignedDimension
 13
-369.136203800414
 23
-637.732395104566
 14
-327.136203800414
 24
-637.732395104566
100
AcDbRotatedDimension
  0
DIMENSION
  5
36B
100
AcDbEntity
  8
0
100
AcDbDimension
  2
*D35
 10
-225.636203800414
 20
-739.124645474004
 11
-345.594692143007
 21
-717.874645474004
 31
0.0
  1
<>
  3
ME10_DIM_11
100
AcDbAlignedDimension
 13
-470.636203800414
 23
-477.732395104566
 14
-225.636203800414
 24
-477.732395104566
100
AcDbRotatedDimension
  0
DIMENSION
  5
35A
100
AcDbEntity
  8
0
100
AcDbDimension
  2
*D32
 10
-82.296184230943
 20
-227.732395104566
 11
-99.796184230943
 21
-329.541716590027
 31
0.0
 53
90.0
  1
<>
  3
ME10_DIM_10
100
AcDbAlignedDimension
 13
-239.336203800414
 23
-427.732395104566
 14
-239.336203800414
 24
-227.732395104566
 50
90.0
100
AcDbRotatedDimension
  0
DIMENSION
  5
349
100
AcDbEntity
  8
0
100
AcDbDimension
  2
*D29
 10
-40.834833937401
 20
-457.732395104566
 11
-58.334833937401
 21
-327.977137333667
 31
0.0
 53
90.0
  1
<>
  3
ME10_DIM_9
100
AcDbAlignedDimension
 13
-198.136203800414
 23
-197.732395104566
 14
-198.136203800414
 24
-457.732395104566
 50
90.0
100
AcDbRotatedDimension
  0
DIMENSION
  5
338
100
AcDbEntity
  8
0
100
AcDbDimension
  2
*D26
 10
-40.834833937401
 20
-457.732395104566
 11
-58.334833937401
 21
-502.131301282351
 31
0.0
 53
90.0
  1
<>
  3
ME10_DIM_8
100
AcDbAlignedDimension
 13
-225.636203800414
 23
-477.732395104566
 14
-198.136203800414
 24
-457.732395104566
 50
90.0
100
AcDbRotatedDimension
  0
DIMENSION
  5
325
100
AcDbEntity
  8
0
100
AcDbDimension
  2
*D23
 10
57.733659213284
 20
-327.732395104566
 11
40.233659213284
 21
-480.59405400011
 31
0.0
 53
90.0
  1
<>
  3
ME10_DIM_7
100
AcDbAlignedDimension
 13
-327.136203800414
 23
-637.732395104566
 14
-174.636203800414
 24
-327.732395104566
 50
90.0
100
AcDbRotatedDimension
  0
DIMENSION
  5
313
100
AcDbEntity
  8
0
100
AcDbDimension
  2
*D20
 10
12.360860778842
 20
-327.732395104566
 11
-5.139139221158
 21
-426.545630484352
 31
0.0
 53
90.0
  1
<>
  3
ME10_DIM_6
100
AcDbAlignedDimension
 13
-290.636203800414
 23
-564.732395104566
 14
-174.636203800414
 24
-327.732395104566
 50
90.0
100
AcDbRotatedDimension
  0
DIMENSION
  5
301
100
AcDbEntity
  8
0
100
AcDbDimension
  2
*D17
 10
12.360860778842
 20
-637.732395104566
 11
-5.139139221158
 21
-601.867657011858
 31
0.0
 53
90.0
  1
<>
  3
ME10_DIM_5
100
AcDbAlignedDimension
 13
-327.136203800414
 23
-567.732395104566
 14
-327.136203800414
 24
-637.732395104566
 50
90.0
100
AcDbRotatedDimension
  0
DIMENSION
  5
2F0
100
AcDbEntity
  8
0
100
AcDbDimension
  2
*D14
 10
-178.136203800414
 20
-400.458057098833
 11
-233.327006148751
 21
-382.958057098833
 31
0.0
  1
<>
  3
ME10_DIM_4
100
AcDbAlignedDimension
 13
-278.136203800414
 23
-361.732395104566
 14
-178.136203800414
 24
-362.732395104566
100
AcDbRotatedDimension
  0
DIMENSION
  5
2DF
100
AcDbEntity
  8
0
100
AcDbDimension
  2
*D11
 10
-348.136203800414
 20
-43.622549379764
 11
-263.03646064973
 21
-26.122549379764
 31
0.0
  1
<>
  3
ME10_DIM_3
100
AcDbAlignedDimension
 13
-178.136203800414
 23
-292.732395104566
 14
-348.136203800414
 24
-196.084941890854
100
AcDbRotatedDimension
  0
DIMENSION
  5
2CC
100
AcDbEntity
  8
0
100
AcDbDimension
  2
*D8
 10
-348.136203800414
 20
-43.622549379764
 11
-431.309522728442
 21
-26.122549379764
 31
0.0
  1
<>
  3
ME10_DIM_2
100
AcDbAlignedDimension
 13
-518.136203800414
 23
-292.732395104566
 14
-348.136203800414
 24
-196.084941890854
100
AcDbRotatedDimension
  0
DIMENSION
  5
2B9
100
AcDbEntity
  8
0
100
AcDbDimension
  2
*D5
 10
-543.711811269429
 20
-355.232395104566
 11
-564.961811269429
 21
-252.365278777459
 31
0.0
 53
90.0
  1
<>
  3
ME10_DIM_1
100
AcDbAlignedDimension
 13
-518.136203800414
 23
-300.232395104566
 14
-518.136203800414
 24
-355.232395104566
 50
90.0
100
AcDbRotatedDimension
  0
DIMENSION
  5
2A7
100
AcDbEntity
  8
0
100
AcDbDimension
  2
*D2
 10
-134.703602963276
 20
-355.232395104566
 11
-155.953602963276
 21
-264.442292802247
 31
0.0
 53
90.0
  1
<>
  3
ME10_DIM_0
100
AcDbAlignedDimension
 13
-178.136203800414
 23
-300.232395104566
 14
-178.136203800414
 24
-355.232395104566
 50
90.0
100
AcDbRotatedDimension
  0
TEXT
  5
295
100
AcDbEntity
  8
1
 62
           2
100
AcDbText
 10
575.107222068072
 20
378.857972332917
 40
15.0
  1
M16x32
 41
0.9
  7
CONVERTER_2
100
AcDbText
  0
TEXT
  5
294
100
AcDbEntity
  8
1
 62
           2
100
AcDbText
 10
-225.554878388548
 20
378.857972332917
 40
15.0
  1
M16x32
 41
0.9
  7
CONVERTER_2
100
AcDbText
  0
TEXT
  5
293
100
AcDbEntity
  8
1
 62
           2
100
AcDbText
 10
-224.618805329187
 20
-88.545264187623
 40
15.0
  1
M16x32
 41
0.9
  7
CONVERTER_2
100
AcDbText
  0
LINE
  5
292
100
AcDbEntity
  8
1
  6
CONTINUOUS
 62
           3
100
AcDbLine
 10
573.869127859077
 20
375.410117451713
 11
552.525896656206
 21
312.481523179968
  0
LINE
  5
291
100
AcDbEntity
  8
1
  6
CONTINUOUS
 62
           3
100
AcDbLine
 10
573.869127859077
 20
375.410117451713
 11
652.014016110832
 21
375.410117451713
  0
LINE
  5
290
100
AcDbEntity
  8
1
  6
CONTINUOUS
 62
           3
100
AcDbLine
 10
-226.792972597543
 20
375.410117451713
 11
-148.648084345788
 21
375.410117451713
  0
LINE
  5
28F
100
AcDbEntity
  8
1
  6
CONTINUOUS
 62
           3
100
AcDbLine
 10
-226.792972597543
 20
375.410117451713
 11
-248.136203800414
 21
312.481523179968
  0
LINE
  5
28E
100
AcDbEntity
  8
1
  6
CONTINUOUS
 62
           3
100
AcDbLine
 10
-225.856899538182
 20
-91.993119068827
 11
-248.136203800414
 21
-227.732395104566
  0
LINE
  5
28D
100
AcDbEntity
  8
1
  6
CONTINUOUS
 62
           3
100
AcDbLine
 10
-225.856899538182
 20
-91.993119068827
 11
-147.712011286427
 21
-91.993119068827
  0
INSERT
  5
2C
100
AcDbEntity
  8
0
100
AcDbBlockReference
  2
DINA3_INTERNETRAHMEN
 10
1117.455528097823
 20
-938.390379342799
 41
5.0
 42
5.0
  0
INSERT
  5
2D
100
AcDbEntity
  8
0
100
AcDbBlockReference
  2
GETRIEBE
 10
0.954534850379
 20
-98.723115774382
 41
1.0
 42
1.0
  0
ENDSEC
  0
SECTION
  2
OBJECTS
  0
DICTIONARY
  5
19
100
AcDbDictionary
  3
ACAD_GROUP
350
1A
  3
ACAD_MLINESTYLE
350
1B
  0
DICTIONARY
  5
1A
102
{ACAD_REACTORS
330
19
102
}
100
AcDbDictionary
  0
DICTIONARY
  5
1B
102
{ACAD_REACTORS
330
19
102
}
100
AcDbDictionary
  3
STANDARD
350
1C
  0
MLINESTYLE
  5
1C
102
{ACAD_REACTORS
330
1B
102
}
100
AcDbMlineStyle
  2
STANDARD
 70
           0
  3

 62
           0
 51
90.0
 52
90.0
 71
           2
 49
0.5
 62
         256
  6
BYLAYER
 49
-0.5
 62
         256
  6
BYLAYER
  0
ENDSEC
  0
EOF
