  0
SECTION
  2
HEADER
  9
$ACADVER
  1
AC1014
  9
$ACADMAINTVER
 70
           0
  9
$DWGCODEPAGE
  3
ANSI_1252
  9
$INSBASE
 10
0.0
 20
0.0
 30
0.0
  9
$EXTMIN
 10
1.000000000000E+20
 20
1.000000000000E+20
 30
1.000000000000E+20
  9
$EXTMAX
 10
-1.000000000000E+20
 20
-1.000000000000E+20
 30
-1.000000000000E+20
  9
$LIMMIN
 10
0.0
 20
0.0
  9
$LIMMAX
 10
0.0
 20
0.0
  9
$ORTHOMODE
 70
           0
  9
$REGENMODE
 70
           1
  9
$FILLMODE
 70
           1
  9
$QTEXTMODE
 70
           0
  9
$MIRRTEXT
 70
           1
  9
$DRAGMODE
 70
           2
  9
$LTSCALE
 40
1.0
  9
$OSMODE
 70
           0
  9
$ATTMODE
 70
           1
  9
$TEXTSIZE
 40
0.2
  9
$TRACEWID
 40
0.05
  9
$TEXTSTYLE
  7
STANDARD
  9
$CLAYER
  8
0
  9
$CELTYPE
  6
CONTINUOUS
  9
$CECOLOR
 62
         256
  9
$CELTSCALE
 40
1.0
  9
$DELOBJ
 70
           1
  9
$DISPSILH
 70
           0
  9
$DIMSCALE
 40
1.0
  9
$DIMASZ
 40
0.18
  9
$DIMEXO
 40
0.0625
  9
$DIMDLI
 40
0.38
  9
$DIMRND
 40
0.0
  9
$DIMDLE
 40
0.0
  9
$DIMEXE
 40
0.18
  9
$DIMTP
 40
0.0
  9
$DIMTM
 40
0.0
  9
$DIMTXT
 40
0.18
  9
$DIMCEN
 40
0.09
  9
$DIMTSZ
 40
0.0
  9
$DIMTOL
 70
           0
  9
$DIMLIM
 70
           0
  9
$DIMTIH
 70
           1
  9
$DIMTOH
 70
           1
  9
$DIMSE1
 70
           0
  9
$DIMSE2
 70
           0
  9
$DIMTAD
 70
           0
  9
$DIMZIN
 70
           0
  9
$DIMBLK
  1

  9
$DIMASO
 70
           1
  9
$DIMSHO
 70
           1
  9
$DIMPOST
  1

  9
$DIMAPOST
  1

  9
$DIMALT
 70
           0
  9
$DIMALTD
 70
           2
  9
$DIMALTF
 40
25.4
  9
$DIMLFAC
 40
1.0
  9
$DIMTOFL
 70
           0
  9
$DIMTVP
 40
0.0
  9
$DIMTIX
 70
           0
  9
$DIMSOXD
 70
           0
  9
$DIMSAH
 70
           0
  9
$DIMBLK1
  1

  9
$DIMBLK2
  1

  9
$DIMSTYLE
  2
STANDARD
  9
$DIMCLRD
 70
           0
  9
$DIMCLRE
 70
           0
  9
$DIMCLRT
 70
           0
  9
$DIMTFAC
 40
1.0
  9
$DIMGAP
 40
0.09
  9
$DIMJUST
 70
           0
  9
$DIMSD1
 70
           0
  9
$DIMSD2
 70
           0
  9
$DIMTOLJ
 70
           1
  9
$DIMTZIN
 70
           0
  9
$DIMALTZ
 70
           0
  9
$DIMALTTZ
 70
           0
  9
$DIMFIT
 70
           3
  9
$DIMUPT
 70
           0
  9
$DIMUNIT
 70
           2
  9
$DIMDEC
 70
           4
  9
$DIMTDEC
 70
           4
  9
$DIMALTU
 70
           2
  9
$DIMALTTD
 70
           2
  9
$DIMTXSTY
  7
STANDARD
  9
$DIMAUNIT
 70
           0
  9
$LUNITS
 70
           2
  9
$LUPREC
 70
           4
  9
$SKETCHINC
 40
0.1
  9
$FILLETRAD
 40
0.0
  9
$AUNITS
 70
           0
  9
$AUPREC
 70
           0
  9
$MENU
  1
acad
  9
$ELEVATION
 40
0.0
  9
$PELEVATION
 40
0.0
  9
$THICKNESS
 40
0.0
  9
$LIMCHECK
 70
           0
  9
$BLIPMODE
 70
           1
  9
$CHAMFERA
 40
0.0
  9
$CHAMFERB
 40
0.0
  9
$CHAMFERC
 40
0.0
  9
$CHAMFERD
 40
0.0
  9
$SKPOLY
 70
           0
  9
$TDCREATE
 40
0.000000000
  9
$TDUPDATE
 40
0.000000000
  9
$TDINDWG
 40
0.0000000000
  9
$TDUSRTIMER
 40
0.0000000000
  9
$USRTIMER
 70
           1
  9
$ANGBASE
 50
0.0
  9
$ANGDIR
 70
           0
  9
$PDMODE
 70
           0
  9
$PDSIZE
 40
0.0
  9
$PLINEWID
 40
0.0
  9
$COORDS
 70
           0
  9
$SPLFRAME
 70
           0
  9
$SPLINETYPE
 70
           6
  9
$SPLINESEGS
 70
           8
  9
$ATTDIA
 70
           0
  9
$ATTREQ
 70
           1
  9
$HANDLING
 70
           1
  9
$HANDSEED
  5
443
  9
$SURFTAB1
 70
           6
  9
$SURFTAB2
 70
           6
  9
$SURFTYPE
 70
           6
  9
$SURFU
 70
           6
  9
$SURFV
 70
           6
  9
$UCSNAME
  2

  9
$UCSORG
 10
0.0
 20
0.0
 30
0.0
  9
$UCSXDIR
 10
1.0
 20
0.0
 30
0.0
  9
$UCSYDIR
 10
0.0
 20
1.0
 30
0.0
  9
$PUCSNAME
  2

  9
$PUCSORG
 10
0.0
 20
0.0
 30
0.0
  9
$PUCSXDIR
 10
1.0
 20
0.0
 30
0.0
  9
$PUCSYDIR
 10
0.0
 20
1.0
 30
0.0
  9
$USERI1
 70
           0
  9
$USERI2
 70
           0
  9
$USERI3
 70
           0
  9
$USERI4
 70
           0
  9
$USERI5
 70
           0
  9
$USERR1
 40
0.0
  9
$USERR2
 40
0.0
  9
$USERR3
 40
0.0
  9
$USERR4
 40
0.0
  9
$USERR5
 40
0.0
  9
$WORLDVIEW
 70
           1
  9
$SHADEDGE
 70
           3
  9
$SHADEDIF
 70
          70
  9
$TILEMODE
 70
           1
  9
$MAXACTVP
 70
          16
  9
$PINSBASE
 10
0.0
 20
0.0
 30
0.0
  9
$PLIMCHECK
 70
           0
  9
$PEXTMIN
 10
1.000000000000E+20
 20
1.000000000000E+20
 30
1.000000000000E+20
  9
$PEXTMAX
 10
-1.000000000000E+20
 20
-1.000000000000E+20
 30
-1.000000000000E+20
  9
$PLIMMIN
 10
0.0
 20
0.0
  9
$PLIMMAX
 10
12.0
 20
9.0
  9
$UNITMODE
 70
           0
  9
$VISRETAIN
 70
           0
  9
$PLINEGEN
 70
           1
  9
$PSLTSCALE
 70
           0
  9
$TREEDEPTH
 70
        3020
  9
$PICKSTYLE
 70
           1
  9
$CMLSTYLE
  2
STANDARD
  9
$CMLJUST
 70
           0
  9
$CMLSCALE
 40
1.0
  9
$PROXYGRAPHICS
 70
           0
  9
$MEASUREMENT
 70
           1
  0
ENDSEC
  0
SECTION
  2
CLASSES
  0
CLASS
  1
LWPOLYLINE
  2
AcDbPolyline
  3
"AutoCAD"
 90
        0
280
           0
281
           1
  0
CLASS
  1
IMAGE
  2
AcDbRasterImage
  3
ISM
 90
      127
280
           0
281
           1
  0
CLASS
  1
OLE2FRAME
  2
AcDbOle2Frame
  3
""
 90
        0
280
           0
281
           1
  0
CLASS
  1
HATCH
  2
AcDbHatch
  3
"ACAD_SEDONA"
 90
        0
280
           0
281
           1
  0
CLASS
  1
DICTIONARYVAR
  2
AcDbDictionaryVar
  3
"AutoCAD"
 90
        0
280
           0
281
           0
  0
CLASS
  1
RASTERVARIABLES
  2
AcDbRasterVariables
  3
ISM
 90
        0
280
           0
281
           0
  0
CLASS
  1
IMAGEDEF
  2
AcDbRasterImageDef
  3
ISM
 90
        0
280
           0
281
           0
  0
CLASS
  1
IMAGEDEF_REACTOR
  2
AcDbRasterImageDefReactor
  3
ISM
 90
        1
280
           0
281
           0
  0
CLASS
  1
IDBUFFER
  2
AcDbIdBuffer
  3
"Acad"
 90
        0
280
           0
281
           0
  0
CLASS
  1
SPATIAL_FILTER
  2
AcDbSpatialFilter
  3
"Acad"
 90
        0
280
           0
281
           0
  0
CLASS
  1
XRECORD
  2
AcDbXrecord
  3
"<Built In>"
 90
        0
280
           0
281
           0
  0
CLASS
  1
SORTENTSTABLE
  2
AcDbSortentsTable
  3
"AutoCAD"
 90
        0
280
           0
281
           0
  0
CLASS
  1
LAYER_INDEX
  2
AcDbLayerIndex
  3
"Acad"
 90
        0
280
           0
281
           0
  0
CLASS
  1
SPATIAL_INDEX
  2
AcDbSpatialIndex
  3
"Acad"
 90
        0
280
           0
281
           0
  0
CLASS
  1
OBJECT_PTR
  2
CAseDLPNTableRecord
  3
"ASE-LPNTableRecord"
 90
        1
280
           0
281
           0
  0
CLASS
  1
LAYOUT
  2
AcDbLayout
  3
"AutoCAD 2000"
 90
        1
280
           0
281
           0
  0
CLASS
  1
PLOTSETTINGS
  2
AcDbPlotSettings
  3
"AutoCAD 2000"
 90
        1
280
           0
281
           0
  0
CLASS
  1
ACDBDICTIONARYWDFLT
  2
AcDbDictionaryWithDefault
  3
"AutoCAD 2000"
 90
        1
280
           0
281
           0
  0
CLASS
  1
ACDBPLACEHOLDER
  2
AcDbPlaceHolder
  3
"AutoCAD 2000"
 90
        1
280
           0
281
           0
  0
CLASS
  1
VBA_PROJECT
  2
AcDbVbaProject
  3
"acadvba"
 90
        1
280
           0
281
           0
  0
CLASS
  1
WIPEOUT
  2
AcDbWipeout
  3
WipeOut|AutoCAD Express Tool|expresstools@autodesk.com
 90
      127
280
           0
281
           1
  0
CLASS
  1
WIPEOUTVARIABLES
  2
AcDbWipeoutVariables
  3
WipeOut|AutoCAD Express Tool|expresstools@autodesk.com
 90
        0
280
           0
281
           0
  0
CLASS
  1
RTEXT
  2
RText
  3
RText|AutoCAD Express Tool|expresstools@autodesk.com
 90
        0
280
           0
281
           1
  0
CLASS
  1
ARCALIGNEDTEXT
  2
AcDbArcAlignedText
  3
ATEXT|AutoCAD Express Tool|expresstools@autodesk.com
 90
        0
280
           0
281
           1
  0
ENDSEC
  0
SECTION
  2
TABLES
  0
TABLE
  2
VPORT
  5
7
100
AcDbSymbolTable
 70
           1
  0
VPORT
  5
15
100
AcDbSymbolTableRecord
100
AcDbViewportTableRecord
  2
*ACTIVE
 70
           0
 10
0.0
 20
0.0
 11
1.0
 21
1.0
 12
6.591288
 22
4.579184
 13
0.0
 23
0.0
 14
1.0
 24
1.0
 15
0.0
 25
0.0
 16
0.0
 26
0.0
 36
1.0
 17
0.0
 27
0.0
 37
0.0
 40
9.158369
 41
0.688564
 42
50.0
 43
0.0
 44
0.0
 50
0.0
 51
0.0
 71
           0
 72
         100
 73
           1
 74
           1
 75
           0
 76
           0
 77
           0
 78
           0
  0
ENDTAB
  0
TABLE
  2
LTYPE
  5
4
100
AcDbSymbolTable
 70
          10
  0
LTYPE
  5
11
100
AcDbSymbolTableRecord
100
AcDbLinetypeTableRecord
  2
BYBLOCK
 70
          64
  3

 72
          65
 73
           0
 40
0.0
  0
LTYPE
  5
12
100
AcDbSymbolTableRecord
100
AcDbLinetypeTableRecord
  2
BYLAYER
 70
          64
  3

 72
          65
 73
           0
 40
0.0
  0
LTYPE
  5
13
100
AcDbSymbolTableRecord
100
AcDbLinetypeTableRecord
  2
CONTINUOUS
 70
          64
  3
Solid line
 72
          65
 73
           0
 40
0.0
  0
LTYPE
  5
1D
100
AcDbSymbolTableRecord
100
AcDbLinetypeTableRecord
  2
DASHED
 70
          64
  3
Dashed
 72
          65
 73
           2
 40
15.0
 49
12.0
 74
           0
 49
-3.0
 74
           0
  0
LTYPE
  5
1E
100
AcDbSymbolTableRecord
100
AcDbLinetypeTableRecord
  2
DOTTED
 70
          64
  3
Dotted
 72
          65
 73
           2
 40
3.5
 49
0.5
 74
           0
 49
-3.0
 74
           0
  0
LTYPE
  5
1F
100
AcDbSymbolTableRecord
100
AcDbLinetypeTableRecord
  2
DOT_CENTER
 70
          64
  3
Dot_Center
 72
          65
 73
           4
 40
2.0
 49
1.25
 74
           0
 49
-0.25
 74
           0
 49
0.25
 74
           0
 49
-0.25
 74
           0
  0
LTYPE
  5
20
100
AcDbSymbolTableRecord
100
AcDbLinetypeTableRecord
  2
LONG_DASHED
 70
          64
  3
Long_Dashed
 72
          65
 73
           2
 40
2.0
 49
1.5
 74
           0
 49
-0.5
 74
           0
  0
LTYPE
  5
21
100
AcDbSymbolTableRecord
100
AcDbLinetypeTableRecord
  2
DASH_CENTER
 70
          64
  3
Dash_Center
 72
          65
 73
           4
 40
36.0
 49
24.0
 74
           0
 49
-3.0
 74
           0
 49
6.0
 74
           0
 49
-3.0
 74
           0
  0
LTYPE
  5
22
100
AcDbSymbolTableRecord
100
AcDbLinetypeTableRecord
  2
PHANTOM
 70
          64
  3
Phantom
 72
          65
 73
           6
 40
2.5
 49
1.25
 74
           0
 49
-0.25
 74
           0
 49
0.25
 74
           0
 49
-0.25
 74
           0
 49
0.25
 74
           0
 49
-0.25
 74
           0
  0
LTYPE
  5
23
100
AcDbSymbolTableRecord
100
AcDbLinetypeTableRecord
  2
CENTER_DASH_DASH
 70
          64
  3
Center_Dash_Dash
 72
          65
 73
           6
 40
22.0
 49
12.0
 74
           0
 49
-3.0
 74
           0
 49
0.5
 74
           0
 49
-3.0
 74
           0
 49
0.5
 74
           0
 49
-3.0
 74
           0
  0
ENDTAB
  0
TABLE
  2
LAYER
  5
2
100
AcDbSymbolTable
 70
           3
  0
LAYER
  5
14
100
AcDbSymbolTableRecord
100
AcDbLayerTableRecord
  2
0
 70
           0
 62
           7
  6
CONTINUOUS
  0
LAYER
  5
24
100
AcDbSymbolTableRecord
100
AcDbLayerTableRecord
  2
KONTUR
 70
           0
 62
           7
  6
CONTINUOUS
  0
LAYER
  5
25
100
AcDbSymbolTableRecord
100
AcDbLayerTableRecord
  2
1
 70
           0
 62
           7
  6
CONTINUOUS
  0
ENDTAB
  0
TABLE
  2
STYLE
  5
3
100
AcDbSymbolTable
 70
           5
  0
STYLE
  5
17
100
AcDbSymbolTableRecord
100
AcDbTextStyleTableRecord
  2
STANDARD
 70
           0
 40
0.0
 41
1.0
 50
0.0
 71
           0
 42
0.0
  3
txt
  4

  0
STYLE
  5
16C
100
AcDbSymbolTableRecord
100
AcDbTextStyleTableRecord
  2
CONVERTER_1
 70
           0
 40
0.0
 41
0.855
 50
0.0
 71
           0
 42
0.0
  3
txt.shx
  4

  0
STYLE
  5
16E
100
AcDbSymbolTableRecord
100
AcDbTextStyleTableRecord
  2
CONVERTER_2
 70
           0
 40
0.0
 41
0.9
 50
0.0
 71
           0
 42
0.0
  3
txt.shx
  4

  0
STYLE
  5
173
100
AcDbSymbolTableRecord
100
AcDbTextStyleTableRecord
  2
CONVERTER_3
 70
           0
 40
0.0
 41
0.765
 50
15.0
 71
           0
 42
0.0
  3
txt.shx
  4

  0
STYLE
  5
188
100
AcDbSymbolTableRecord
100
AcDbTextStyleTableRecord
  2
CONVERTER_4
 70
           0
 40
0.0
 41
0.792
 50
0.0
 71
           0
 42
0.0
  3
txt.shx
  4

  0
ENDTAB
  0
TABLE
  2
VIEW
  5
5
100
AcDbSymbolTable
 70
           0
  0
ENDTAB
  0
TABLE
  2
UCS
  5
6
100
AcDbSymbolTable
 70
           0
  0
ENDTAB
  0
TABLE
  2
APPID
  5
8
100
AcDbSymbolTable
 70
           1
  0
APPID
  5
16
100
AcDbSymbolTableRecord
100
AcDbRegAppTableRecord
  2
ACAD
 70
           0
  0
ENDTAB
  0
TABLE
  2
DIMSTYLE
  5
9
100
AcDbSymbolTable
 70
          25
  0
DIMSTYLE
105
18
100
AcDbSymbolTableRecord
100
AcDbDimStyleTableRecord
  2
STANDARD
 70
           0
  3

  4

  5

  6

  7

 40
1.0
 41
0.18
 42
0.0625
 43
0.38
 44
0.18
 45
0.0
 46
0.0
 47
0.0
 48
0.0
 71
           0
 72
           0
 73
           1
 74
           1
 75
           0
 76
           0
 77
           0
 78
           0
140
0.18
141
0.09
142
0.0
143
25.4
144
1.0
145
0.0
146
1.0
147
0.09
170
           0
171
           2
172
           0
173
           0
174
           0
175
           0
176
           0
177
           0
178
           0
270
           2
271
           4
272
           4
273
           2
274
           2
275
           0
280
           0
281
           0
282
           0
283
           1
284
           0
285
           0
286
           0
287
           0
288
           0
340
17
  0
DIMSTYLE
105
2AB
100
AcDbSymbolTableRecord
100
AcDbDimStyleTableRecord
  2
ME10_DIM_0
 70
           0
  3
Ø<>
  4

  5

  6
_CLOSED
  7
_CLOSED
 40
1.0
 41
12.0
 42
0.0
 43
0.38
 44
8.0
 45
0.0
 46
0.0
 47
7.0
 48
0.0
 71
           1
 72
           0
 73
           0
 74
           0
 75
           0
 76
           0
 77
           1
 78
           8
140
12.0
141
0.09
142
0.0
143
25.4
144
1.0
145
0.0
146
0.6
147
0.625
170
           0
171
           2
172
           0
173
           1
174
           0
175
           0
176
           3
177
           3
178
           2
270
           2
271
           2
272
           0
273
           2
274
           2
275
           0
280
           0
281
           0
282
           0
283
           1
284
           0
285
           0
286
           0
287
           3
288
           0
340
17
  0
DIMSTYLE
105
2BD
100
AcDbSymbolTableRecord
100
AcDbDimStyleTableRecord
  2
ME10_DIM_1
 70
           0
  3
Ø<>
  4

  5

  6
_CLOSED
  7
_CLOSED
 40
1.0
 41
12.0
 42
0.0
 43
0.38
 44
8.0
 45
0.0
 46
0.0
 47
7.0
 48
0.0
 71
           1
 72
           0
 73
           0
 74
           0
 75
           0
 76
           0
 77
           1
 78
           8
140
12.0
141
0.09
142
0.0
143
25.4
144
1.0
145
0.0
146
0.6
147
0.625
170
           0
171
           2
172
           0
173
           1
174
           0
175
           0
176
           3
177
           3
178
           2
270
           2
271
           2
272
           0
273
           2
274
           2
275
           0
280
           0
281
           0
282
           0
283
           1
284
           0
285
           0
286
           0
287
           3
288
           0
340
17
  0
DIMSTYLE
105
2D0
100
AcDbSymbolTableRecord
100
AcDbDimStyleTableRecord
  2
ME10_DIM_2
 70
           0
  3

  4

  5

  6
_CLOSED
  7
_CLOSED
 40
1.0
 41
12.0
 42
0.0
 43
0.38
 44
8.0
 45
0.0
 46
0.0
 47
0.0
 48
0.0
 71
           0
 72
           0
 73
           0
 74
           0
 75
           0
 76
           0
 77
           1
 78
           8
140
12.0
141
0.09
142
0.0
143
25.4
144
1.0
145
0.0
146
1.0
147
0.625
170
           0
171
           2
172
           0
173
           1
174
           0
175
           0
176
           3
177
           3
178
           2
270
           2
271
           2
272
           4
273
           2
274
           2
275
           0
280
           0
281
           0
282
           0
283
           1
284
           0
285
           0
286
           0
287
           3
288
           0
340
17
  0
DIMSTYLE
105
2E3
100
AcDbSymbolTableRecord
100
AcDbDimStyleTableRecord
  2
ME10_DIM_3
 70
           0
  3

  4

  5

  6
_CLOSED
  7
_CLOSED
 40
1.0
 41
12.0
 42
0.0
 43
0.38
 44
8.0
 45
0.0
 46
0.0
 47
0.0
 48
0.0
 71
           0
 72
           0
 73
           0
 74
           0
 75
           0
 76
           0
 77
           1
 78
           8
140
12.0
141
0.09
142
0.0
143
25.4
144
1.0
145
0.0
146
1.0
147
0.625
170
           0
171
           2
172
           0
173
           1
174
           0
175
           0
176
           3
177
           3
178
           2
270
           2
271
           2
272
           4
273
           2
274
           2
275
           0
280
           0
281
           0
282
           0
283
           1
284
           0
285
           0
286
           0
287
           3
288
           0
340
17
  0
DIMSTYLE
105
2F4
100
AcDbSymbolTableRecord
100
AcDbDimStyleTableRecord
  2
ME10_DIM_4
 70
           0
  3

  4

  5

  6
_CLOSED
  7
_CLOSED
 40
1.0
 41
12.0
 42
0.0
 43
0.38
 44
8.0
 45
0.0
 46
0.0
 47
0.0
 48
0.0
 71
           0
 72
           0
 73
           0
 74
           0
 75
           0
 76
           0
 77
           1
 78
           8
140
12.0
141
0.09
142
0.0
143
25.4
144
1.0
145
0.0
146
1.0
147
0.625
170
           0
171
           2
172
           0
173
           1
174
           0
175
           0
176
           3
177
           3
178
           2
270
           2
271
           2
272
           4
273
           2
274
           2
275
           0
280
           0
281
           0
282
           0
283
           1
284
           0
285
           0
286
           0
287
           3
288
           0
340
17
  0
DIMSTYLE
105
305
100
AcDbSymbolTableRecord
100
AcDbDimStyleTableRecord
  2
ME10_DIM_5
 70
           0
  3

  4

  5

  6
_CLOSED
  7
_CLOSED
 40
1.0
 41
12.0
 42
0.0
 43
0.38
 44
8.0
 45
0.0
 46
0.0
 47
0.0
 48
0.0
 71
           0
 72
           0
 73
           0
 74
           0
 75
           0
 76
           0
 77
           1
 78
           8
140
12.0
141
0.09
142
0.0
143
25.4
144
1.0
145
0.0
146
1.0
147
0.625
170
           0
171
           2
172
           0
173
           1
174
           0
175
           0
176
           3
177
           3
178
           2
270
           2
271
           2
272
           4
273
           2
274
           2
275
           0
280
           0
281
           0
282
           0
283
           1
284
           0
285
           0
286
           0
287
           3
288
           0
340
17
  0
DIMSTYLE
105
316
100
AcDbSymbolTableRecord
100
AcDbDimStyleTableRecord
  2
ME10_DIM_6
 70
           0
  3

  4

  5

  6
_CLOSED
  7
_CLOSED
 40
1.0
 41
12.0
 42
0.0
 43
0.38
 44
8.0
 45
0.0
 46
0.0
 47
0.0
 48
0.0
 71
           0
 72
           0
 73
           0
 74
           0
 75
           0
 76
           0
 77
           1
 78
           8
140
12.0
141
0.09
142
0.0
143
25.4
144
1.0
145
0.0
146
1.0
147
0.625
170
           0
171
           2
172
           0
173
           1
174
           0
175
           0
176
           3
177
           3
178
           2
270
           2
271
           2
272
           4
273
           2
274
           2
275
           0
280
           0
281
           0
282
           0
283
           1
284
           0
285
           0
286
           0
287
           3
288
           0
340
17
  0
DIMSTYLE
105
327
100
AcDbSymbolTableRecord
100
AcDbDimStyleTableRecord
  2
ME10_DIM_7
 70
           0
  3

  4

  5

  6
_CLOSED
  7
_CLOSED
 40
1.0
 41
12.0
 42
0.0
 43
0.38
 44
8.0
 45
0.0
 46
0.0
 47
0.0
 48
0.0
 71
           0
 72
           0
 73
           0
 74
           0
 75
           0
 76
           0
 77
           1
 78
           8
140
12.0
141
0.09
142
0.0
143
25.4
144
1.0
145
0.0
146
1.0
147
0.625
170
           0
171
           2
172
           0
173
           1
174
           0
175
           0
176
           3
177
           3
178
           2
270
           2
271
           2
272
           4
273
           2
274
           2
275
           0
280
           0
281
           0
282
           0
283
           1
284
           0
285
           0
286
           0
287
           3
288
           0
340
17
  0
DIMSTYLE
105
338
100
AcDbSymbolTableRecord
100
AcDbDimStyleTableRecord
  2
ME10_DIM_8
 70
           0
  3

  4

  5

  6
_CLOSED
  7
_CLOSED
 40
1.0
 41
12.0
 42
0.0
 43
0.38
 44
8.0
 45
0.0
 46
0.0
 47
0.0
 48
0.0
 71
           0
 72
           0
 73
           0
 74
           0
 75
           0
 76
           0
 77
           1
 78
           8
140
12.0
141
0.09
142
0.0
143
25.4
144
1.0
145
0.0
146
1.0
147
0.625
170
           0
171
           2
172
           0
173
           1
174
           0
175
           0
176
           3
177
           3
178
           2
270
           2
271
           2
272
           4
273
           2
274
           2
275
           0
280
           0
281
           0
282
           0
283
           1
284
           0
285
           0
286
           0
287
           3
288
           0
340
17
  0
DIMSTYLE
105
349
100
AcDbSymbolTableRecord
100
AcDbDimStyleTableRecord
  2
ME10_DIM_9
 70
           0
  3

  4

  5

  6
_CLOSED
  7
_CLOSED
 40
1.0
 41
12.0
 42
0.0
 43
0.38
 44
8.0
 45
0.0
 46
0.0
 47
0.0
 48
0.0
 71
           0
 72
           0
 73
           0
 74
           0
 75
           0
 76
           0
 77
           1
 78
           8
140
12.0
141
0.09
142
0.0
143
25.4
144
1.0
145
0.0
146
1.0
147
0.625
170
           0
171
           2
172
           0
173
           1
174
           0
175
           0
176
           3
177
           3
178
           2
270
           2
271
           2
272
           4
273
           2
274
           2
275
           0
280
           0
281
           0
282
           0
283
           1
284
           0
285
           0
286
           0
287
           3
288
           0
340
17
  0
DIMSTYLE
105
35A
100
AcDbSymbolTableRecord
100
AcDbDimStyleTableRecord
  2
ME10_DIM_10
 70
           0
  3

  4

  5

  6
_CLOSED
  7
_CLOSED
 40
1.0
 41
12.0
 42
0.0
 43
0.38
 44
8.0
 45
0.0
 46
0.0
 47
0.0
 48
0.0
 71
           0
 72
           0
 73
           0
 74
           0
 75
           0
 76
           0
 77
           1
 78
           8
140
12.0
141
0.09
142
0.0
143
25.4
144
1.0
145
0.0
146
1.0
147
0.625
170
           0
171
           2
172
           0
173
           1
174
           0
175
           0
176
           3
177
           3
178
           2
270
           2
271
           2
272
           4
273
           2
274
           2
275
           0
280
           0
281
           0
282
           0
283
           1
284
           0
285
           0
286
           0
287
           3
288
           0
340
17
  0
DIMSTYLE
105
36B
100
AcDbSymbolTableRecord
100
AcDbDimStyleTableRecord
  2
ME10_DIM_11
 70
           0
  3

  4

  5

  6
_CLOSED
  7
_CLOSED
 40
1.0
 41
12.0
 42
0.0
 43
0.38
 44
8.0
 45
0.0
 46
0.0
 47
0.0
 48
0.0
 71
           0
 72
           0
 73
           0
 74
           0
 75
           0
 76
           0
 77
           1
 78
           8
140
12.0
141
0.09
142
0.0
143
25.4
144
1.0
145
0.0
146
1.0
147
0.625
170
           0
171
           2
172
           0
173
           1
174
           0
175
           0
176
           3
177
           3
178
           2
270
           2
271
           2
272
           4
273
           2
274
           2
275
           0
280
           0
281
           0
282
           0
283
           1
284
           0
285
           0
286
           0
287
           3
288
           0
340
17
  0
DIMSTYLE
105
37E
100
AcDbSymbolTableRecord
100
AcDbDimStyleTableRecord
  2
ME10_DIM_12
 70
           0
  3

  4

  5

  6
_CLOSED
  7
_CLOSED
 40
1.0
 41
12.0
 42
0.0
 43
0.38
 44
8.0
 45
0.0
 46
0.0
 47
0.0
 48
0.0
 71
           0
 72
           0
 73
           0
 74
           0
 75
           0
 76
           0
 77
           1
 78
           8
140
12.0
141
0.09
142
0.0
143
25.4
144
1.0
145
0.0
146
1.0
147
0.625
170
           0
171
           2
172
           0
173
           1
174
           0
175
           0
176
           3
177
           3
178
           2
270
           2
271
           2
272
           4
273
           2
274
           2
275
           0
280
           0
281
           0
282
           0
283
           1
284
           0
285
           0
286
           0
287
           3
288
           0
340
17
  0
DIMSTYLE
105
390
100
AcDbSymbolTableRecord
100
AcDbDimStyleTableRecord
  2
ME10_DIM_13
 70
           0
  3

  4

  5

  6
_CLOSED
  7
_CLOSED
 40
1.0
 41
12.0
 42
0.0
 43
0.38
 44
8.0
 45
0.0
 46
0.0
 47
0.0
 48
0.0
 71
           0
 72
           0
 73
           0
 74
           0
 75
           0
 76
           0
 77
           1
 78
           8
140
12.0
141
0.09
142
0.0
143
25.4
144
1.0
145
0.0
146
1.0
147
0.625
170
           0
171
           2
172
           0
173
           1
174
           0
175
           0
176
           3
177
           3
178
           2
270
           2
271
           2
272
           4
273
           2
274
           2
275
           0
280
           0
281
           0
282
           0
283
           1
284
           0
285
           0
286
           0
287
           3
288
           0
340
17
  0
DIMSTYLE
105
3A1
100
AcDbSymbolTableRecord
100
AcDbDimStyleTableRecord
  2
ME10_DIM_14
 70
           0
  3
Ø<>
  4

  5

  6
_CLOSED
  7
_CLOSED
 40
1.0
 41
12.0
 42
0.0
 43
0.38
 44
8.0
 45
0.0
 46
0.0
 47
0.0
 48
-8.0
 71
           1
 72
           0
 73
           0
 74
           0
 75
           0
 76
           0
 77
           1
 78
           8
140
12.0
141
0.09
142
0.0
143
25.4
144
1.0
145
0.0
146
0.6
147
0.625
170
           0
171
           2
172
           0
173
           1
174
           0
175
           0
176
           3
177
           3
178
           2
270
           2
271
           2
272
           0
273
           2
274
           2
275
           0
280
           0
281
           0
282
           0
283
           1
284
           0
285
           0
286
           0
287
           3
288
           0
340
17
  0
DIMSTYLE
105
3B2
100
AcDbSymbolTableRecord
100
AcDbDimStyleTableRecord
  2
ME10_DIM_15
 70
           0
  3
Ø<>
  4

  5

  6
_CLOSED
  7
_CLOSED
 40
1.0
 41
12.0
 42
0.0
 43
0.38
 44
8.0
 45
0.0
 46
0.0
 47
0.0
 48
0.0
 71
           0
 72
           0
 73
           0
 74
           0
 75
           0
 76
           0
 77
           1
 78
           8
140
12.0
141
0.09
142
0.0
143
25.4
144
1.0
145
0.0
146
1.0
147
0.625
170
           0
171
           2
172
           0
173
           1
174
           0
175
           0
176
           3
177
           3
178
           2
270
           2
271
           2
272
           4
273
           2
274
           2
275
           0
280
           0
281
           0
282
           0
283
           1
284
           0
285
           0
286
           0
287
           3
288
           0
340
17
  0
DIMSTYLE
105
3C5
100
AcDbSymbolTableRecord
100
AcDbDimStyleTableRecord
  2
ME10_DIM_16
 70
           0
  3
Ø<>
  4

  5

  6
_CLOSED
  7
_CLOSED
 40
1.0
 41
12.0
 42
0.0
 43
0.38
 44
8.0
 45
0.0
 46
0.0
 47
0.0
 48
-6.0
 71
           1
 72
           0
 73
           0
 74
           0
 75
           0
 76
           0
 77
           1
 78
           8
140
12.0
141
0.09
142
0.0
143
25.4
144
1.0
145
0.0
146
0.6
147
0.625
170
           0
171
           2
172
           0
173
           1
174
           0
175
           0
176
           3
177
           3
178
           2
270
           2
271
           2
272
           0
273
           2
274
           2
275
           0
280
           0
281
           0
282
           0
283
           1
284
           0
285
           0
286
           0
287
           3
288
           0
340
17
  0
DIMSTYLE
105
3D6
100
AcDbSymbolTableRecord
100
AcDbDimStyleTableRecord
  2
ME10_DIM_17
 70
           0
  3
Ø<>
  4

  5

  6
_CLOSED
  7
_CLOSED
 40
1.0
 41
12.0
 42
0.0
 43
0.38
 44
8.0
 45
0.0
 46
0.0
 47
0.0
 48
-8.0
 71
           1
 72
           0
 73
           0
 74
           0
 75
           0
 76
           0
 77
           1
 78
           8
140
12.0
141
0.09
142
0.0
143
25.4
144
1.0
145
0.0
146
0.6
147
0.625
170
           0
171
           2
172
           0
173
           1
174
           0
175
           0
176
           3
177
           3
178
           2
270
           2
271
           2
272
           0
273
           2
274
           2
275
           0
280
           0
281
           0
282
           0
283
           1
284
           0
285
           0
286
           0
287
           3
288
           0
340
17
  0
DIMSTYLE
105
3E7
100
AcDbSymbolTableRecord
100
AcDbDimStyleTableRecord
  2
ME10_DIM_18
 70
           0
  3

  4

  5

  6
_CLOSED
  7
_CLOSED
 40
1.0
 41
12.0
 42
0.0
 43
0.38
 44
8.0
 45
0.0
 46
0.0
 47
0.0
 48
0.0
 71
           0
 72
           0
 73
           0
 74
           0
 75
           0
 76
           0
 77
           1
 78
           8
140
12.0
141
0.09
142
0.0
143
25.4
144
1.0
145
0.0
146
1.0
147
0.625
170
           0
171
           2
172
           0
173
           1
174
           0
175
           0
176
           3
177
           3
178
           2
270
           2
271
           2
272
           4
273
           2
274
           2
275
           0
280
           0
281
           0
282
           0
283
           1
284
           0
285
           0
286
           0
287
           3
288
           0
340
17
  0
DIMSTYLE
105
3F8
100
AcDbSymbolTableRecord
100
AcDbDimStyleTableRecord
  2
ME10_DIM_19
 70
           0
  3

  4

  5

  6
_CLOSED
  7
_CLOSED
 40
1.0
 41
12.0
 42
0.0
 43
0.38
 44
8.0
 45
0.0
 46
0.0
 47
0.0
 48
0.0
 71
           0
 72
           0
 73
           0
 74
           0
 75
           0
 76
           0
 77
           1
 78
           8
140
12.0
141
0.09
142
0.0
143
25.4
144
1.0
145
0.0
146
1.0
147
0.625
170
           0
171
           2
172
           0
173
           1
174
           0
175
           0
176
           3
177
           3
178
           2
270
           2
271
           2
272
           4
273
           2
274
           2
275
           0
280
           0
281
           0
282
           0
283
           1
284
           0
285
           0
286
           0
287
           3
288
           0
340
17
  0
DIMSTYLE
105
40A
100
AcDbSymbolTableRecord
100
AcDbDimStyleTableRecord
  2
ME10_DIM_20
 70
           0
  3

  4

  5

  6
_CLOSED
  7
_CLOSED
 40
1.0
 41
12.0
 42
0.0
 43
0.38
 44
8.0
 45
0.0
 46
0.0
 47
0.0
 48
0.0
 71
           0
 72
           0
 73
           0
 74
           0
 75
           0
 76
           0
 77
           1
 78
           8
140
12.0
141
0.09
142
0.0
143
25.4
144
1.0
145
0.0
146
1.0
147
0.625
170
           0
171
           2
172
           0
173
           1
174
           0
175
           0
176
           3
177
           3
178
           2
270
           2
271
           2
272
           4
273
           2
274
           2
275
           0
280
           0
281
           0
282
           0
283
           1
284
           0
285
           0
286
           0
287
           3
288
           0
340
17
  0
DIMSTYLE
105
41C
100
AcDbSymbolTableRecord
100
AcDbDimStyleTableRecord
  2
ME10_DIM_21
 70
           0
  3

  4

  5

  6
_CLOSED
  7
_CLOSED
 40
1.0
 41
12.0
 42
0.0
 43
0.38
 44
8.0
 45
0.0
 46
0.0
 47
0.0
 48
0.0
 71
           0
 72
           0
 73
           0
 74
           0
 75
           0
 76
           0
 77
           1
 78
           8
140
12.0
141
0.09
142
0.0
143
25.4
144
1.0
145
0.0
146
1.0
147
0.625
170
           0
171
           2
172
           0
173
           1
174
           0
175
           0
176
           3
177
           3
178
           2
270
           2
271
           2
272
           4
273
           2
274
           2
275
           0
280
           0
281
           0
282
           0
283
           1
284
           0
285
           0
286
           0
287
           3
288
           0
340
17
  0
DIMSTYLE
105
42F
100
AcDbSymbolTableRecord
100
AcDbDimStyleTableRecord
  2
ME10_DIM_22
 70
           0
  3

  4

  5

  6
_CLOSED
  7
_CLOSED
 40
1.0
 41
12.0
 42
0.0
 43
0.38
 44
8.0
 45
0.0
 46
0.0
 47
0.0
 48
0.0
 71
           0
 72
           0
 73
           0
 74
           0
 75
           0
 76
           0
 77
           1
 78
           8
140
12.0
141
0.09
142
0.0
143
25.4
144
1.0
145
0.0
146
1.0
147
0.625
170
           0
171
           2
172
           0
173
           1
174
           0
175
           0
176
           3
177
           3
178
           2
270
           2
271
           2
272
           4
273
           2
274
           2
275
           0
280
           0
281
           0
282
           0
283
           1
284
           0
285
           0
286
           0
287
           3
288
           0
340
17
  0
DIMSTYLE
105
440
100
AcDbSymbolTableRecord
100
AcDbDimStyleTableRecord
  2
ME10_DIM_23
 70
           0
  3

  4

  5

  6
_CLOSED
  7
_CLOSED
 40
1.0
 41
12.0
 42
0.0
 43
0.38
 44
8.0
 45
0.0
 46
0.0
 47
0.0
 48
0.0
 71
           0
 72
           0
 73
           0
 74
           0
 75
           0
 76
           0
 77
           1
 78
           8
140
12.0
141
0.09
142
0.0
143
25.4
144
1.0
145
0.0
146
1.0
147
0.625
170
           0
171
           2
172
           0
173
           1
174
           0
175
           0
176
           3
177
           3
178
           2
270
           2
271
           2
272
           4
273
           2
274
           2
275
           0
280
           0
281
           0
282
           0
283
           1
284
           0
285
           0
286
           0
287
           3
288
           0
340
17
  0
ENDTAB
  0
TABLE
  2
BLOCK_RECORD
  5
1
100
AcDbSymbolTable
 70
          74
  0
BLOCK_RECORD
  5
A
100
AcDbSymbolTableRecord
100
AcDbBlockTableRecord
  2
*MODEL_SPACE
  0
BLOCK_RECORD
  5
B
100
AcDbSymbolTableRecord
100
AcDbBlockTableRecord
  2
*PAPER_SPACE
  0
BLOCK_RECORD
  5
26
100
AcDbSymbolTableRecord
100
AcDbBlockTableRecord
  2
DINA3_INTERNETRAHMEN
  0
BLOCK_RECORD
  5
28
100
AcDbSymbolTableRecord
100
AcDbBlockTableRecord
  2
GETRIEBE
  0
BLOCK_RECORD
  5
29B
100
AcDbSymbolTableRecord
100
AcDbBlockTableRecord
  2
*D2
  0
BLOCK_RECORD
  5
2AD
100
AcDbSymbolTableRecord
100
AcDbBlockTableRecord
  2
*D5
  0
BLOCK_RECORD
  5
2BF
100
AcDbSymbolTableRecord
100
AcDbBlockTableRecord
  2
*D8
  0
BLOCK_RECORD
  5
2D2
100
AcDbSymbolTableRecord
100
AcDbBlockTableRecord
  2
*D11
  0
BLOCK_RECORD
  5
2E5
100
AcDbSymbolTableRecord
100
AcDbBlockTableRecord
  2
*D14
  0
BLOCK_RECORD
  5
2F6
100
AcDbSymbolTableRecord
100
AcDbBlockTableRecord
  2
*D17
  0
BLOCK_RECORD
  5
307
100
AcDbSymbolTableRecord
100
AcDbBlockTableRecord
  2
*D20
  0
BLOCK_RECORD
  5
318
100
AcDbSymbolTableRecord
100
AcDbBlockTableRecord
  2
*D23
  0
BLOCK_RECORD
  5
329
100
AcDbSymbolTableRecord
100
AcDbBlockTableRecord
  2
*D26
  0
BLOCK_RECORD
  5
33A
100
AcDbSymbolTableRecord
100
AcDbBlockTableRecord
  2
*D29
  0
BLOCK_RECORD
  5
34B
100
AcDbSymbolTableRecord
100
AcDbBlockTableRecord
  2
*D32
  0
BLOCK_RECORD
  5
35C
100
AcDbSymbolTableRecord
100
AcDbBlockTableRecord
  2
*D35
  0
BLOCK_RECORD
  5
36D
100
AcDbSymbolTableRecord
100
AcDbBlockTableRecord
  2
*D38
  0
BLOCK_RECORD
  5
380
100
AcDbSymbolTableRecord
100
AcDbBlockTableRecord
  2
*D41
  0
BLOCK_RECORD
  5
392
100
AcDbSymbolTableRecord
100
AcDbBlockTableRecord
  2
*D44
  0
BLOCK_RECORD
  5
3A3
100
AcDbSymbolTableRecord
100
AcDbBlockTableRecord
  2
*D47
  0
BLOCK_RECORD
  5
3B4
100
AcDbSymbolTableRecord
100
AcDbBlockTableRecord
  2
*D50
  0
BLOCK_RECORD
  5
3C7
100
AcDbSymbolTableRecord
100
AcDbBlockTableRecord
  2
*D53
  0
BLOCK_RECORD
  5
3D8
100
AcDbSymbolTableRecord
100
AcDbBlockTableRecord
  2
*D56
  0
BLOCK_RECORD
  5
3E9
100
AcDbSymbolTableRecord
100
AcDbBlockTableRecord
  2
*D59
  0
BLOCK_RECORD
  5
3FA
100
AcDbSymbolTableRecord
100
AcDbBlockTableRecord
  2
*D62
  0
BLOCK_RECORD
  5
40C
100
AcDbSymbolTableRecord
100
AcDbBlockTableRecord
  2
*D65
  0
BLOCK_RECORD
  5
41E
100
AcDbSymbolTableRecord
100
AcDbBlockTableRecord
  2
*D68
  0
BLOCK_RECORD
  5
431
100
AcDbSymbolTableRecord
100
AcDbBlockTableRecord
  2
*D71
  0
ENDTAB
  0
ENDSEC
  0
SECTION
  2
BLOCKS
  0
BLOCK
  5
D
100
AcDbEntity
  8
0
100
AcDbBlockBegin
  2
*MODEL_SPACE
 70
           0
 10
0.0
 20
0.0
 30
0.0
  3
*MODEL_SPACE
  1

  0
ENDBLK
  5
E
100
AcDbEntity
  8
0
100
AcDbBlockEnd
  0
BLOCK
  5
F
100
AcDbEntity
 67
           1
  8
0
100
AcDbBlockBegin
  2
*PAPER_SPACE
 70
           0
 10
0.0
 20
0.0
 30
0.0
  3
*PAPER_SPACE
  1

  0
ENDBLK
  5
10
100
AcDbEntity
 67
           1
  8
0
100
AcDbBlockEnd
  0
BLOCK
  5
27
100
AcDbEntity
  8
0
100
AcDbBlockBegin
  2
DINA3_INTERNETRAHMEN
 70
           0
 10
225.59094045808
 20
-191.309044553879
 30
0.0
  3
DINA3_INTERNETRAHMEN
  1

  0
HATCH
  5
196
100
AcDbEntity
  8
0
  6
CONTINUOUS
 62
           3
100
AcDbHatch
 10
0.0
 20
0.0
 30
0.0
210
0.0
220
0.0
230
1.0
  2
USER
 70
           0
 71
           1
 91
        2
 92
        1
 93
       66
 72
           1
 10
165.61621652925581
 20
-153.9269762393784
 11
169.2050601829107
 21
-153.9269762393784
 72
           1
 10
169.2050601829107
 20
-153.9269762393784
 11
169.40805345838569
 21
-153.92651675998101
 72
           1
 10
169.40805345838569
 20
-153.92651675998101
 11
169.61054851501501
 21
-153.92751627513371
 72
           1
 10
169.61054851501501
 20
-153.92751627513371
 11
169.81256992080699
 21
-153.9319767979762
 72
           1
 10
169.81256992080699
 20
-153.9319767979762
 11
170.01502022302651
 21
-153.942822283281
 72
           1
 10
170.01502022302651
 20
-153.942822283281
 11
170.21887655962021
 21
-153.9630923013824
 72
           1
 10
170.21887655962021
 20
-153.9630923013824
 11
170.42265457599669
 21
-153.99738909741879
 72
           1
 10
170.42265457599669
 20
-153.99738909741879
 11
170.61980521019001
 21
-154.05355961123851
 72
           1
 10
170.61980521019001
 20
-154.05355961123851
 11
170.8031341908266
 21
-154.13986476098481
 72
           1
 10
170.8031341908266
 20
-154.13986476098481
 11
170.96531671283759
 21
-154.26339439107389
 72
           1
 10
170.96531671283759
 20
-154.26339439107389
 11
171.0976592321208
 21
-154.42050474664109
 72
           1
 10
171.0976592321208
 20
-154.42050474664109
 11
171.19090504491811
 21
-154.6017638358249
 72
           1
 10
171.19090504491811
 20
-154.6017638358249
 11
171.2445805003932
 21
-154.79792614346869
 72
           1
 10
171.2445805003932
 20
-154.79792614346869
 11
171.27113478353539
 21
-155.0001638622424
 72
           1
 10
171.27113478353539
 20
-155.0001638622424
 11
171.28207723672901
 21
-155.20247244216361
 72
           1
 10
171.28207723672901
 20
-155.20247244216361
 11
171.28462450855301
 21
-155.4050047941349
 72
           1
 10
171.28462450855301
 20
-155.4050047941349
 11
171.2854077107242
 21
-155.60870821982849
 72
           1
 10
171.2854077107242
 20
-155.60870821982849
 11
171.2841508577159
 21
-155.81325079070501
 72
           1
 10
171.2841508577159
 20
-155.81325079070501
 11
171.26344075458539
 21
-156.01509690839231
 72
           1
 10
171.26344075458539
 20
-156.01509690839231
 11
171.2036525926402
 21
-156.20996879722151
 72
           1
 10
171.2036525926402
 20
-156.20996879722151
 11
171.09659631488839
 21
-156.386364573874
 72
           1
 10
171.09659631488839
 20
-156.386364573874
 11
170.9469674048236
 21
-156.52469299546621
 72
           1
 10
170.9469674048236
 20
-156.52469299546621
 11
170.764462651234
 21
-156.6147985405112
 72
           1
 10
170.764462651234
 20
-156.6147985405112
 11
170.56784906995799
 21
-156.66810850163881
 72
           1
 10
170.56784906995799
 20
-156.66810850163881
 11
170.36710689437879
 21
-156.6960949258935
 72
           1
 10
170.36710689437879
 20
-156.6960949258935
 11
170.36710689437879
 21
-156.709703996005
 72
           1
 10
170.36710689437879
 20
-156.709703996005
 11
170.4767067144206
 21
-156.7343860530035
 72
           1
 10
170.4767067144206
 20
-156.7343860530035
 11
170.58500119751
 21
-156.7627789964809
 72
           1
 10
170.58500119751
 20
-156.7627789964809
 11
170.69067754762671
 21
-156.79860117198351
 72
           1
 10
170.69067754762671
 20
-156.79860117198351
 11
170.79251993663831
 21
-156.84487350217231
 72
           1
 10
170.79251993663831
 20
-156.84487350217231
 11
170.8888687218479
 21
-156.90219271251121
 72
           1
 10
170.8888687218479
 20
-156.90219271251121
 11
170.97690437543889
 21
-156.9717522539276
 72
           1
 10
170.97690437543889
 20
-156.9717522539276
 11
171.05345306385081
 21
-157.0539362684386
 72
           1
 10
171.05345306385081
 20
-157.0539362684386
 11
171.1148001710703
 21
-157.1470552770752
 72
           1
 10
171.1148001710703
 20
-157.1470552770752
 11
171.15973359849951
 21
-157.24896852723509
 72
           1
 10
171.15973359849951
 20
-157.24896852723509
 11
171.19061041172051
 21
-157.3572928465988
 72
           1
 10
171.19061041172051
 20
-157.3572928465988
 11
171.2100524732401
 21
-157.4696338742398
 72
           1
 10
171.2100524732401
 20
-157.4696338742398
 11
171.22066299789449
 21
-157.58358979016739
 72
           1
 10
171.22066299789449
 20
-157.58358979016739
 11
171.22504520051979
 21
-157.69686693087971
 72
           1
 10
171.22504520051979
 20
-157.69686693087971
 11
171.22546663787861
 21
-157.8088238165036
 72
           1
 10
171.22546663787861
 20
-157.8088238165036
 11
171.2239524470142
 21
-157.92011311551511
 72
           1
 10
171.2239524470142
 20
-157.92011311551511
 11
171.2224569038205
 21
-158.0314136031289
 72
           1
 10
171.2224569038205
 20
-158.0314136031289
 11
171.22179304674179
 21
-158.14300499440611
 72
           1
 10
171.22179304674179
 20
-158.14300499440611
 11
171.22176694000279
 21
-158.25482015773241
 72
           1
 10
171.22176694000279
 20
-158.25482015773241
 11
171.2221361638835
 21
-158.36676958428859
 72
           1
 10
171.2221361638835
 20
-158.36676958428859
 11
171.22267321680101
 21
-158.47877868338989
 72
           1
 10
171.22267321680101
 20
-158.47877868338989
 11
171.22313567903529
 21
-158.5907616757539
 72
           1
 10
171.22313567903529
 20
-158.5907616757539
 11
171.22333334434521
 21
-158.70265142976231
 72
           1
 10
171.22333334434521
 20
-158.70265142976231
 11
171.22330723760629
 21
-158.81446286355489
 72
           1
 10
171.22330723760629
 20
-158.81446286355489
 11
171.22316551530861
 21
-158.92623700200471
 72
           1
 10
171.22316551530861
 20
-158.92623700200471
 11
170.587522362595
 21
-158.92623700200471
 72
           1
 10
170.587522362595
 20
-158.92623700200471
 11
170.58722772939689
 21
-158.6780551520489
 72
           1
 10
170.58722772939689
 20
-158.6780551520489
 11
170.58704498222369
 21
-158.4298882202288
 72
           1
 10
170.58704498222369
 20
-158.4298882202288
 11
170.5884211803249
 21
-158.18191895371859
 72
           1
 10
170.5884211803249
 20
-158.18191895371859
 11
170.58902909439129
 21
-157.93385271932121
 72
           1
 10
170.58902909439129
 20
-157.93385271932121
 11
170.58165953491229
 21
-157.6851673822537
 72
           1
 10
170.58165953491229
 20
-157.6851673822537
 11
170.54389427211791
 21
-157.43995797101499
 72
           1
 10
170.54389427211791
 20
-157.43995797101499
 11
170.4397209242635
 21
-157.21509689809221
 72
           1
 10
170.4397209242635
 20
-157.21509689809221
 11
170.25096174190551
 21
-157.054697093405
 72
           1
 10
170.25096174190551
 20
-157.054697093405
 11
170.0135395979695
 21
-156.979524603095
 72
           1
 10
170.0135395979695
 20
-156.979524603095
 11
169.76684210260399
 21
-156.95464861032011
 72
           1
 10
169.76684210260399
 20
-156.95464861032011
 11
169.51863787544269
 21
-156.9488454551834
 72
           1
 10
169.51863787544269
 20
-156.9488454551834
 11
166.2928172768145
 21
-156.9511336826437
 72
           1
 10
166.2928172768145
 20
-156.9511336826437
 11
166.2928172768145
 21
-158.9262366215535
 72
           1
 10
166.2928172768145
 20
-158.9262366215535
 11
165.61621652925581
 21
-158.9262366215535
 72
           1
 10
165.61621652925581
 20
-158.9262366215535
 11
165.61621652925581
 21
-153.9269762393784
 97
       64
330
107
330
169
330
A4
330
A3
330
A2
330
A1
330
A0
330
9F
330
9E
330
9D
330
9C
330
9B
330
9A
330
99
330
98
330
97
330
96
330
95
330
94
330
93
330
92
330
91
330
90
330
8F
330
168
330
ED
330
EC
330
EB
330
EA
330
E9
330
E8
330
E7
330
E6
330
E5
330
E4
330
E3
330
E2
330
E1
330
E0
330
DF
330
DE
330
DD
330
DC
330
DB
330
DA
330
D9
330
D8
330
D7
330
167
330
D5
330
D4
330
D3
330
D2
330
D1
330
D0
330
CF
330
CE
330
CD
330
CC
330
CB
330
166
330
10C
330
10A
330
10B
 92
       16
 93
       12
 72
           1
 10
166.2928172768145
 20
-156.39915573307229
 11
166.2928172768145
 21
-154.47929100732389
 72
           1
 10
166.2928172768145
 20
-154.47929100732389
 11
169.1868137631227
 21
-154.4793456069124
 72
           1
 10
169.1868137631227
 20
-154.4793456069124
 11
169.59985221107499
 21
-154.4831161659375
 72
           1
 10
169.59985221107499
 20
-154.4831161659375
 11
170.01543793085119
 21
-154.51858030616231
 72
           1
 10
170.01543793085119
 20
-154.51858030616231
 11
170.40031466644311
 21
-154.6650428417349
 72
           1
 10
170.40031466644311
 20
-154.6650428417349
 11
170.5972900125316
 21
-155.01984461394721
 72
           1
 10
170.5972900125316
 20
-155.01984461394721
 11
170.60813176830311
 21
-155.4365864893098
 72
           1
 10
170.60813176830311
 20
-155.4365864893098
 11
170.59445556657809
 21
-155.84977038909361
 72
           1
 10
170.59445556657809
 20
-155.84977038909361
 11
170.39332924898179
 21
-156.20310272485261
 72
           1
 10
170.39332924898179
 20
-156.20310272485261
 11
170.01189487340949
 21
-156.3619249365949
 72
           1
 10
170.01189487340949
 20
-156.3619249365949
 11
169.60044893653901
 21
-156.39828043547999
 72
           1
 10
169.60044893653901
 20
-156.39828043547999
 11
166.2928172768145
 21
-156.39915573307229
 97
       12
330
106
330
16B
330
B6
330
B5
330
B4
330
B3
330
B2
330
B1
330
B0
330
AF
330
AE
330
16A
 75
           1
 76
           0
 52
0.0
 41
0.3
 77
           0
 78
           1
 53
0.0
 43
463.014737656294
 44
-326.933005700425
 45
0.0
 46
0.3
 79
           0
 98
        1
 10
0.0
 20
0.0
  0
HATCH
  5
195
100
AcDbEntity
  8
0
  6
CONTINUOUS
 62
           3
100
AcDbHatch
 10
0.0
 20
0.0
 30
0.0
210
0.0
220
0.0
230
1.0
  2
USER
 70
           0
 71
           1
 91
        3
 92
        1
 93
       27
 72
           1
 10
184.7828468480715
 20
-153.92697629072609
 11
189.05442258823419
 21
-153.9259200345173
 72
           1
 10
189.05442258823419
 20
-153.9259200345173
 11
189.38271856124899
 21
-153.9488342923301
 72
           1
 10
189.38271856124899
 20
-153.9488342923301
 11
189.70746401775401
 21
-154.0234473525185
 72
           1
 10
189.70746401775401
 20
-154.0234473525185
 11
189.9970996397777
 21
-154.1789129835264
 72
           1
 10
189.9970996397777
 20
-154.1789129835264
 11
190.2137557375714
 21
-154.43081317903
 72
           1
 10
190.2137557375714
 20
-154.43081317903
 11
190.34190253093769
 21
-154.741591530146
 72
           1
 10
190.34190253093769
 20
-154.741591530146
 11
190.37870557392139
 21
-155.0669076053762
 72
           1
 10
190.37870557392139
 20
-155.0669076053762
 11
190.37038125370029
 21
-155.39975361005239
 72
           1
 10
190.37038125370029
 20
-155.39975361005239
 11
190.32861793029781
 21
-155.729675659956
 72
           1
 10
190.32861793029781
 20
-155.729675659956
 11
190.16295202339151
 21
-156.0078056691309
 72
           1
 10
190.16295202339151
 20
-156.0078056691309
 11
189.88551197803531
 21
-156.18199356156731
 72
           1
 10
189.88551197803531
 20
-156.18199356156731
 11
189.56535016313649
 21
-156.25432383270851
 72
           1
 10
189.56535016313649
 20
-156.25432383270851
 11
189.56535016313649
 21
-156.28167348459081
 72
           1
 10
189.56535016313649
 20
-156.28167348459081
 11
189.9186973728942
 21
-156.33462474662269
 72
           1
 10
189.9186973728942
 20
-156.33462474662269
 11
190.24110068195409
 21
-156.48197491132231
 72
           1
 10
190.24110068195409
 20
-156.48197491132231
 11
190.46604380462639
 21
-156.7551185333385
 72
           1
 10
190.46604380462639
 20
-156.7551185333385
 11
190.55834977481911
 21
-157.09823940459609
 72
           1
 10
190.55834977481911
 20
-157.09823940459609
 11
190.56756172416669
 21
-157.4537199520251
 72
           1
 10
190.56756172416669
 20
-157.4537199520251
 11
190.56871042068539
 21
-157.808913325324
 72
           1
 10
190.56871042068539
 20
-157.808913325324
 11
190.5216959132004
 21
-158.16305124045761
 72
           1
 10
190.5216959132004
 20
-158.16305124045761
 11
190.3537027769853
 21
-158.47488877927239
 72
           1
 10
190.3537027769853
 20
-158.47488877927239
 11
190.0796118532941
 21
-158.70246122352111
 72
           1
 10
190.0796118532941
 20
-158.70246122352111
 11
189.75256900375419
 21
-158.84156911775111
 72
           1
 10
189.75256900375419
 20
-158.84156911775111
 11
189.40380534732901
 21
-158.9107034922734
 72
           1
 10
189.40380534732901
 20
-158.9107034922734
 11
189.0487387781902
 21
-158.92674421864999
 72
           1
 10
189.0487387781902
 20
-158.92674421864999
 11
184.7828454048927
 21
-158.92623700200471
 72
           1
 10
184.7828454048927
 20
-158.92623700200471
 11
184.7828468480715
 21
-153.92697629072609
 97
       26
330
163
330
38
330
37
330
36
330
35
330
34
330
33
330
32
330
31
330
30
330
2F
330
162
330
FB
330
161
330
74
330
73
330
72
330
71
330
70
330
6F
330
6E
330
6D
330
6C
330
6B
330
6A
330
160
 92
       16
 93
       10
 72
           1
 10
185.45657019533539
 20
-156.07405863951209
 11
185.45657019533539
 21
-154.47929100732389
 72
           1
 10
185.45657019533539
 20
-156.07405863951209
 11
188.6410261050041
 21
-156.0780365266935
 72
           1
 10
188.6410261050041
 20
-156.0780365266935
 11
189.03963871486641
 21
-156.0698763059749
 72
           1
 10
189.03963871486641
 20
-156.0698763059749
 11
189.42511590545669
 21
-155.97549298526241
 72
           1
 10
189.42511590545669
 20
-155.97549298526241
 11
189.66904981601789
 21
-155.6669933795111
 72
           1
 10
189.66904981601789
 20
-155.6669933795111
 11
189.6968423044965
 21
-155.2713681265015
 72
           1
 10
189.6968423044965
 20
-155.2713681265015
 11
189.68096940715779
 21
-154.87158071338141
 72
           1
 10
189.68096940715779
 20
-154.87158071338141
 11
189.42736854408281
 21
-154.57286740523759
 72
           1
 10
189.42736854408281
 20
-154.57286740523759
 11
189.0392508433153
 21
-154.48164672948371
 72
           1
 10
189.0392508433153
 20
-154.48164672948371
 11
185.45657019533539
 21
-154.47929100732389
 97
        2
330
FC
330
165
 92
       16
 93
       19
 72
           1
 10
185.45657083080289
 20
-156.6268449358127
 11
185.45657019533539
 21
-158.37345030788759
 72
           1
 10
185.45657019533539
 20
-158.37345030788759
 11
188.80623700874401
 21
-158.37474705783359
 72
           1
 10
188.80623700874401
 20
-158.37474705783359
 11
189.22491451232901
 21
-158.36497194882821
 72
           1
 10
189.22491451232901
 20
-158.36497194882821
 11
189.626152714234
 21
-158.25420478459731
 72
           1
 10
189.626152714234
 20
-158.25420478459731
 11
189.8668792254266
 21
-157.92180632401889
 72
           1
 10
189.8668792254266
 20
-157.92180632401889
 11
189.88974872882909
 21
-157.50410968791491
 72
           1
 10
189.88974872882909
 20
-157.50410968791491
 11
189.86353010376041
 21
-157.0861333367485
 72
           1
 10
189.86353010376041
 20
-157.0861333367485
 11
189.63464113395651
 21
-156.75052747680121
 72
           1
 10
189.63464113395651
 20
-156.75052747680121
 11
189.22319892662031
 21
-156.63591516286371
 72
           1
 10
189.22319892662031
 20
-156.63591516286371
 11
188.80448412769411
 21
-156.6220487548963
 72
           1
 10
188.80448412769411
 20
-156.6220487548963
 11
188.3884396752164
 21
-156.62938474856739
 72
           1
 10
188.3884396752164
 20
-156.62938474856739
 11
187.96924749591901
 21
-156.62797498466011
 72
           1
 10
187.96924749591901
 20
-156.62797498466011
 11
187.54987629898139
 21
-156.62605054503859
 72
           1
 10
187.54987629898139
 20
-156.62605054503859
 11
187.13131068141911
 21
-156.6264906300689
 72
           1
 10
187.13131068141911
 20
-156.6264906300689
 11
186.71275998199519
 21
-156.62697546950719
 72
           1
 10
186.71275998199519
 20
-156.62697546950719
 11
186.2940004286578
 21
-156.6268374767433
 72
           1
 10
186.2940004286578
 20
-156.6268374767433
 11
185.87527817066291
 21
-156.62683374720979
 72
           1
 10
185.87527817066291
 20
-156.62683374720979
 11
185.45657083080289
 21
-156.6268449358127
 72
           1
 10
185.45657083080289
 20
-156.6268449358127
 11
185.45657083080289
 21
-156.6268449358127
 97
        1
330
164
 75
           1
 76
           0
 52
0.0
 41
0.3
 77
           0
 78
           1
 53
0.0
 43
478.378850264612
 44
-326.102403568464
 45
0.0
 46
0.3
 79
           0
 98
        1
 10
0.0
 20
0.0
  0
HATCH
  5
194
100
AcDbEntity
  8
0
  6
CONTINUOUS
 62
           1
100
AcDbHatch
 10
0.0
 20
0.0
 30
0.0
210
0.0
220
0.0
230
1.0
  2
USER
 70
           0
 71
           1
 91
        1
 92
        1
 93
        4
 72
           2
 10
137.31669999508159
 20
-142.9978600386425
 40
7.9080459764772737
 50
-111.389835812798
 51
-28.017530678762
 73
           1
 72
           1
 10
134.20656646450649
 20
-151.01765606584391
 11
134.4325438098135
 21
-150.36120399808499
 72
           2
 10
137.31840965321999
 20
-143.00146683892049
 40
8.599003299975271
 50
-111.215954643911
 51
-27.268535966438
 73
           1
 72
           1
 10
144.29795388955111
 20
-146.71259895639099
 11
144.96179682945581
 21
-146.94119909214959
 97
        4
330
15E
330
136
330
15F
330
FA
 75
           1
 76
           0
 52
20.0
 41
0.2
 77
           0
 78
           1
 53
20.0
 43
438.579971957639
 44
-322.79498074093
 45
-0.0684040286651337
 46
0.1879385241571817
 79
           0
 98
        1
 10
0.0
 20
0.0
  0
HATCH
  5
193
100
AcDbEntity
  8
0
  6
CONTINUOUS
 62
           4
100
AcDbHatch
 10
0.0
 20
0.0
 30
0.0
210
0.0
220
0.0
230
1.0
  2
USER
 70
           0
 71
           1
 91
        1
 92
        1
 93
        4
 72
           2
 10
147.9262711768688
 20
-157.66719820732129
 40
9.0827251411655627
 50
75.086616427323
 51
-141.583441934091
 73
           1
 72
           1
 10
141.4770726679123
 20
-161.3735322898049
 11
140.80982962097249
 21
-163.31096960342231
 72
           2
 10
147.92393250037199
 20
-157.66370321220001
 40
7.438066515191033
 50
75.966597347068
 51
-150.081834826501
 73
           1
 72
           1
 10
150.2637878715166
 20
-148.8904156708673
 11
149.72757082960371
 21
-150.44762933080631
 97
        4
330
15C
330
12B
330
15D
330
123
 75
           1
 76
           0
 52
0.0
 41
0.15
 77
           0
 78
           1
 53
0.0
 43
0.0
 44
0.0
 45
0.0
 46
0.15
 79
           0
 98
        1
 10
0.0
 20
0.0
  0
HATCH
  5
192
100
AcDbEntity
  8
0
  6
CONTINUOUS
 62
           2
100
AcDbHatch
 10
0.0
 20
0.0
 30
0.0
210
0.0
220
0.0
230
1.0
  2
USER
 70
           0
 71
           1
 91
        1
 92
        1
 93
       12
 72
           1
 10
124.05377252452131
 20
-157.725007323146
 11
127.6376545433813
 21
-155.142418976936
 72
           1
 10
124.05377252452131
 20
-158.92623631543611
 11
124.05377252452131
 21
-157.725007323146
 72
           1
 10
129.98534591195141
 20
-158.92623631543611
 11
124.05377252452131
 21
-158.92623631543611
 72
           1
 10
129.98534591195141
 20
-157.725007323146
 11
129.98534591195141
 21
-158.92623631543611
 72
           1
 10
126.32561234696129
 20
-157.725007323146
 11
129.98534591195141
 21
-157.725007323146
 72
           1
 10
126.32561234696129
 20
-157.71059170080611
 11
126.32561234696129
 21
-157.725007323146
 72
           1
 10
129.9024887378414
 20
-155.128407329906
 11
126.32561234696129
 21
-157.71059170080611
 72
           1
 10
129.9024887378414
 20
-153.92697615442609
 11
129.9024887378414
 21
-155.128407329906
 72
           1
 10
124.1503046343914
 20
-153.92697615442609
 11
129.9024887378414
 21
-153.92697615442609
 72
           1
 10
124.1503046343914
 20
-155.128407329906
 11
124.1503046343914
 21
-153.92697615442609
 72
           1
 10
127.6376545433813
 20
-155.128407329906
 11
124.1503046343914
 21
-155.128407329906
 72
           1
 10
127.6376545433813
 20
-155.142418976936
 11
127.6376545433813
 21
-155.128407329906
 97
       12
330
14D
330
148
330
149
330
142
330
14A
330
147
330
14B
330
13B
330
14C
330
146
330
14E
330
13A
 75
           1
 76
           0
 52
0.0
 41
0.2
 77
           0
 78
           1
 53
0.0
 43
0.0
 44
0.0
 45
0.0
 46
0.2
 79
           0
 98
        1
 10
0.0
 20
0.0
  0
HATCH
  5
191
100
AcDbEntity
  8
0
  6
CONTINUOUS
 62
           2
100
AcDbHatch
 10
0.0
 20
0.0
 30
0.0
210
0.0
220
0.0
230
1.0
  2
USER
 70
           0
 71
           1
 91
        1
 92
        1
 93
       12
 72
           1
 10
131.30863801906131
 20
-153.92697615442609
 11
137.06062033039129
 21
-153.92697615442609
 72
           1
 10
131.30863801906131
 20
-155.128407329906
 11
131.30863801906131
 21
-153.92697615442609
 72
           1
 10
134.79578613593119
 20
-155.128407329906
 11
131.30863801906131
 21
-155.128407329906
 72
           1
 10
134.79578613593119
 20
-155.142418976936
 11
134.79578613593119
 21
-155.128407329906
 72
           1
 10
131.2119037260014
 20
-157.725007323146
 11
134.79578613593119
 21
-155.142418976936
 72
           1
 10
131.2119037260014
 20
-158.92623631543611
 11
131.2119037260014
 21
-157.725007323146
 72
           1
 10
137.14347750450131
 20
-158.92623631543611
 11
131.2119037260014
 21
-158.92623631543611
 72
           1
 10
137.14347750450131
 20
-157.725007323146
 11
137.14347750450131
 21
-158.92623631543611
 72
           1
 10
133.4837439395113
 20
-157.725007323146
 11
137.14347750450131
 21
-157.725007323146
 72
           1
 10
133.4837439395113
 20
-157.71059170080611
 11
133.4837439395113
 21
-157.725007323146
 72
           1
 10
137.06062033039129
 20
-155.128407329906
 11
133.4837439395113
 21
-157.71059170080611
 72
           1
 10
137.06062033039129
 20
-153.92697615442609
 11
137.06062033039129
 21
-155.128407329906
 97
       12
330
13C
330
139
330
13D
330
138
330
144
330
141
330
143
330
13E
330
140
330
13F
330
145
330
137
 75
           1
 76
           0
 52
0.0
 41
0.2
 77
           0
 78
           1
 53
0.0
 43
0.0
 44
0.0
 45
0.0
 46
0.2
 79
           0
 98
        1
 10
0.0
 20
0.0
  0
HATCH
  5
190
100
AcDbEntity
  8
0
  6
CONTINUOUS
 62
           3
100
AcDbHatch
 10
0.0
 20
0.0
 30
0.0
210
0.0
220
0.0
230
1.0
  2
USER
 70
           0
 71
           1
 91
        1
 92
        1
 93
       10
 72
           1
 10
150.65898849509139
 20
-153.92697615442609
 11
151.66722053168149
 21
-153.92697615442609
 72
           1
 10
150.65898849509139
 20
-158.92623631543611
 11
150.65898849509139
 21
-153.92697615442609
 72
           1
 10
151.33579105310119
 20
-158.92623631543611
 11
150.65898849509139
 21
-158.92623631543611
 72
           1
 10
151.33579105310119
 20
-154.5345964740863
 11
151.33579105310119
 21
-158.92623631543611
 72
           1
 10
155.9138938525912
 20
-158.92623631543611
 11
151.33579105310119
 21
-154.5345964740863
 72
           1
 10
156.9220586251416
 20
-158.92623631543611
 11
155.9138938525912
 21
-158.92623631543611
 72
           1
 10
156.9220586251416
 20
-153.92697615442609
 11
156.9220586251416
 21
-158.92623631543611
 72
           1
 10
156.24539059521129
 20
-153.92697615442609
 11
156.9220586251416
 21
-153.92697615442609
 72
           1
 10
156.24539059521129
 20
-158.31875091492631
 11
156.24539059521129
 21
-153.92697615442609
 72
           1
 10
151.66722053168149
 20
-153.92697615442609
 11
156.24539059521129
 21
-158.31875091492631
 97
       10
330
124
330
132
330
126
330
133
330
134
330
11E
330
11F
330
11A
330
120
330
135
 75
           1
 76
           0
 52
0.0
 41
0.3
 77
           0
 78
           1
 53
0.0
 43
469.98900658108
 44
-327.208403005825
 45
0.0
 46
0.3
 79
           0
 98
        1
 10
0.0
 20
0.0
  0
HATCH
  5
18F
100
AcDbEntity
  8
0
  6
CONTINUOUS
 62
           3
100
AcDbHatch
 10
0.0
 20
0.0
 30
0.0
210
0.0
220
0.0
230
1.0
  2
USER
 70
           0
 71
           1
 91
        2
 92
        1
 93
        8
 72
           1
 10
142.4102389311912
 20
-158.9262367065061
 11
145.37949500241129
 21
-153.92697615442609
 72
           1
 10
143.17677015428129
 20
-158.9262367065061
 11
142.4102389311912
 21
-158.9262367065061
 72
           1
 10
143.79833485693129
 20
-157.8698393155062
 11
143.17677015428129
 21
-158.9262367065061
 72
           1
 10
147.80337462838119
 20
-157.8698393155062
 11
143.79833485693129
 21
-157.8698393155062
 72
           1
 10
148.4247371478412
 20
-158.9262367065061
 11
147.80337462838119
 21
-157.8698393155062
 72
           1
 10
149.1912011068915
 20
-158.9262367065061
 11
148.4247371478412
 21
-158.9262367065061
 72
           1
 10
146.2220799548214
 20
-153.92697615442609
 11
149.1912011068915
 21
-158.9262367065061
 72
           1
 10
145.37949500241129
 20
-153.92697615442609
 11
146.2220799548214
 21
-153.92697615442609
 97
        8
330
12F
330
12A
330
129
330
12C
330
128
330
127
330
12E
330
125
 92
       16
 93
        3
 72
           1
 10
147.47874898566141
 20
-157.3171877950461
 11
144.1227583164613
 21
-157.3171877950461
 72
           1
 10
144.1227583164613
 20
-157.3171877950461
 11
145.80085493819129
 21
-154.47929096361631
 72
           1
 10
145.80085493819129
 20
-154.47929096361631
 11
147.47874898566141
 21
-157.3171877950461
 97
        3
330
12D
330
130
330
131
 75
           1
 76
           0
 52
0.0
 41
0.3
 77
           0
 78
           1
 53
0.0
 43
444.760066932193
 44
-328.247283258136
 45
0.0
 46
0.3
 79
           0
 98
        1
 10
0.0
 20
0.0
  0
HATCH
  5
18E
100
AcDbEntity
  8
0
  6
CONTINUOUS
 62
           3
100
AcDbHatch
 10
0.0
 20
0.0
 30
0.0
210
0.0
220
0.0
230
1.0
  2
USER
 70
           0
 71
           1
 91
        1
 92
        1
 93
        8
 72
           1
 10
158.40399218845141
 20
-153.92697615442609
 11
164.1358324394314
 21
-153.92697615442609
 72
           1
 10
158.40399218845141
 20
-154.47929096361631
 11
158.40399218845141
 21
-153.92697615442609
 72
           1
 10
160.93134228823129
 20
-154.47929096361631
 11
158.40399218845141
 21
-154.47929096361631
 72
           1
 10
160.93134228823129
 20
-158.92623631543611
 11
160.93134228823129
 21
-154.47929096361631
 72
           1
 10
161.60794305412139
 20
-158.92623631543611
 11
160.93134228823129
 21
-158.92623631543611
 72
           1
 10
161.60794305412139
 20
-154.47929096361631
 11
161.60794305412139
 21
-158.92623631543611
 72
           1
 10
164.1358324394314
 20
-154.47929096361631
 11
161.60794305412139
 21
-154.47929096361631
 72
           1
 10
164.1358324394314
 20
-153.92697615442609
 11
164.1358324394314
 21
-154.47929096361631
 97
        8
330
11B
330
119
330
11C
330
121
330
11D
330
122
330
118
330
117
 75
           1
 76
           0
 52
0.0
 41
0.3
 77
           0
 78
           1
 53
0.0
 43
455.439735354765
 44
-325.508764189189
 45
0.0
 46
0.3
 79
           0
 98
        1
 10
0.0
 20
0.0
  0
HATCH
  5
18D
100
AcDbEntity
  8
0
  6
CONTINUOUS
 62
           3
100
AcDbHatch
 10
0.0
 20
0.0
 30
0.0
210
0.0
220
0.0
230
1.0
  2
USER
 70
           0
 71
           1
 91
        1
 92
        1
 93
       12
 72
           1
 10
177.38209056181159
 20
-153.92697615442609
 11
182.29142065669151
 21
-153.92697615442609
 72
           1
 10
177.38209056181159
 20
-158.92623631543611
 11
177.38209056181159
 21
-153.92697615442609
 72
           1
 10
182.3187701371414
 20
-158.92623631543611
 11
177.38209056181159
 21
-158.92623631543611
 72
           1
 10
182.3187701371414
 20
-158.3734502668961
 11
182.3187701371414
 21
-158.92623631543611
 72
           1
 10
178.05869132770169
 20
-158.3734502668961
 11
182.3187701371414
 21
-158.3734502668961
 72
           1
 10
178.05869132770169
 20
-156.6268448293562
 11
178.05869132770169
 21
-158.3734502668961
 72
           1
 10
182.1257059174016
 20
-156.6268448293562
 11
178.05869132770169
 21
-156.6268448293562
 72
           1
 10
182.1257059174016
 20
-156.07405838974611
 11
182.1257059174016
 21
-156.6268448293562
 72
           1
 10
178.05869132770169
 20
-156.07405838974611
 11
182.1257059174016
 21
-156.07405838974611
 72
           1
 10
178.05869132770169
 20
-154.47929096361631
 11
178.05869132770169
 21
-156.07405838974611
 72
           1
 10
182.29142065669151
 20
-154.47929096361631
 11
178.05869132770169
 21
-154.47929096361631
 72
           1
 10
182.29142065669151
 20
-153.92697615442609
 11
182.29142065669151
 21
-154.47929096361631
 97
       12
330
113
330
10D
330
111
330
FF
330
112
330
10E
330
114
330
FE
330
115
330
103
330
116
330
FD
 75
           1
 76
           0
 52
0.0
 41
0.3
 77
           0
 78
           1
 53
0.0
 43
470.534094947584
 44
-327.281203031343
 45
0.0
 46
0.3
 79
           0
 98
        1
 10
0.0
 20
0.0
  0
HATCH
  5
18C
100
AcDbEntity
  8
0
  6
CONTINUOUS
 62
           3
100
AcDbHatch
 10
0.0
 20
0.0
 30
0.0
210
0.0
220
0.0
230
1.0
  2
USER
 70
           0
 71
           1
 91
        1
 92
        1
 93
        4
 72
           1
 10
173.9264689440613
 20
-153.92697615442609
 11
174.60306970995151
 21
-153.92697615442609
 72
           1
 10
173.9264689440613
 20
-158.92623631543611
 11
173.9264689440613
 21
-153.92697615442609
 72
           1
 10
174.60306970995151
 20
-158.92623631543611
 11
173.9264689440613
 21
-158.92623631543611
 72
           1
 10
174.60306970995151
 20
-153.92697615442609
 11
174.60306970995151
 21
-158.92623631543611
 97
        4
330
104
330
10F
330
108
330
110
 75
           1
 76
           0
 52
0.0
 41
0.3
 77
           0
 78
           1
 53
0.0
 43
465.732989702146
 44
-329.104220759636
 45
0.0
 46
0.3
 79
           0
 98
        1
 10
0.0
 20
0.0
  0
HATCH
  5
18B
100
AcDbEntity
  8
0
  6
CONTINUOUS
 62
           3
100
AcDbHatch
 10
0.0
 20
0.0
 30
0.0
210
0.0
220
0.0
230
1.0
  2
USER
 70
           0
 71
           1
 91
        1
 92
        1
 93
       12
 72
           1
 10
193.2011024020415
 20
-153.92697615442609
 11
198.1113753666917
 21
-153.92697615442609
 72
           1
 10
193.2011024020415
 20
-158.92623631543611
 11
193.2011024020415
 21
-153.92697615442609
 72
           1
 10
198.13872484714139
 20
-158.92623631543611
 11
193.2011024020415
 21
-158.92623631543611
 72
           1
 10
198.13872484714139
 20
-158.3734502668961
 11
198.13872484714139
 21
-158.92623631543611
 72
           1
 10
193.8786460377014
 20
-158.3734502668961
 11
198.13872484714139
 21
-158.3734502668961
 72
           1
 10
193.8786460377014
 20
-156.6268448293562
 11
193.8786460377014
 21
-158.3734502668961
 72
           1
 10
197.94566062740151
 20
-156.6268448293562
 11
193.8786460377014
 21
-156.6268448293562
 72
           1
 10
197.94566062740151
 20
-156.07405838974611
 11
197.94566062740151
 21
-156.6268448293562
 72
           1
 10
193.8786460377014
 20
-156.07405838974611
 11
197.94566062740151
 21
-156.07405838974611
 72
           1
 10
193.8786460377014
 20
-154.47929096361631
 11
193.8786460377014
 21
-156.07405838974611
 72
           1
 10
198.1113753666917
 20
-154.47929096361631
 11
193.8786460377014
 21
-154.47929096361631
 72
           1
 10
198.1113753666917
 20
-153.92697615442609
 11
198.1113753666917
 21
-154.47929096361631
 97
       12
330
F1
330
F8
330
F6
330
F5
330
F7
330
F9
330
F2
330
EF
330
F3
330
F0
330
F4
330
EE
 75
           1
 76
           0
 52
0.0
 41
0.3
 77
           0
 78
           1
 53
0.0
 43
483.798770870378
 44
-327.29898966355
 45
0.0
 46
0.3
 79
           0
 98
        1
 10
0.0
 20
0.0
  0
TEXT
  5
18A
100
AcDbEntity
  8
1
 62
           7
100
AcDbText
 10
107.59094045808
 20
-62.309044553879
 40
3.0
  1
Bevel Gearbox:
 41
0.765
  7
CONVERTER_3
100
AcDbText
  0
TEXT
  5
189
100
AcDbEntity
  8
1
 62
           3
100
AcDbText
 10
-19.409059541921
 20
-185.309044553879
 40
2.5
  1
Maße und Darstellung unverbindlich, Änderungen vorbehalten.
 41
0.792
  7
CONVERTER_4
100
AcDbText
  0
MTEXT
  5
187
100
AcDbEntity
  8
1
 62
           3
100
AcDbMText
 10
107.59094045808
 20
-182.309044553879
 30
0.0
 40
2.5
 41
0.0
 71
           7
 72
           1
  1
ZZ-Antriebe GmbH\PAn der Tagweide 12\PD-76139 Karlsruhe
  7
CONVERTER_2
  0
MTEXT
  5
186
100
AcDbEntity
  8
1
 62
           3
100
AcDbMText
 10
165.59094045808
 20
-182.309044553879
 30
0.0
 40
2.5
 41
0.0
 71
           7
 72
           1
  1
Tel.: +49-(0)721-6205-0\Pwww.zz-antriebe.de\Pinfo@zz-antriebe.de
  7
CONVERTER_2
  0
TEXT
  5
185
100
AcDbEntity
  8
1
 62
           7
100
AcDbText
 10
107.59094045808
 20
-56.309044553879
 40
4.0
  1
Kegelradgetriebe:
 41
0.9
  7
CONVERTER_2
100
AcDbText
  0
TEXT
  5
184
100
AcDbEntity
  8
1
 62
           7
100
AcDbText
 10
165.59094045808
 20
-59.309044553879
 40
4.5
  1
HK210
 41
0.9
  7
CONVERTER_2
100
AcDbText
  0
TEXT
  5
183
100
AcDbEntity
  8
1
 62
           3
100
AcDbText
 10
107.59094045808
 20
-71.559044553879
 40
3.0
  1
Übersetzung:
 41
0.9
  7
CONVERTER_2
100
AcDbText
  0
TEXT
  5
182
100
AcDbEntity
  8
1
 62
           3
100
AcDbText
 10
107.59094045808
 20
-77.059044553879
 40
3.0
  1
Transmission ratio:
 41
0.765
  7
CONVERTER_3
100
AcDbText
  0
TEXT
  5
181
100
AcDbEntity
  8
1
 62
           3
100
AcDbText
 10
107.59094045808
 20
-90.059044553879
 40
3.0
  1
Shaft configuration:
 41
0.765
  7
CONVERTER_3
100
AcDbText
  0
TEXT
  5
180
100
AcDbEntity
  8
1
 62
           3
100
AcDbText
 10
107.59094045808
 20
-84.559044553879
 40
3.0
  1
Wellenausführung:
 41
0.9
  7
CONVERTER_2
100
AcDbText
  0
TEXT
  5
17F
100
AcDbEntity
  8
1
 62
           3
100
AcDbText
 10
107.59094045808
 20
-97.559044553879
 40
3.0
  1
Verzahnung:
 41
0.9
  7
CONVERTER_2
100
AcDbText
  0
TEXT
  5
17E
100
AcDbEntity
  8
1
 62
           3
100
AcDbText
 10
107.59094045808
 20
-103.059044553879
 40
3.0
  1
Gear teeth:
 41
0.765
  7
CONVERTER_3
100
AcDbText
  0
TEXT
  5
17D
100
AcDbEntity
  8
1
 62
           3
100
AcDbText
 10
107.59094045808
 20
-116.059044553879
 40
3.0
  1
Feather key dimensions:
 41
0.765
  7
CONVERTER_3
100
AcDbText
  0
TEXT
  5
17C
100
AcDbEntity
  8
1
 62
           3
100
AcDbText
 10
107.59094045808
 20
-110.559044553879
 40
3.0
  1
Paßfedermaße:
 41
0.9
  7
CONVERTER_2
100
AcDbText
  0
TEXT
  5
17B
100
AcDbEntity
  8
1
 62
           3
100
AcDbText
 10
107.59094045808
 20
-123.559044553879
 40
3.0
  1
Wellenzentrierung:
 41
0.9
  7
CONVERTER_2
100
AcDbText
  0
TEXT
  5
17A
100
AcDbEntity
  8
1
 62
           3
100
AcDbText
 10
107.59094045808
 20
-129.059044553879
 40
3.0
  1
Centre thread:
 41
0.765
  7
CONVERTER_3
100
AcDbText
  0
TEXT
  5
179
100
AcDbEntity
  8
1
 62
           3
100
AcDbText
 10
107.59094045808
 20
-142.059044553879
 40
3.0
  1
Weight:
 41
0.765
  7
CONVERTER_3
100
AcDbText
  0
TEXT
  5
178
100
AcDbEntity
  8
1
 62
           3
100
AcDbText
 10
107.59094045808
 20
-136.559044553879
 40
3.0
  1
Gewicht:
 41
0.9
  7
CONVERTER_2
100
AcDbText
  0
TEXT
  5
177
100
AcDbEntity
  8
1
 62
           3
100
AcDbText
 10
165.59094045808
 20
-103.059044553879
 40
3.0
  1
Palloid spiral gears
 41
0.765
  7
CONVERTER_3
100
AcDbText
  0
TEXT
  5
176
100
AcDbEntity
  8
1
 62
           3
100
AcDbText
 10
165.59094045808
 20
-97.559044553879
 40
3.0
  1
Palloid spiralverzahnt
 41
0.9
  7
CONVERTER_2
100
AcDbText
  0
TEXT
  5
175
100
AcDbEntity
  8
1
 62
           3
100
AcDbText
 10
165.59094045808
 20
-84.559044553879
 40
3.0
  1
Hohlwelle
 41
0.9
  7
CONVERTER_2
100
AcDbText
  0
TEXT
  5
174
100
AcDbEntity
  8
1
 62
           3
100
AcDbText
 10
165.59094045808
 20
-90.059044553879
 40
3.0
  1
Hollow shaft
 41
0.765
  7
CONVERTER_3
100
AcDbText
  0
TEXT
  5
172
100
AcDbEntity
  8
1
 62
           3
100
AcDbText
 10
165.59094045808
 20
-139.309044553879
 40
3.0
  1
ca. 65kg
 41
0.9
  7
CONVERTER_2
100
AcDbText
  0
TEXT
  5
171
100
AcDbEntity
  8
1
 62
           3
100
AcDbText
 10
165.59094045808
 20
-74.309044553879
 40
3.0
  1
4:1
 41
0.9
  7
CONVERTER_2
100
AcDbText
  0
TEXT
  5
170
100
AcDbEntity
  8
1
 62
           3
100
AcDbText
 10
165.59094045808
 20
-113.309044553879
 40
3.0
  1
DIN 6885/1
 41
0.9
  7
CONVERTER_2
100
AcDbText
  0
TEXT
  5
16F
100
AcDbEntity
  8
1
 62
           3
100
AcDbText
 10
165.59094045808
 20
-126.309044553879
 40
3.0
  1
DIN 332/2-DS
 41
0.9
  7
CONVERTER_2
100
AcDbText
  0
TEXT
  5
16D
100
AcDbEntity
  8
1
 62
           3
100
AcDbText
 10
-174.40905954192
 20
-185.309044553879
 40
2.5
  1
Schutzvermerk DIN ISO 16016 / DIN 34
 41
0.855
  7
CONVERTER_1
100
AcDbText
  0
LWPOLYLINE
  5
16B
100
AcDbEntity
  8
1
  6
CONTINUOUS
 62
           3
 60
           1
100
AcDbPolyline
 90
        2
 70
           0
 10
166.292817276815
 20
-154.479291007324
 10
169.186813763123
 20
-154.479345606912
  0
LWPOLYLINE
  5
16A
100
AcDbEntity
  8
1
  6
CONTINUOUS
 62
           3
 60
           1
100
AcDbPolyline
 90
        2
 70
           0
 10
169.600448936539
 20
-156.39828043548
 10
166.292817276815
 20
-156.399155733072
  0
LWPOLYLINE
  5
169
100
AcDbEntity
  8
1
  6
CONTINUOUS
 62
           3
 60
           1
100
AcDbPolyline
 90
        2
 70
           0
 10
169.205060182911
 20
-153.926976239378
 10
169.408053458386
 20
-153.926516759981
  0
LWPOLYLINE
  5
168
100
AcDbEntity
  8
1
  6
CONTINUOUS
 62
           3
 60
           1
100
AcDbPolyline
 90
        3
 70
           0
 10
170.567849069958
 20
-156.668108501639
 10
170.367106894379
 20
-156.696094925894
 10
170.367106894379
 20
-156.709703996005
  0
LWPOLYLINE
  5
167
100
AcDbEntity
  8
1
  6
CONTINUOUS
 62
           3
 60
           1
100
AcDbPolyline
 90
        3
 70
           0
 10
171.223307237606
 20
-158.814462863555
 10
171.223165515309
 20
-158.926237002005
 10
170.587522362595
 20
-158.926237002005
  0
LWPOLYLINE
  5
166
100
AcDbEntity
  8
1
  6
CONTINUOUS
 62
           3
 60
           1
100
AcDbPolyline
 90
        2
 70
           0
 10
169.518637875443
 20
-156.948845455183
 10
166.292817276815
 20
-156.951133682644
  0
LWPOLYLINE
  5
165
100
AcDbEntity
  8
1
  6
CONTINUOUS
 62
           3
 60
           1
100
AcDbPolyline
 90
       10
 70
           0
 10
185.456570195335
 20
-156.074058639512
 10
188.641026105004
 20
-156.078036526694
 10
189.039638714866
 20
-156.069876305975
 10
189.425115905457
 20
-155.975492985262
 10
189.669049816018
 20
-155.666993379511
 10
189.696842304497
 20
-155.271368126502
 10
189.680969407158
 20
-154.871580713381
 10
189.427368544083
 20
-154.572867405238
 10
189.039250843315
 20
-154.481646729484
 10
185.456570195335
 20
-154.479291007324
  0
LWPOLYLINE
  5
164
100
AcDbEntity
  8
1
  6
CONTINUOUS
 62
           3
 60
           1
100
AcDbPolyline
 90
       19
 70
           1
 10
185.456570830803
 20
-156.626844935813
 10
185.456570195335
 20
-158.373450307888
 10
188.806237008744
 20
-158.374747057834
 10
189.224914512329
 20
-158.364971948828
 10
189.626152714234
 20
-158.254204784597
 10
189.866879225427
 20
-157.921806324019
 10
189.889748728829
 20
-157.504109687915
 10
189.86353010376
 20
-157.086133336749
 10
189.634641133957
 20
-156.750527476801
 10
189.22319892662
 20
-156.635915162864
 10
188.804484127694
 20
-156.622048754896
 10
188.388439675216
 20
-156.629384748567
 10
187.969247495919
 20
-156.62797498466
 10
187.549876298981
 20
-156.626050545039
 10
187.131310681419
 20
-156.626490630069
 10
186.712759981995
 20
-156.626975469507
 10
186.294000428658
 20
-156.626837476743
 10
185.875278170663
 20
-156.62683374721
 10
185.456570830803
 20
-156.626844935813
  0
LWPOLYLINE
  5
163
100
AcDbEntity
  8
1
  6
CONTINUOUS
 62
           3
 60
           1
100
AcDbPolyline
 90
        2
 70
           0
 10
184.782846848072
 20
-153.926976290726
 10
189.054422588234
 20
-153.925920034517
  0
LWPOLYLINE
  5
162
100
AcDbEntity
  8
1
  6
CONTINUOUS
 62
           3
 60
           1
100
AcDbPolyline
 90
        2
 70
           0
 10
189.885511978035
 20
-156.181993561567
 10
189.565350163136
 20
-156.254323832709
  0
LWPOLYLINE
  5
161
100
AcDbEntity
  8
1
  6
CONTINUOUS
 62
           3
 60
           1
100
AcDbPolyline
 90
        2
 70
           0
 10
189.565350163136
 20
-156.281673484591
 10
189.918697372894
 20
-156.334624746623
  0
LWPOLYLINE
  5
160
100
AcDbEntity
  8
1
  6
CONTINUOUS
 62
           3
 60
           1
100
AcDbPolyline
 90
        3
 70
           0
 10
189.04873877819
 20
-158.92674421865
 10
184.782845404893
 20
-158.926237002005
 10
184.782846848072
 20
-153.926976290726
  0
ARC
  5
15F
100
AcDbEntity
  8
KONTUR
  6
CONTINUOUS
 62
           1
100
AcDbCircle
 10
137.31840965322
 20
-143.00146683892
 40
8.599003299975
100
AcDbArc
 50
-111.215954643911
 51
-27.268535966438
  0
ARC
  5
15E
100
AcDbEntity
  8
KONTUR
  6
CONTINUOUS
 62
           1
100
AcDbCircle
 10
137.316699995082
 20
-142.997860038643
 40
7.908045976477
100
AcDbArc
 50
-111.389835812798
 51
-28.017530678762
  0
ARC
  5
15D
100
AcDbEntity
  8
KONTUR
  6
CONTINUOUS
 62
           4
100
AcDbCircle
 10
147.923932500372
 20
-157.6637032122
 40
7.438066515191
100
AcDbArc
 50
75.966597347068
 51
-150.081834826501
  0
ARC
  5
15C
100
AcDbEntity
  8
KONTUR
  6
CONTINUOUS
 62
           4
100
AcDbCircle
 10
147.926271176869
 20
-157.667198207321
 40
9.082725141166
100
AcDbArc
 50
75.086616427323
 51
-141.583441934091
  0
LINE
  5
15B
100
AcDbEntity
  8
1
  6
CONTINUOUS
 62
           6
100
AcDbLine
 10
-184.40905954192
 20
-191.309044553879
 11
225.59094045808
 21
-191.309044553879
  0
LINE
  5
15A
100
AcDbEntity
  8
1
  6
CONTINUOUS
 62
           6
100
AcDbLine
 10
-184.40905954192
 20
95.690955446121
 11
225.59094045808
 21
95.690955446121
  0
LINE
  5
159
100
AcDbEntity
  8
1
  6
CONTINUOUS
 62
           6
100
AcDbLine
 10
-184.40905954192
 20
-191.309044553879
 11
-184.40905954192
 21
95.690955446121
  0
LINE
  5
158
100
AcDbEntity
  8
1
  6
CONTINUOUS
 62
           6
100
AcDbLine
 10
225.59094045808
 20
-191.309044553879
 11
225.59094045808
 21
95.690955446121
  0
LINE
  5
157
100
AcDbEntity
  8
1
  6
CONTINUOUS
 62
           3
100
AcDbLine
 10
-169.40905954192
 20
-191.309044553879
 11
-169.40905954192
 21
-190.609044553879
  0
LINE
  5
156
100
AcDbEntity
  8
1
  6
CONTINUOUS
 62
           3
100
AcDbLine
 10
-169.40905954192
 20
95.690955446121
 11
-169.40905954192
 21
94.990955446121
  0
LINE
  5
155
100
AcDbEntity
  8
1
  6
CONTINUOUS
 62
           2
100
AcDbLine
 10
102.59094045808
 20
-185.309044553879
 11
219.59094045808
 21
-185.309044553879
  0
LINE
  5
154
100
AcDbEntity
  8
1
  6
CONTINUOUS
 62
           2
100
AcDbLine
 10
219.59094045808
 20
-49.309044553879
 11
102.59094045808
 21
-49.309044553879
  0
LINE
  5
153
100
AcDbEntity
  8
1
  6
CONTINUOUS
 62
           3
100
AcDbLine
 10
102.59094045808
 20
-65.309044553879
 11
219.59094045808
 21
-65.309044553879
  0
LINE
  5
152
100
AcDbEntity
  8
1
  6
CONTINUOUS
 62
           2
100
AcDbLine
 10
102.59094045808
 20
-49.309044553879
 11
102.59094045808
 21
-185.309044553879
  0
LINE
  5
151
100
AcDbEntity
  8
1
  6
CONTINUOUS
 62
           3
100
AcDbLine
 10
102.59094045808
 20
-145.309044553879
 11
219.59094045808
 21
-145.309044553879
  0
LINE
  5
150
100
AcDbEntity
  8
1
  6
CONTINUOUS
 62
           2
100
AcDbLine
 10
219.59094045808
 20
-185.309044553879
 11
219.59094045808
 21
-49.309044553879
  0
LINE
  5
14F
100
AcDbEntity
  8
1
  6
CONTINUOUS
 62
           3
100
AcDbLine
 10
219.59094045808
 20
-165.309044553879
 11
102.59094045808
 21
-165.309044553879
  0
LINE
  5
14E
100
AcDbEntity
  8
KONTUR
  6
CONTINUOUS
 62
           2
100
AcDbLine
 10
127.637654543381
 20
-155.128407329906
 11
124.150304634391
 21
-155.128407329906
  0
LINE
  5
14D
100
AcDbEntity
  8
KONTUR
  6
CONTINUOUS
 62
           2
100
AcDbLine
 10
124.053772524521
 20
-157.725007323146
 11
127.637654543381
 21
-155.142418976936
  0
LINE
  5
14C
100
AcDbEntity
  8
KONTUR
  6
CONTINUOUS
 62
           2
100
AcDbLine
 10
124.150304634391
 20
-153.926976154426
 11
129.902488737841
 21
-153.926976154426
  0
LINE
  5
14B
100
AcDbEntity
  8
KONTUR
  6
CONTINUOUS
 62
           2
100
AcDbLine
 10
129.902488737841
 20
-155.128407329906
 11
126.325612346961
 21
-157.710591700806
  0
LINE
  5
14A
100
AcDbEntity
  8
KONTUR
  6
CONTINUOUS
 62
           2
100
AcDbLine
 10
126.325612346961
 20
-157.725007323146
 11
129.985345911951
 21
-157.725007323146
  0
LINE
  5
149
100
AcDbEntity
  8
KONTUR
  6
CONTINUOUS
 62
           2
100
AcDbLine
 10
129.985345911951
 20
-158.926236315436
 11
124.053772524521
 21
-158.926236315436
  0
LINE
  5
148
100
AcDbEntity
  8
KONTUR
  6
CONTINUOUS
 62
           2
100
AcDbLine
 10
124.053772524521
 20
-158.926236315436
 11
124.053772524521
 21
-157.725007323146
  0
LINE
  5
147
100
AcDbEntity
  8
KONTUR
  6
CONTINUOUS
 62
           2
100
AcDbLine
 10
126.325612346961
 20
-157.710591700806
 11
126.325612346961
 21
-157.725007323146
  0
LINE
  5
146
100
AcDbEntity
  8
KONTUR
  6
CONTINUOUS
 62
           2
100
AcDbLine
 10
124.150304634391
 20
-155.128407329906
 11
124.150304634391
 21
-153.926976154426
  0
LINE
  5
145
100
AcDbEntity
  8
KONTUR
  6
CONTINUOUS
 62
           2
100
AcDbLine
 10
137.060620330391
 20
-155.128407329906
 11
133.483743939511
 21
-157.710591700806
  0
LINE
  5
144
100
AcDbEntity
  8
KONTUR
  6
CONTINUOUS
 62
           2
100
AcDbLine
 10
131.211903726001
 20
-157.725007323146
 11
134.795786135931
 21
-155.142418976936
  0
LINE
  5
143
100
AcDbEntity
  8
KONTUR
  6
CONTINUOUS
 62
           2
100
AcDbLine
 10
137.143477504501
 20
-158.926236315436
 11
131.211903726001
 21
-158.926236315436
  0
LINE
  5
142
100
AcDbEntity
  8
KONTUR
  6
CONTINUOUS
 62
           2
100
AcDbLine
 10
129.985345911951
 20
-157.725007323146
 11
129.985345911951
 21
-158.926236315436
  0
LINE
  5
141
100
AcDbEntity
  8
KONTUR
  6
CONTINUOUS
 62
           2
100
AcDbLine
 10
131.211903726001
 20
-158.926236315436
 11
131.211903726001
 21
-157.725007323146
  0
LINE
  5
140
100
AcDbEntity
  8
KONTUR
  6
CONTINUOUS
 62
           2
100
AcDbLine
 10
133.483743939511
 20
-157.725007323146
 11
137.143477504501
 21
-157.725007323146
  0
LINE
  5
13F
100
AcDbEntity
  8
KONTUR
  6
CONTINUOUS
 62
           2
100
AcDbLine
 10
133.483743939511
 20
-157.710591700806
 11
133.483743939511
 21
-157.725007323146
  0
LINE
  5
13E
100
AcDbEntity
  8
KONTUR
  6
CONTINUOUS
 62
           2
100
AcDbLine
 10
137.143477504501
 20
-157.725007323146
 11
137.143477504501
 21
-158.926236315436
  0
LINE
  5
13D
100
AcDbEntity
  8
KONTUR
  6
CONTINUOUS
 62
           2
100
AcDbLine
 10
134.795786135931
 20
-155.128407329906
 11
131.308638019061
 21
-155.128407329906
  0
LINE
  5
13C
100
AcDbEntity
  8
KONTUR
  6
CONTINUOUS
 62
           2
100
AcDbLine
 10
131.308638019061
 20
-153.926976154426
 11
137.060620330391
 21
-153.926976154426
  0
LINE
  5
13B
100
AcDbEntity
  8
KONTUR
  6
CONTINUOUS
 62
           2
100
AcDbLine
 10
129.902488737841
 20
-153.926976154426
 11
129.902488737841
 21
-155.128407329906
  0
LINE
  5
13A
100
AcDbEntity
  8
KONTUR
  6
CONTINUOUS
 62
           2
100
AcDbLine
 10
127.637654543381
 20
-155.142418976936
 11
127.637654543381
 21
-155.128407329906
  0
LINE
  5
139
100
AcDbEntity
  8
KONTUR
  6
CONTINUOUS
 62
           2
100
AcDbLine
 10
131.308638019061
 20
-155.128407329906
 11
131.308638019061
 21
-153.926976154426
  0
LINE
  5
138
100
AcDbEntity
  8
KONTUR
  6
CONTINUOUS
 62
           2
100
AcDbLine
 10
134.795786135931
 20
-155.142418976936
 11
134.795786135931
 21
-155.128407329906
  0
LINE
  5
137
100
AcDbEntity
  8
KONTUR
  6
CONTINUOUS
 62
           2
100
AcDbLine
 10
137.060620330391
 20
-153.926976154426
 11
137.060620330391
 21
-155.128407329906
  0
LINE
  5
136
100
AcDbEntity
  8
KONTUR
  6
CONTINUOUS
 62
           1
100
AcDbLine
 10
134.206566464506
 20
-151.017656065844
 11
134.432543809814
 21
-150.361203998085
  0
LINE
  5
135
100
AcDbEntity
  8
KONTUR
  6
CONTINUOUS
 62
           3
100
AcDbLine
 10
151.667220531681
 20
-153.926976154426
 11
156.245390595211
 21
-158.318750914926
  0
LINE
  5
134
100
AcDbEntity
  8
KONTUR
  6
CONTINUOUS
 62
           3
100
AcDbLine
 10
155.913893852591
 20
-158.926236315436
 11
151.335791053101
 21
-154.534596474086
  0
LINE
  5
133
100
AcDbEntity
  8
KONTUR
  6
CONTINUOUS
 62
           3
100
AcDbLine
 10
151.335791053101
 20
-154.534596474086
 11
151.335791053101
 21
-158.926236315436
  0
LINE
  5
132
100
AcDbEntity
  8
KONTUR
  6
CONTINUOUS
 62
           3
100
AcDbLine
 10
150.658988495091
 20
-158.926236315436
 11
150.658988495091
 21
-153.926976154426
  0
LINE
  5
131
100
AcDbEntity
  8
KONTUR
  6
CONTINUOUS
 62
           3
100
AcDbLine
 10
145.800854938191
 20
-154.479290963616
 11
147.478748985661
 21
-157.317187795046
  0
LINE
  5
130
100
AcDbEntity
  8
KONTUR
  6
CONTINUOUS
 62
           3
100
AcDbLine
 10
144.122758316461
 20
-157.317187795046
 11
145.800854938191
 21
-154.479290963616
  0
LINE
  5
12F
100
AcDbEntity
  8
KONTUR
  6
CONTINUOUS
 62
           3
100
AcDbLine
 10
142.410238931191
 20
-158.926236706506
 11
145.379495002411
 21
-153.926976154426
  0
LINE
  5
12E
100
AcDbEntity
  8
KONTUR
  6
CONTINUOUS
 62
           3
100
AcDbLine
 10
146.222079954821
 20
-153.926976154426
 11
149.191201106892
 21
-158.926236706506
  0
LINE
  5
12D
100
AcDbEntity
  8
KONTUR
  6
CONTINUOUS
 62
           3
100
AcDbLine
 10
147.478748985661
 20
-157.317187795046
 11
144.122758316461
 21
-157.317187795046
  0
LINE
  5
12C
100
AcDbEntity
  8
KONTUR
  6
CONTINUOUS
 62
           3
100
AcDbLine
 10
147.803374628381
 20
-157.869839315506
 11
143.798334856931
 21
-157.869839315506
  0
LINE
  5
12B
100
AcDbEntity
  8
KONTUR
  6
CONTINUOUS
 62
           4
100
AcDbLine
 10
141.477072667912
 20
-161.373532289805
 11
140.809829620972
 21
-163.310969603422
  0
LINE
  5
12A
100
AcDbEntity
  8
KONTUR
  6
CONTINUOUS
 62
           3
100
AcDbLine
 10
143.176770154281
 20
-158.926236706506
 11
142.410238931191
 21
-158.926236706506
  0
LINE
  5
129
100
AcDbEntity
  8
KONTUR
  6
CONTINUOUS
 62
           3
100
AcDbLine
 10
143.798334856931
 20
-157.869839315506
 11
143.176770154281
 21
-158.926236706506
  0
LINE
  5
128
100
AcDbEntity
  8
KONTUR
  6
CONTINUOUS
 62
           3
100
AcDbLine
 10
148.424737147841
 20
-158.926236706506
 11
147.803374628381
 21
-157.869839315506
  0
LINE
  5
127
100
AcDbEntity
  8
KONTUR
  6
CONTINUOUS
 62
           3
100
AcDbLine
 10
149.191201106892
 20
-158.926236706506
 11
148.424737147841
 21
-158.926236706506
  0
LINE
  5
126
100
AcDbEntity
  8
KONTUR
  6
CONTINUOUS
 62
           3
100
AcDbLine
 10
151.335791053101
 20
-158.926236315436
 11
150.658988495091
 21
-158.926236315436
  0
LINE
  5
125
100
AcDbEntity
  8
KONTUR
  6
CONTINUOUS
 62
           3
100
AcDbLine
 10
145.379495002411
 20
-153.926976154426
 11
146.222079954821
 21
-153.926976154426
  0
LINE
  5
124
100
AcDbEntity
  8
KONTUR
  6
CONTINUOUS
 62
           3
100
AcDbLine
 10
150.658988495091
 20
-153.926976154426
 11
151.667220531681
 21
-153.926976154426
  0
LINE
  5
123
100
AcDbEntity
  8
KONTUR
  6
CONTINUOUS
 62
           4
100
AcDbLine
 10
150.263787871517
 20
-148.890415670867
 11
149.727570829604
 21
-150.447629330806
  0
LINE
  5
122
100
AcDbEntity
  8
KONTUR
  6
CONTINUOUS
 62
           3
100
AcDbLine
 10
161.607943054121
 20
-154.479290963616
 11
161.607943054121
 21
-158.926236315436
  0
LINE
  5
121
100
AcDbEntity
  8
KONTUR
  6
CONTINUOUS
 62
           3
100
AcDbLine
 10
160.931342288231
 20
-158.926236315436
 11
160.931342288231
 21
-154.479290963616
  0
LINE
  5
120
100
AcDbEntity
  8
KONTUR
  6
CONTINUOUS
 62
           3
100
AcDbLine
 10
156.245390595211
 20
-158.318750914926
 11
156.245390595211
 21
-153.926976154426
  0
LINE
  5
11F
100
AcDbEntity
  8
KONTUR
  6
CONTINUOUS
 62
           3
100
AcDbLine
 10
156.922058625142
 20
-153.926976154426
 11
156.922058625142
 21
-158.926236315436
  0
LINE
  5
11E
100
AcDbEntity
  8
KONTUR
  6
CONTINUOUS
 62
           3
100
AcDbLine
 10
156.922058625142
 20
-158.926236315436
 11
155.913893852591
 21
-158.926236315436
  0
LINE
  5
11D
100
AcDbEntity
  8
KONTUR
  6
CONTINUOUS
 62
           3
100
AcDbLine
 10
161.607943054121
 20
-158.926236315436
 11
160.931342288231
 21
-158.926236315436
  0
LINE
  5
11C
100
AcDbEntity
  8
KONTUR
  6
CONTINUOUS
 62
           3
100
AcDbLine
 10
160.931342288231
 20
-154.479290963616
 11
158.403992188451
 21
-154.479290963616
  0
LINE
  5
11B
100
AcDbEntity
  8
KONTUR
  6
CONTINUOUS
 62
           3
100
AcDbLine
 10
158.403992188451
 20
-153.926976154426
 11
164.135832439431
 21
-153.926976154426
  0
LINE
  5
11A
100
AcDbEntity
  8
KONTUR
  6
CONTINUOUS
 62
           3
100
AcDbLine
 10
156.245390595211
 20
-153.926976154426
 11
156.922058625142
 21
-153.926976154426
  0
LINE
  5
119
100
AcDbEntity
  8
KONTUR
  6
CONTINUOUS
 62
           3
100
AcDbLine
 10
158.403992188451
 20
-154.479290963616
 11
158.403992188451
 21
-153.926976154426
  0
LINE
  5
118
100
AcDbEntity
  8
KONTUR
  6
CONTINUOUS
 62
           3
100
AcDbLine
 10
164.135832439431
 20
-154.479290963616
 11
161.607943054121
 21
-154.479290963616
  0
LINE
  5
117
100
AcDbEntity
  8
KONTUR
  6
CONTINUOUS
 62
           3
100
AcDbLine
 10
164.135832439431
 20
-153.926976154426
 11
164.135832439431
 21
-154.479290963616
  0
LINE
  5
116
100
AcDbEntity
  8
KONTUR
  6
CONTINUOUS
 62
           3
100
AcDbLine
 10
182.291420656692
 20
-154.479290963616
 11
178.058691327702
 21
-154.479290963616
  0
LINE
  5
115
100
AcDbEntity
  8
KONTUR
  6
CONTINUOUS
 62
           3
100
AcDbLine
 10
178.058691327702
 20
-156.074058389746
 11
182.125705917402
 21
-156.074058389746
  0
LINE
  5
114
100
AcDbEntity
  8
KONTUR
  6
CONTINUOUS
 62
           3
100
AcDbLine
 10
182.125705917402
 20
-156.626844829356
 11
178.058691327702
 21
-156.626844829356
  0
LINE
  5
113
100
AcDbEntity
  8
KONTUR
  6
CONTINUOUS
 62
           3
100
AcDbLine
 10
177.382090561812
 20
-153.926976154426
 11
182.291420656692
 21
-153.926976154426
  0
LINE
  5
112
100
AcDbEntity
  8
KONTUR
  6
CONTINUOUS
 62
           3
100
AcDbLine
 10
178.058691327702
 20
-158.373450266896
 11
182.318770137141
 21
-158.373450266896
  0
LINE
  5
111
100
AcDbEntity
  8
KONTUR
  6
CONTINUOUS
 62
           3
100
AcDbLine
 10
182.318770137141
 20
-158.926236315436
 11
177.382090561812
 21
-158.926236315436
  0
LINE
  5
110
100
AcDbEntity
  8
KONTUR
  6
CONTINUOUS
 62
           3
100
AcDbLine
 10
174.603069709952
 20
-153.926976154426
 11
174.603069709952
 21
-158.926236315436
  0
LINE
  5
10F
100
AcDbEntity
  8
KONTUR
  6
CONTINUOUS
 62
           3
100
AcDbLine
 10
173.926468944061
 20
-158.926236315436
 11
173.926468944061
 21
-153.926976154426
  0
LINE
  5
10E
100
AcDbEntity
  8
KONTUR
  6
CONTINUOUS
 62
           3
100
AcDbLine
 10
178.058691327702
 20
-156.626844829356
 11
178.058691327702
 21
-158.373450266896
  0
LINE
  5
10D
100
AcDbEntity
  8
KONTUR
  6
CONTINUOUS
 62
           3
100
AcDbLine
 10
177.382090561812
 20
-158.926236315436
 11
177.382090561812
 21
-153.926976154426
  0
LINE
  5
10C
100
AcDbEntity
  8
KONTUR
  6
CONTINUOUS
 62
           3
100
AcDbLine
 10
166.292817276815
 20
-156.951133682644
 11
166.292817276815
 21
-158.926236621554
  0
LINE
  5
10B
100
AcDbEntity
  8
KONTUR
  6
CONTINUOUS
 62
           3
100
AcDbLine
 10
165.616216529256
 20
-158.926236621554
 11
165.616216529256
 21
-153.926976239378
  0
LINE
  5
10A
100
AcDbEntity
  8
KONTUR
  6
CONTINUOUS
 62
           3
100
AcDbLine
 10
166.292817276815
 20
-158.926236621554
 11
165.616216529256
 21
-158.926236621554
  0
LINE
  5
109
100
AcDbEntity
  8
KONTUR
  6
CONTINUOUS
 62
           3
100
AcDbLine
 10
171.223164619886
 20
-158.926236621554
 11
170.587520986477
 21
-158.926236621554
  0
LINE
  5
108
100
AcDbEntity
  8
KONTUR
  6
CONTINUOUS
 62
           3
100
AcDbLine
 10
174.603069709952
 20
-158.926236315436
 11
173.926468944061
 21
-158.926236315436
  0
LINE
  5
107
100
AcDbEntity
  8
KONTUR
  6
CONTINUOUS
 62
           3
100
AcDbLine
 10
165.616216529256
 20
-153.926976239378
 11
169.205060182911
 21
-153.926976239378
  0
LINE
  5
106
100
AcDbEntity
  8
KONTUR
  6
CONTINUOUS
 62
           3
100
AcDbLine
 10
166.292817276815
 20
-156.399155733072
 11
166.292817276815
 21
-154.479291007324
  0
LINE
  5
105
100
AcDbEntity
  8
KONTUR
  6
CONTINUOUS
 62
           3
100
AcDbLine
 10
170.367107043226
 20
-156.696094810655
 11
170.367107043226
 21
-156.709702272921
  0
LINE
  5
104
100
AcDbEntity
  8
KONTUR
  6
CONTINUOUS
 62
           3
100
AcDbLine
 10
173.926468944061
 20
-153.926976154426
 11
174.603069709952
 21
-153.926976154426
  0
LINE
  5
103
100
AcDbEntity
  8
KONTUR
  6
CONTINUOUS
 62
           3
100
AcDbLine
 10
178.058691327702
 20
-154.479290963616
 11
178.058691327702
 21
-156.074058389746
  0
LINE
  5
102
100
AcDbEntity
  8
KONTUR
  6
CONTINUOUS
 62
           3
100
AcDbLine
 10
185.456570195335
 20
-158.373450307888
 11
185.456570195335
 21
-156.626844953179
  0
LINE
  5
101
100
AcDbEntity
  8
KONTUR
  6
CONTINUOUS
 62
           3
100
AcDbLine
 10
185.456570195335
 20
-158.373450307888
 11
185.456570195335
 21
-156.626844953179
  0
LINE
  5
100
100
AcDbEntity
  8
KONTUR
  6
CONTINUOUS
 62
           3
100
AcDbLine
 10
184.782846848072
 20
-158.926236620329
 11
184.782846848072
 21
-153.926976290726
  0
LINE
  5
FF
100
AcDbEntity
  8
KONTUR
  6
CONTINUOUS
 62
           3
100
AcDbLine
 10
182.318770137141
 20
-158.373450266896
 11
182.318770137141
 21
-158.926236315436
  0
LINE
  5
FE
100
AcDbEntity
  8
KONTUR
  6
CONTINUOUS
 62
           3
100
AcDbLine
 10
182.125705917402
 20
-156.074058389746
 11
182.125705917402
 21
-156.626844829356
  0
LINE
  5
FD
100
AcDbEntity
  8
KONTUR
  6
CONTINUOUS
 62
           3
100
AcDbLine
 10
182.291420656692
 20
-153.926976154426
 11
182.291420656692
 21
-154.479290963616
  0
LINE
  5
FC
100
AcDbEntity
  8
KONTUR
  6
CONTINUOUS
 62
           3
100
AcDbLine
 10
185.456570195335
 20
-156.074058639512
 11
185.456570195335
 21
-154.479291007324
  0
LINE
  5
FB
100
AcDbEntity
  8
KONTUR
  6
CONTINUOUS
 62
           3
100
AcDbLine
 10
189.565350163136
 20
-156.254323832709
 11
189.565350163136
 21
-156.281673484591
  0
LINE
  5
FA
100
AcDbEntity
  8
KONTUR
  6
CONTINUOUS
 62
           1
100
AcDbLine
 10
144.297953889551
 20
-146.712598956391
 11
144.961796829456
 21
-146.94119909215
  0
LINE
  5
F9
100
AcDbEntity
  8
KONTUR
  6
CONTINUOUS
 62
           3
100
AcDbLine
 10
193.878646037701
 20
-156.626844829356
 11
193.878646037701
 21
-158.373450266896
  0
LINE
  5
F8
100
AcDbEntity
  8
KONTUR
  6
CONTINUOUS
 62
           3
100
AcDbLine
 10
193.201102402042
 20
-158.926236315436
 11
193.201102402042
 21
-153.926976154426
  0
LINE
  5
F7
100
AcDbEntity
  8
KONTUR
  6
CONTINUOUS
 62
           3
100
AcDbLine
 10
193.878646037701
 20
-158.373450266896
 11
198.138724847141
 21
-158.373450266896
  0
LINE
  5
F6
100
AcDbEntity
  8
KONTUR
  6
CONTINUOUS
 62
           3
100
AcDbLine
 10
198.138724847141
 20
-158.926236315436
 11
193.201102402042
 21
-158.926236315436
  0
LINE
  5
F5
100
AcDbEntity
  8
KONTUR
  6
CONTINUOUS
 62
           3
100
AcDbLine
 10
198.138724847141
 20
-158.373450266896
 11
198.138724847141
 21
-158.926236315436
  0
LINE
  5
F4
100
AcDbEntity
  8
KONTUR
  6
CONTINUOUS
 62
           3
100
AcDbLine
 10
198.111375366692
 20
-154.479290963616
 11
193.878646037701
 21
-154.479290963616
  0
LINE
  5
F3
100
AcDbEntity
  8
KONTUR
  6
CONTINUOUS
 62
           3
100
AcDbLine
 10
193.878646037701
 20
-156.074058389746
 11
197.945660627402
 21
-156.074058389746
  0
LINE
  5
F2
100
AcDbEntity
  8
KONTUR
  6
CONTINUOUS
 62
           3
100
AcDbLine
 10
197.945660627402
 20
-156.626844829356
 11
193.878646037701
 21
-156.626844829356
  0
LINE
  5
F1
100
AcDbEntity
  8
KONTUR
  6
CONTINUOUS
 62
           3
100
AcDbLine
 10
193.201102402042
 20
-153.926976154426
 11
198.111375366692
 21
-153.926976154426
  0
LINE
  5
F0
100
AcDbEntity
  8
KONTUR
  6
CONTINUOUS
 62
           3
100
AcDbLine
 10
193.878646037701
 20
-154.479290963616
 11
193.878646037701
 21
-156.074058389746
  0
LINE
  5
EF
100
AcDbEntity
  8
KONTUR
  6
CONTINUOUS
 62
           3
100
AcDbLine
 10
197.945660627402
 20
-156.074058389746
 11
197.945660627402
 21
-156.626844829356
  0
LINE
  5
EE
100
AcDbEntity
  8
KONTUR
  6
CONTINUOUS
 62
           3
100
AcDbLine
 10
198.111375366692
 20
-153.926976154426
 11
198.111375366692
 21
-154.479290963616
  0
LINE
  5
ED
100
AcDbEntity
  8
KONTUR
  6
CONTINUOUS
 62
           3
100
AcDbLine
 10
170.367106894379
 20
-156.709703996005
 11
170.476706714421
 21
-156.734386053004
  0
LINE
  5
EC
100
AcDbEntity
  8
KONTUR
  6
CONTINUOUS
 62
           3
100
AcDbLine
 10
170.476706714421
 20
-156.734386053004
 11
170.58500119751
 21
-156.762778996481
  0
LINE
  5
EB
100
AcDbEntity
  8
KONTUR
  6
CONTINUOUS
 62
           3
100
AcDbLine
 10
170.58500119751
 20
-156.762778996481
 11
170.690677547627
 21
-156.798601171984
  0
LINE
  5
EA
100
AcDbEntity
  8
KONTUR
  6
CONTINUOUS
 62
           3
100
AcDbLine
 10
170.690677547627
 20
-156.798601171984
 11
170.792519936638
 21
-156.844873502172
  0
LINE
  5
E9
100
AcDbEntity
  8
KONTUR
  6
CONTINUOUS
 62
           3
100
AcDbLine
 10
170.792519936638
 20
-156.844873502172
 11
170.888868721848
 21
-156.902192712511
  0
LINE
  5
E8
100
AcDbEntity
  8
KONTUR
  6
CONTINUOUS
 62
           3
100
AcDbLine
 10
170.888868721848
 20
-156.902192712511
 11
170.976904375439
 21
-156.971752253928
  0
LINE
  5
E7
100
AcDbEntity
  8
KONTUR
  6
CONTINUOUS
 62
           3
100
AcDbLine
 10
170.976904375439
 20
-156.971752253928
 11
171.053453063851
 21
-157.053936268439
  0
LINE
  5
E6
100
AcDbEntity
  8
KONTUR
  6
CONTINUOUS
 62
           3
100
AcDbLine
 10
171.053453063851
 20
-157.053936268439
 11
171.11480017107
 21
-157.147055277075
  0
LINE
  5
E5
100
AcDbEntity
  8
KONTUR
  6
CONTINUOUS
 62
           3
100
AcDbLine
 10
171.11480017107
 20
-157.147055277075
 11
171.1597335985
 21
-157.248968527235
  0
LINE
  5
E4
100
AcDbEntity
  8
KONTUR
  6
CONTINUOUS
 62
           3
100
AcDbLine
 10
171.1597335985
 20
-157.248968527235
 11
171.190610411721
 21
-157.357292846599
  0
LINE
  5
E3
100
AcDbEntity
  8
KONTUR
  6
CONTINUOUS
 62
           3
100
AcDbLine
 10
171.190610411721
 20
-157.357292846599
 11
171.21005247324
 21
-157.46963387424
  0
LINE
  5
E2
100
AcDbEntity
  8
KONTUR
  6
CONTINUOUS
 62
           3
100
AcDbLine
 10
171.21005247324
 20
-157.46963387424
 11
171.220662997894
 21
-157.583589790167
  0
LINE
  5
E1
100
AcDbEntity
  8
KONTUR
  6
CONTINUOUS
 62
           3
100
AcDbLine
 10
171.220662997894
 20
-157.583589790167
 11
171.22504520052
 21
-157.69686693088
  0
LINE
  5
E0
100
AcDbEntity
  8
KONTUR
  6
CONTINUOUS
 62
           3
100
AcDbLine
 10
171.22504520052
 20
-157.69686693088
 11
171.225466637879
 21
-157.808823816504
  0
LINE
  5
DF
100
AcDbEntity
  8
KONTUR
  6
CONTINUOUS
 62
           3
100
AcDbLine
 10
171.225466637879
 20
-157.808823816504
 11
171.223952447014
 21
-157.920113115515
  0
LINE
  5
DE
100
AcDbEntity
  8
KONTUR
  6
CONTINUOUS
 62
           3
100
AcDbLine
 10
171.223952447014
 20
-157.920113115515
 11
171.222456903821
 21
-158.031413603129
  0
LINE
  5
DD
100
AcDbEntity
  8
KONTUR
  6
CONTINUOUS
 62
           3
100
AcDbLine
 10
171.222456903821
 20
-158.031413603129
 11
171.221793046742
 21
-158.143004994406
  0
LINE
  5
DC
100
AcDbEntity
  8
KONTUR
  6
CONTINUOUS
 62
           3
100
AcDbLine
 10
171.221793046742
 20
-158.143004994406
 11
171.221766940003
 21
-158.254820157732
  0
LINE
  5
DB
100
AcDbEntity
  8
KONTUR
  6
CONTINUOUS
 62
           3
100
AcDbLine
 10
171.221766940003
 20
-158.254820157732
 11
171.222136163884
 21
-158.366769584289
  0
LINE
  5
DA
100
AcDbEntity
  8
KONTUR
  6
CONTINUOUS
 62
           3
100
AcDbLine
 10
171.222136163884
 20
-158.366769584289
 11
171.222673216801
 21
-158.47877868339
  0
LINE
  5
D9
100
AcDbEntity
  8
KONTUR
  6
CONTINUOUS
 62
           3
100
AcDbLine
 10
171.222673216801
 20
-158.47877868339
 11
171.223135679035
 21
-158.590761675754
  0
LINE
  5
D8
100
AcDbEntity
  8
KONTUR
  6
CONTINUOUS
 62
           3
100
AcDbLine
 10
171.223135679035
 20
-158.590761675754
 11
171.223333344345
 21
-158.702651429762
  0
LINE
  5
D7
100
AcDbEntity
  8
KONTUR
  6
CONTINUOUS
 62
           3
100
AcDbLine
 10
171.223333344345
 20
-158.702651429762
 11
171.223307237606
 21
-158.814462863555
  0
LINE
  5
D6
100
AcDbEntity
  8
KONTUR
  6
CONTINUOUS
 62
           3
100
AcDbLine
 10
171.223307237606
 20
-158.814462863555
 11
171.223165515309
 21
-158.926237002005
  0
LINE
  5
D5
100
AcDbEntity
  8
KONTUR
  6
CONTINUOUS
 62
           3
100
AcDbLine
 10
170.587522362595
 20
-158.926237002005
 11
170.587227729397
 21
-158.678055152049
  0
LINE
  5
D4
100
AcDbEntity
  8
KONTUR
  6
CONTINUOUS
 62
           3
100
AcDbLine
 10
170.587227729397
 20
-158.678055152049
 11
170.587044982224
 21
-158.429888220229
  0
LINE
  5
D3
100
AcDbEntity
  8
KONTUR
  6
CONTINUOUS
 62
           3
100
AcDbLine
 10
170.587044982224
 20
-158.429888220229
 11
170.588421180325
 21
-158.181918953719
  0
LINE
  5
D2
100
AcDbEntity
  8
KONTUR
  6
CONTINUOUS
 62
           3
100
AcDbLine
 10
170.588421180325
 20
-158.181918953719
 11
170.589029094391
 21
-157.933852719321
  0
LINE
  5
D1
100
AcDbEntity
  8
KONTUR
  6
CONTINUOUS
 62
           3
100
AcDbLine
 10
170.589029094391
 20
-157.933852719321
 11
170.581659534912
 21
-157.685167382254
  0
LINE
  5
D0
100
AcDbEntity
  8
KONTUR
  6
CONTINUOUS
 62
           3
100
AcDbLine
 10
170.581659534912
 20
-157.685167382254
 11
170.543894272118
 21
-157.439957971015
  0
LINE
  5
CF
100
AcDbEntity
  8
KONTUR
  6
CONTINUOUS
 62
           3
100
AcDbLine
 10
170.543894272118
 20
-157.439957971015
 11
170.439720924264
 21
-157.215096898092
  0
LINE
  5
CE
100
AcDbEntity
  8
KONTUR
  6
CONTINUOUS
 62
           3
100
AcDbLine
 10
170.439720924264
 20
-157.215096898092
 11
170.250961741906
 21
-157.054697093405
  0
LINE
  5
CD
100
AcDbEntity
  8
KONTUR
  6
CONTINUOUS
 62
           3
100
AcDbLine
 10
170.250961741906
 20
-157.054697093405
 11
170.01353959797
 21
-156.979524603095
  0
LINE
  5
CC
100
AcDbEntity
  8
KONTUR
  6
CONTINUOUS
 62
           3
100
AcDbLine
 10
170.01353959797
 20
-156.979524603095
 11
169.766842102604
 21
-156.95464861032
  0
LINE
  5
CB
100
AcDbEntity
  8
KONTUR
  6
CONTINUOUS
 62
           3
100
AcDbLine
 10
169.766842102604
 20
-156.95464861032
 11
169.518637875443
 21
-156.948845455183
  0
LINE
  5
CA
100
AcDbEntity
  8
KONTUR
  6
CONTINUOUS
 62
           3
100
AcDbLine
 10
169.518637875443
 20
-156.948845455183
 11
169.270508238965
 21
-156.949214679064
  0
LINE
  5
C9
100
AcDbEntity
  8
KONTUR
  6
CONTINUOUS
 62
           3
100
AcDbLine
 10
169.270508238965
 20
-156.949214679064
 11
169.022400979691
 21
-156.951265922846
  0
LINE
  5
C8
100
AcDbEntity
  8
KONTUR
  6
CONTINUOUS
 62
           3
100
AcDbLine
 10
169.022400979691
 20
-156.951265922846
 11
168.774267613678
 21
-156.951780598558
  0
LINE
  5
C7
100
AcDbEntity
  8
KONTUR
  6
CONTINUOUS
 62
           3
100
AcDbLine
 10
168.774267613678
 20
-156.951780598558
 11
168.526115599995
 21
-156.951284570517
  0
LINE
  5
C6
100
AcDbEntity
  8
KONTUR
  6
CONTINUOUS
 62
           3
100
AcDbLine
 10
168.526115599995
 20
-156.951284570517
 11
168.277963586311
 21
-156.950941453375
  0
LINE
  5
C5
100
AcDbEntity
  8
KONTUR
  6
CONTINUOUS
 62
           3
100
AcDbLine
 10
168.277963586311
 20
-156.950941453375
 11
168.029822761231
 21
-156.950986207785
  0
LINE
  5
C4
100
AcDbEntity
  8
KONTUR
  6
CONTINUOUS
 62
           3
100
AcDbLine
 10
168.029822761231
 20
-156.950986207785
 11
167.78168193615
 21
-156.951146577754
  0
LINE
  5
C3
100
AcDbEntity
  8
KONTUR
  6
CONTINUOUS
 62
           3
100
AcDbLine
 10
167.78168193615
 20
-156.951146577754
 11
167.533537381535
 21
-156.9512062503
  0
LINE
  5
C2
100
AcDbEntity
  8
KONTUR
  6
CONTINUOUS
 62
           3
100
AcDbLine
 10
167.533537381535
 20
-156.9512062503
 11
167.28539282692
 21
-156.951183873095
  0
LINE
  5
C1
100
AcDbEntity
  8
KONTUR
  6
CONTINUOUS
 62
           3
100
AcDbLine
 10
167.28539282692
 20
-156.951183873095
 11
167.037248272305
 21
-156.951139118685
  0
LINE
  5
C0
100
AcDbEntity
  8
KONTUR
  6
CONTINUOUS
 62
           3
100
AcDbLine
 10
167.037248272305
 20
-156.951139118685
 11
166.78910371769
 21
-156.951127930082
  0
LINE
  5
BF
100
AcDbEntity
  8
KONTUR
  6
CONTINUOUS
 62
           3
100
AcDbLine
 10
166.78910371769
 20
-156.951127930082
 11
166.540962892609
 21
-156.951135389151
  0
LINE
  5
BE
100
AcDbEntity
  8
KONTUR
  6
CONTINUOUS
 62
           3
100
AcDbLine
 10
166.540962892609
 20
-156.951135389151
 11
166.292818337994
 21
-156.951135389151
  0
LINE
  5
BD
100
AcDbEntity
  8
KONTUR
  6
CONTINUOUS
 62
           3
100
AcDbLine
 10
166.292818337994
 20
-154.479289663901
 11
166.706259575634
 21
-154.479293393435
  0
LINE
  5
BC
100
AcDbEntity
  8
KONTUR
  6
CONTINUOUS
 62
           3
100
AcDbLine
 10
166.706259575634
 20
-154.479293393435
 11
167.119689624672
 21
-154.479300852503
  0
LINE
  5
BB
100
AcDbEntity
  8
KONTUR
  6
CONTINUOUS
 62
           3
100
AcDbLine
 10
167.119689624672
 20
-154.479300852503
 11
167.533142050915
 21
-154.479297122969
  0
LINE
  5
BA
100
AcDbEntity
  8
KONTUR
  6
CONTINUOUS
 62
           3
100
AcDbLine
 10
167.533142050915
 20
-154.479297122969
 11
167.946639231568
 21
-154.479282204832
  0
LINE
  5
B9
100
AcDbEntity
  8
KONTUR
  6
CONTINUOUS
 62
           3
100
AcDbLine
 10
167.946639231568
 20
-154.479282204832
 11
168.360091657811
 21
-154.479278475299
  0
LINE
  5
B8
100
AcDbEntity
  8
KONTUR
  6
CONTINUOUS
 62
           3
100
AcDbLine
 10
168.360091657811
 20
-154.479278475299
 11
168.773346418743
 21
-154.479353065981
  0
LINE
  5
B7
100
AcDbEntity
  8
KONTUR
  6
CONTINUOUS
 62
           3
100
AcDbLine
 10
168.773346418743
 20
-154.479353065981
 11
169.186813763123
 21
-154.479345606912
  0
LINE
  5
B6
100
AcDbEntity
  8
KONTUR
  6
CONTINUOUS
 62
           3
100
AcDbLine
 10
169.186813763123
 20
-154.479345606912
 11
169.599852211075
 21
-154.483116165938
  0
LINE
  5
B5
100
AcDbEntity
  8
KONTUR
  6
CONTINUOUS
 62
           3
100
AcDbLine
 10
169.599852211075
 20
-154.483116165938
 11
170.015437930851
 21
-154.518580306162
  0
LINE
  5
B4
100
AcDbEntity
  8
KONTUR
  6
CONTINUOUS
 62
           3
100
AcDbLine
 10
170.015437930851
 20
-154.518580306162
 11
170.400314666443
 21
-154.665042841735
  0
LINE
  5
B3
100
AcDbEntity
  8
KONTUR
  6
CONTINUOUS
 62
           3
100
AcDbLine
 10
170.400314666443
 20
-154.665042841735
 11
170.597290012532
 21
-155.019844613947
  0
LINE
  5
B2
100
AcDbEntity
  8
KONTUR
  6
CONTINUOUS
 62
           3
100
AcDbLine
 10
170.597290012532
 20
-155.019844613947
 11
170.608131768303
 21
-155.43658648931
  0
LINE
  5
B1
100
AcDbEntity
  8
KONTUR
  6
CONTINUOUS
 62
           3
100
AcDbLine
 10
170.608131768303
 20
-155.43658648931
 11
170.594455566578
 21
-155.849770389094
  0
LINE
  5
B0
100
AcDbEntity
  8
KONTUR
  6
CONTINUOUS
 62
           3
100
AcDbLine
 10
170.594455566578
 20
-155.849770389094
 11
170.393329248982
 21
-156.203102724853
  0
LINE
  5
AF
100
AcDbEntity
  8
KONTUR
  6
CONTINUOUS
 62
           3
100
AcDbLine
 10
170.393329248982
 20
-156.203102724853
 11
170.011894873409
 21
-156.361924936595
  0
LINE
  5
AE
100
AcDbEntity
  8
KONTUR
  6
CONTINUOUS
 62
           3
100
AcDbLine
 10
170.011894873409
 20
-156.361924936595
 11
169.600448936539
 21
-156.39828043548
  0
LINE
  5
AD
100
AcDbEntity
  8
KONTUR
  6
CONTINUOUS
 62
           3
100
AcDbLine
 10
169.600448936539
 20
-156.39828043548
 11
169.186948026352
 21
-156.399306057371
  0
LINE
  5
AC
100
AcDbEntity
  8
KONTUR
  6
CONTINUOUS
 62
           3
100
AcDbLine
 10
169.186948026352
 20
-156.399306057371
 11
168.773529165917
 21
-156.398806299796
  0
LINE
  5
AB
100
AcDbEntity
  8
KONTUR
  6
CONTINUOUS
 62
           3
100
AcDbLine
 10
168.773529165917
 20
-156.398806299796
 11
168.360058092003
 21
-156.399209089484
  0
LINE
  5
AA
100
AcDbEntity
  8
KONTUR
  6
CONTINUOUS
 62
           3
100
AcDbLine
 10
168.360058092003
 20
-156.399209089484
 11
167.946613124829
 21
-156.399145687404
  0
LINE
  5
A9
100
AcDbEntity
  8
KONTUR
  6
CONTINUOUS
 62
           3
100
AcDbLine
 10
167.946613124829
 20
-156.399145687404
 11
167.53316442812
 21
-156.399123310199
  0
LINE
  5
A8
100
AcDbEntity
  8
KONTUR
  6
CONTINUOUS
 62
           3
100
AcDbLine
 10
167.53316442812
 20
-156.399123310199
 11
167.119715731411
 21
-156.399153146471
  0
LINE
  5
A7
100
AcDbEntity
  8
KONTUR
  6
CONTINUOUS
 62
           3
100
AcDbLine
 10
167.119715731411
 20
-156.399153146471
 11
166.706267034703
 21
-156.399156876006
  0
LINE
  5
A6
100
AcDbEntity
  8
KONTUR
  6
CONTINUOUS
 62
           3
100
AcDbLine
 10
166.706267034703
 20
-156.399156876006
 11
166.292818337994
 21
-156.399156876006
  0
LINE
  5
A5
100
AcDbEntity
  8
KONTUR
  6
CONTINUOUS
 62
           3
100
AcDbLine
 10
169.205058644181
 20
-153.926975492682
 11
169.408053458386
 21
-153.926516759981
  0
LINE
  5
A4
100
AcDbEntity
  8
KONTUR
  6
CONTINUOUS
 62
           3
100
AcDbLine
 10
169.408053458386
 20
-153.926516759981
 11
169.610548515015
 21
-153.927516275134
  0
LINE
  5
A3
100
AcDbEntity
  8
KONTUR
  6
CONTINUOUS
 62
           3
100
AcDbLine
 10
169.610548515015
 20
-153.927516275134
 11
169.812569920807
 21
-153.931976797976
  0
LINE
  5
A2
100
AcDbEntity
  8
KONTUR
  6
CONTINUOUS
 62
           3
100
AcDbLine
 10
169.812569920807
 20
-153.931976797976
 11
170.015020223027
 21
-153.942822283281
  0
LINE
  5
A1
100
AcDbEntity
  8
KONTUR
  6
CONTINUOUS
 62
           3
100
AcDbLine
 10
170.015020223027
 20
-153.942822283281
 11
170.21887655962
 21
-153.963092301382
  0
LINE
  5
A0
100
AcDbEntity
  8
KONTUR
  6
CONTINUOUS
 62
           3
100
AcDbLine
 10
170.21887655962
 20
-153.963092301382
 11
170.422654575997
 21
-153.997389097419
  0
LINE
  5
9F
100
AcDbEntity
  8
KONTUR
  6
CONTINUOUS
 62
           3
100
AcDbLine
 10
170.422654575997
 20
-153.997389097419
 11
170.61980521019
 21
-154.053559611239
  0
LINE
  5
9E
100
AcDbEntity
  8
KONTUR
  6
CONTINUOUS
 62
           3
100
AcDbLine
 10
170.61980521019
 20
-154.053559611239
 11
170.803134190827
 21
-154.139864760985
  0
LINE
  5
9D
100
AcDbEntity
  8
KONTUR
  6
CONTINUOUS
 62
           3
100
AcDbLine
 10
170.803134190827
 20
-154.139864760985
 11
170.965316712838
 21
-154.263394391074
  0
LINE
  5
9C
100
AcDbEntity
  8
KONTUR
  6
CONTINUOUS
 62
           3
100
AcDbLine
 10
170.965316712838
 20
-154.263394391074
 11
171.097659232121
 21
-154.420504746641
  0
LINE
  5
9B
100
AcDbEntity
  8
KONTUR
  6
CONTINUOUS
 62
           3
100
AcDbLine
 10
171.097659232121
 20
-154.420504746641
 11
171.190905044918
 21
-154.601763835825
  0
LINE
  5
9A
100
AcDbEntity
  8
KONTUR
  6
CONTINUOUS
 62
           3
100
AcDbLine
 10
171.190905044918
 20
-154.601763835825
 11
171.244580500393
 21
-154.797926143469
  0
LINE
  5
99
100
AcDbEntity
  8
KONTUR
  6
CONTINUOUS
 62
           3
100
AcDbLine
 10
171.244580500393
 20
-154.797926143469
 11
171.271134783535
 21
-155.000163862242
  0
LINE
  5
98
100
AcDbEntity
  8
KONTUR
  6
CONTINUOUS
 62
           3
100
AcDbLine
 10
171.271134783535
 20
-155.000163862242
 11
171.282077236729
 21
-155.202472442164
  0
LINE
  5
97
100
AcDbEntity
  8
KONTUR
  6
CONTINUOUS
 62
           3
100
AcDbLine
 10
171.282077236729
 20
-155.202472442164
 11
171.284624508553
 21
-155.405004794135
  0
LINE
  5
96
100
AcDbEntity
  8
KONTUR
  6
CONTINUOUS
 62
           3
100
AcDbLine
 10
171.284624508553
 20
-155.405004794135
 11
171.285407710724
 21
-155.608708219828
  0
LINE
  5
95
100
AcDbEntity
  8
KONTUR
  6
CONTINUOUS
 62
           3
100
AcDbLine
 10
171.285407710724
 20
-155.608708219828
 11
171.284150857716
 21
-155.813250790705
  0
LINE
  5
94
100
AcDbEntity
  8
KONTUR
  6
CONTINUOUS
 62
           3
100
AcDbLine
 10
171.284150857716
 20
-155.813250790705
 11
171.263440754585
 21
-156.015096908392
  0
LINE
  5
93
100
AcDbEntity
  8
KONTUR
  6
CONTINUOUS
 62
           3
100
AcDbLine
 10
171.263440754585
 20
-156.015096908392
 11
171.20365259264
 21
-156.209968797222
  0
LINE
  5
92
100
AcDbEntity
  8
KONTUR
  6
CONTINUOUS
 62
           3
100
AcDbLine
 10
171.20365259264
 20
-156.209968797222
 11
171.096596314888
 21
-156.386364573874
  0
LINE
  5
91
100
AcDbEntity
  8
KONTUR
  6
CONTINUOUS
 62
           3
100
AcDbLine
 10
171.096596314888
 20
-156.386364573874
 11
170.946967404824
 21
-156.524692995466
  0
LINE
  5
90
100
AcDbEntity
  8
KONTUR
  6
CONTINUOUS
 62
           3
100
AcDbLine
 10
170.946967404824
 20
-156.524692995466
 11
170.764462651234
 21
-156.614798540511
  0
LINE
  5
8F
100
AcDbEntity
  8
KONTUR
  6
CONTINUOUS
 62
           3
100
AcDbLine
 10
170.764462651234
 20
-156.614798540511
 11
170.567849069958
 21
-156.668108501639
  0
LINE
  5
8E
100
AcDbEntity
  8
KONTUR
  6
CONTINUOUS
 62
           3
100
AcDbLine
 10
170.567849069958
 20
-156.668108501639
 11
170.367106894379
 21
-156.696094925894
  0
LINE
  5
8D
100
AcDbEntity
  8
KONTUR
  6
CONTINUOUS
 62
           3
100
AcDbLine
 10
185.456570830803
 20
-156.626844935813
 11
185.875278170663
 21
-156.62683374721
  0
LINE
  5
8C
100
AcDbEntity
  8
KONTUR
  6
CONTINUOUS
 62
           3
100
AcDbLine
 10
185.875278170663
 20
-156.62683374721
 11
186.294000428658
 21
-156.626837476743
  0
LINE
  5
8B
100
AcDbEntity
  8
KONTUR
  6
CONTINUOUS
 62
           3
100
AcDbLine
 10
186.294000428658
 20
-156.626837476743
 11
186.712759981995
 21
-156.626975469507
  0
LINE
  5
8A
100
AcDbEntity
  8
KONTUR
  6
CONTINUOUS
 62
           3
100
AcDbLine
 10
186.712759981995
 20
-156.626975469507
 11
187.131310681419
 21
-156.626490630069
  0
LINE
  5
89
100
AcDbEntity
  8
KONTUR
  6
CONTINUOUS
 62
           3
100
AcDbLine
 10
187.131310681419
 20
-156.626490630069
 11
187.549876298981
 21
-156.626050545039
  0
LINE
  5
88
100
AcDbEntity
  8
KONTUR
  6
CONTINUOUS
 62
           3
100
AcDbLine
 10
187.549876298981
 20
-156.626050545039
 11
187.969247495919
 21
-156.62797498466
  0
LINE
  5
87
100
AcDbEntity
  8
KONTUR
  6
CONTINUOUS
 62
           3
100
AcDbLine
 10
187.969247495919
 20
-156.62797498466
 11
188.388439675216
 21
-156.629384748567
  0
LINE
  5
86
100
AcDbEntity
  8
KONTUR
  6
CONTINUOUS
 62
           3
100
AcDbLine
 10
188.388439675216
 20
-156.629384748567
 11
188.804484127694
 21
-156.622048754896
  0
LINE
  5
85
100
AcDbEntity
  8
KONTUR
  6
CONTINUOUS
 62
           3
100
AcDbLine
 10
188.804484127694
 20
-156.622048754896
 11
189.22319892662
 21
-156.635915162864
  0
LINE
  5
84
100
AcDbEntity
  8
KONTUR
  6
CONTINUOUS
 62
           3
100
AcDbLine
 10
189.22319892662
 20
-156.635915162864
 11
189.634641133957
 21
-156.750527476801
  0
LINE
  5
83
100
AcDbEntity
  8
KONTUR
  6
CONTINUOUS
 62
           3
100
AcDbLine
 10
189.634641133957
 20
-156.750527476801
 11
189.86353010376
 21
-157.086133336749
  0
LINE
  5
82
100
AcDbEntity
  8
KONTUR
  6
CONTINUOUS
 62
           3
100
AcDbLine
 10
189.86353010376
 20
-157.086133336749
 11
189.889748728829
 21
-157.504109687915
  0
LINE
  5
81
100
AcDbEntity
  8
KONTUR
  6
CONTINUOUS
 62
           3
100
AcDbLine
 10
189.889748728829
 20
-157.504109687915
 11
189.866879225427
 21
-157.921806324019
  0
LINE
  5
80
100
AcDbEntity
  8
KONTUR
  6
CONTINUOUS
 62
           3
100
AcDbLine
 10
189.866879225427
 20
-157.921806324019
 11
189.626152714234
 21
-158.254204784597
  0
LINE
  5
7F
100
AcDbEntity
  8
KONTUR
  6
CONTINUOUS
 62
           3
100
AcDbLine
 10
189.626152714234
 20
-158.254204784597
 11
189.224914512329
 21
-158.364971948828
  0
LINE
  5
7E
100
AcDbEntity
  8
KONTUR
  6
CONTINUOUS
 62
           3
100
AcDbLine
 10
189.224914512329
 20
-158.364971948828
 11
188.806237008744
 21
-158.374747057834
  0
LINE
  5
7D
100
AcDbEntity
  8
KONTUR
  6
CONTINUOUS
 62
           3
100
AcDbLine
 10
188.806237008744
 20
-158.374747057834
 11
188.387589341432
 21
-158.373042660727
  0
LINE
  5
7C
100
AcDbEntity
  8
KONTUR
  6
CONTINUOUS
 62
           3
100
AcDbLine
 10
188.387589341432
 20
-158.373042660727
 11
187.968859624367
 21
-158.373553606905
  0
LINE
  5
7B
100
AcDbEntity
  8
KONTUR
  6
CONTINUOUS
 62
           3
100
AcDbLine
 10
187.968859624367
 20
-158.373553606905
 11
187.55014482544
 21
-158.373449179949
  0
LINE
  5
7A
100
AcDbEntity
  8
KONTUR
  6
CONTINUOUS
 62
           3
100
AcDbLine
 10
187.55014482544
 20
-158.373449179949
 11
187.131430026513
 21
-158.373437991346
  0
LINE
  5
79
100
AcDbEntity
  8
KONTUR
  6
CONTINUOUS
 62
           3
100
AcDbLine
 10
187.131430026513
 20
-158.373437991346
 11
186.712715227585
 21
-158.373456639017
  0
LINE
  5
78
100
AcDbEntity
  8
KONTUR
  6
CONTINUOUS
 62
           3
100
AcDbLine
 10
186.712715227585
 20
-158.373456639017
 11
186.294000428658
 21
-158.373449179949
  0
LINE
  5
77
100
AcDbEntity
  8
KONTUR
  6
CONTINUOUS
 62
           3
100
AcDbLine
 10
186.294000428658
 20
-158.373449179949
 11
185.87528562973
 21
-158.373449179949
  0
LINE
  5
76
100
AcDbEntity
  8
KONTUR
  6
CONTINUOUS
 62
           3
100
AcDbLine
 10
185.87528562973
 20
-158.373449179949
 11
185.456570830803
 21
-158.373449179949
  0
LINE
  5
75
100
AcDbEntity
  8
KONTUR
  6
CONTINUOUS
 62
           3
100
AcDbLine
 10
189.565353848534
 20
-156.281672820773
 11
189.918697372894
 21
-156.334624746623
  0
LINE
  5
74
100
AcDbEntity
  8
KONTUR
  6
CONTINUOUS
 62
           3
100
AcDbLine
 10
189.918697372894
 20
-156.334624746623
 11
190.241100681954
 21
-156.481974911322
  0
LINE
  5
73
100
AcDbEntity
  8
KONTUR
  6
CONTINUOUS
 62
           3
100
AcDbLine
 10
190.241100681954
 20
-156.481974911322
 11
190.466043804626
 21
-156.755118533339
  0
LINE
  5
72
100
AcDbEntity
  8
KONTUR
  6
CONTINUOUS
 62
           3
100
AcDbLine
 10
190.466043804626
 20
-156.755118533339
 11
190.558349774819
 21
-157.098239404596
  0
LINE
  5
71
100
AcDbEntity
  8
KONTUR
  6
CONTINUOUS
 62
           3
100
AcDbLine
 10
190.558349774819
 20
-157.098239404596
 11
190.567561724167
 21
-157.453719952025
  0
LINE
  5
70
100
AcDbEntity
  8
KONTUR
  6
CONTINUOUS
 62
           3
100
AcDbLine
 10
190.567561724167
 20
-157.453719952025
 11
190.568710420685
 21
-157.808913325324
  0
LINE
  5
6F
100
AcDbEntity
  8
KONTUR
  6
CONTINUOUS
 62
           3
100
AcDbLine
 10
190.568710420685
 20
-157.808913325324
 11
190.5216959132
 21
-158.163051240458
  0
LINE
  5
6E
100
AcDbEntity
  8
KONTUR
  6
CONTINUOUS
 62
           3
100
AcDbLine
 10
190.5216959132
 20
-158.163051240458
 11
190.353702776985
 21
-158.474888779272
  0
LINE
  5
6D
100
AcDbEntity
  8
KONTUR
  6
CONTINUOUS
 62
           3
100
AcDbLine
 10
190.353702776985
 20
-158.474888779272
 11
190.079611853294
 21
-158.702461223521
  0
LINE
  5
6C
100
AcDbEntity
  8
KONTUR
  6
CONTINUOUS
 62
           3
100
AcDbLine
 10
190.079611853294
 20
-158.702461223521
 11
189.752569003754
 21
-158.841569117751
  0
LINE
  5
6B
100
AcDbEntity
  8
KONTUR
  6
CONTINUOUS
 62
           3
100
AcDbLine
 10
189.752569003754
 20
-158.841569117751
 11
189.403805347329
 21
-158.910703492273
  0
LINE
  5
6A
100
AcDbEntity
  8
KONTUR
  6
CONTINUOUS
 62
           3
100
AcDbLine
 10
189.403805347329
 20
-158.910703492273
 11
189.04873877819
 21
-158.92674421865
  0
LINE
  5
69
100
AcDbEntity
  8
KONTUR
  6
CONTINUOUS
 62
           3
100
AcDbLine
 10
189.04873877819
 20
-158.92674421865
 11
188.693194828683
 21
-158.925506013312
  0
LINE
  5
68
100
AcDbEntity
  8
KONTUR
  6
CONTINUOUS
 62
           3
100
AcDbLine
 10
188.693194828683
 20
-158.925506013312
 11
188.337725469857
 21
-158.926024418559
  0
LINE
  5
67
100
AcDbEntity
  8
KONTUR
  6
CONTINUOUS
 62
           3
100
AcDbLine
 10
188.337725469857
 20
-158.926024418559
 11
187.98225611103
 21
-158.92645704452
  0
LINE
  5
66
100
AcDbEntity
  8
KONTUR
  6
CONTINUOUS
 62
           3
100
AcDbLine
 10
187.98225611103
 20
-158.92645704452
 11
187.626764375
 21
-158.92634888803
  0
LINE
  5
65
100
AcDbEntity
  8
KONTUR
  6
CONTINUOUS
 62
           3
100
AcDbLine
 10
187.626764375
 20
-158.92634888803
 11
187.271265179902
 21
-158.926184788527
  0
LINE
  5
64
100
AcDbEntity
  8
KONTUR
  6
CONTINUOUS
 62
           3
100
AcDbLine
 10
187.271265179902
 20
-158.926184788527
 11
186.915780902939
 21
-158.926184788527
  0
LINE
  5
63
100
AcDbEntity
  8
KONTUR
  6
CONTINUOUS
 62
           3
100
AcDbLine
 10
186.915780902939
 20
-158.926184788527
 11
186.560289166909
 21
-158.926237002005
  0
LINE
  5
62
100
AcDbEntity
  8
KONTUR
  6
CONTINUOUS
 62
           3
100
AcDbLine
 10
186.560289166909
 20
-158.926237002005
 11
186.204804889947
 21
-158.926248190607
  0
LINE
  5
61
100
AcDbEntity
  8
KONTUR
  6
CONTINUOUS
 62
           3
100
AcDbLine
 10
186.204804889947
 20
-158.926248190607
 11
185.849313153915
 21
-158.926233272471
  0
LINE
  5
60
100
AcDbEntity
  8
KONTUR
  6
CONTINUOUS
 62
           3
100
AcDbLine
 10
185.849313153915
 20
-158.926233272471
 11
185.493821417885
 21
-158.926233272471
  0
LINE
  5
5F
100
AcDbEntity
  8
KONTUR
  6
CONTINUOUS
 62
           3
100
AcDbLine
 10
185.493821417885
 20
-158.926233272471
 11
185.138337140923
 21
-158.926237002005
  0
LINE
  5
5E
100
AcDbEntity
  8
KONTUR
  6
CONTINUOUS
 62
           3
100
AcDbLine
 10
185.138337140923
 20
-158.926237002005
 11
184.782845404893
 21
-158.926237002005
  0
LINE
  5
5D
100
AcDbEntity
  8
KONTUR
  6
CONTINUOUS
 62
           3
100
AcDbLine
 10
185.456570830803
 20
-154.479289663901
 11
185.854668764954
 21
-154.479289663901
  0
LINE
  5
5C
100
AcDbEntity
  8
KONTUR
  6
CONTINUOUS
 62
           3
100
AcDbLine
 10
185.854668764954
 20
-154.479289663901
 11
186.252766699104
 21
-154.479394090857
  0
LINE
  5
5B
100
AcDbEntity
  8
KONTUR
  6
CONTINUOUS
 62
           3
100
AcDbLine
 10
186.252766699104
 20
-154.479394090857
 11
186.650864633255
 21
-154.479438845266
  0
LINE
  5
5A
100
AcDbEntity
  8
KONTUR
  6
CONTINUOUS
 62
           3
100
AcDbLine
 10
186.650864633255
 20
-154.479438845266
 11
187.048947649269
 21
-154.479166589274
  0
LINE
  5
59
100
AcDbEntity
  8
KONTUR
  6
CONTINUOUS
 62
           3
100
AcDbLine
 10
187.048947649269
 20
-154.479166589274
 11
187.447023206215
 21
-154.478774988189
  0
LINE
  5
58
100
AcDbEntity
  8
KONTUR
  6
CONTINUOUS
 62
           3
100
AcDbLine
 10
187.447023206215
 20
-154.478774988189
 11
187.845136058503
 21
-154.479233720889
  0
LINE
  5
57
100
AcDbEntity
  8
KONTUR
  6
CONTINUOUS
 62
           3
100
AcDbLine
 10
187.845136058503
 20
-154.479233720889
 11
188.243293665199
 21
-154.480844879641
  0
LINE
  5
56
100
AcDbEntity
  8
KONTUR
  6
CONTINUOUS
 62
           3
100
AcDbLine
 10
188.243293665199
 20
-154.480844879641
 11
188.641376681214
 21
-154.480494303431
  0
LINE
  5
55
100
AcDbEntity
  8
KONTUR
  6
CONTINUOUS
 62
           3
100
AcDbLine
 10
188.641376681214
 20
-154.480494303431
 11
189.039250843315
 21
-154.481646729484
  0
LINE
  5
54
100
AcDbEntity
  8
KONTUR
  6
CONTINUOUS
 62
           3
100
AcDbLine
 10
189.039250843315
 20
-154.481646729484
 11
189.427368544083
 21
-154.572867405238
  0
LINE
  5
53
100
AcDbEntity
  8
KONTUR
  6
CONTINUOUS
 62
           3
100
AcDbLine
 10
189.427368544083
 20
-154.572867405238
 11
189.680969407158
 21
-154.871580713381
  0
LINE
  5
52
100
AcDbEntity
  8
KONTUR
  6
CONTINUOUS
 62
           3
100
AcDbLine
 10
189.680969407158
 20
-154.871580713381
 11
189.696842304497
 21
-155.271368126502
  0
LINE
  5
51
100
AcDbEntity
  8
KONTUR
  6
CONTINUOUS
 62
           3
100
AcDbLine
 10
189.696842304497
 20
-155.271368126502
 11
189.669049816018
 21
-155.666993379511
  0
LINE
  5
50
100
AcDbEntity
  8
KONTUR
  6
CONTINUOUS
 62
           3
100
AcDbLine
 10
189.669049816018
 20
-155.666993379511
 11
189.425115905457
 21
-155.975492985262
  0
LINE
  5
4F
100
AcDbEntity
  8
KONTUR
  6
CONTINUOUS
 62
           3
100
AcDbLine
 10
189.425115905457
 20
-155.975492985262
 11
189.039638714866
 21
-156.069876305975
  0
LINE
  5
4E
100
AcDbEntity
  8
KONTUR
  6
CONTINUOUS
 62
           3
100
AcDbLine
 10
189.039638714866
 20
-156.069876305975
 11
188.641026105004
 21
-156.078036526694
  0
LINE
  5
4D
100
AcDbEntity
  8
KONTUR
  6
CONTINUOUS
 62
           3
100
AcDbLine
 10
188.641026105004
 20
-156.078036526694
 11
188.243256369858
 21
-156.073818423571
  0
LINE
  5
4C
100
AcDbEntity
  8
KONTUR
  6
CONTINUOUS
 62
           3
100
AcDbLine
 10
188.243256369858
 20
-156.073818423571
 11
187.845218108254
 21
-156.073065057672
  0
LINE
  5
4B
100
AcDbEntity
  8
KONTUR
  6
CONTINUOUS
 62
           3
100
AcDbLine
 10
187.845218108254
 20
-156.073065057672
 11
187.447030665284
 21
-156.074243590464
  0
LINE
  5
4A
100
AcDbEntity
  8
KONTUR
  6
CONTINUOUS
 62
           3
100
AcDbLine
 10
187.447030665284
 20
-156.074243590464
 11
187.048932731133
 21
-156.074265967669
  0
LINE
  5
49
100
AcDbEntity
  8
KONTUR
  6
CONTINUOUS
 62
           3
100
AcDbLine
 10
187.048932731133
 20
-156.074265967669
 11
186.650857174187
 21
-156.074019818415
  0
LINE
  5
48
100
AcDbEntity
  8
KONTUR
  6
CONTINUOUS
 62
           3
100
AcDbLine
 10
186.650857174187
 20
-156.074019818415
 11
186.252759240037
 21
-156.074068302359
  0
LINE
  5
47
100
AcDbEntity
  8
KONTUR
  6
CONTINUOUS
 62
           3
100
AcDbLine
 10
186.252759240037
 20
-156.074068302359
 11
185.854668764954
 21
-156.074060843291
  0
LINE
  5
46
100
AcDbEntity
  8
KONTUR
  6
CONTINUOUS
 62
           3
100
AcDbLine
 10
185.854668764954
 20
-156.074060843291
 11
185.456570830803
 21
-156.074057113756
  0
LINE
  5
45
100
AcDbEntity
  8
KONTUR
  6
CONTINUOUS
 62
           3
100
AcDbLine
 10
184.782845404893
 20
-153.926975492682
 11
185.111454658775
 21
-153.926975492682
  0
LINE
  5
44
100
AcDbEntity
  8
KONTUR
  6
CONTINUOUS
 62
           3
100
AcDbLine
 10
185.111454658775
 20
-153.926975492682
 11
185.440063912659
 21
-153.926960574545
  0
LINE
  5
43
100
AcDbEntity
  8
KONTUR
  6
CONTINUOUS
 62
           3
100
AcDbLine
 10
185.440063912659
 20
-153.926960574545
 11
185.768673166543
 21
-153.92696430408
  0
LINE
  5
42
100
AcDbEntity
  8
KONTUR
  6
CONTINUOUS
 62
           3
100
AcDbLine
 10
185.768673166543
 20
-153.92696430408
 11
186.097282420425
 21
-153.927035165229
  0
LINE
  5
41
100
AcDbEntity
  8
KONTUR
  6
CONTINUOUS
 62
           3
100
AcDbLine
 10
186.097282420425
 20
-153.927035165229
 11
186.425899133378
 21
-153.927076190104
  0
LINE
  5
40
100
AcDbEntity
  8
KONTUR
  6
CONTINUOUS
 62
           3
100
AcDbLine
 10
186.425899133378
 20
-153.927076190104
 11
186.754493469124
 21
-153.926934467806
  0
LINE
  5
3F
100
AcDbEntity
  8
KONTUR
  6
CONTINUOUS
 62
           3
100
AcDbLine
 10
186.754493469124
 20
-153.926934467806
 11
187.083087804871
 21
-153.926624916472
  0
LINE
  5
3E
100
AcDbEntity
  8
KONTUR
  6
CONTINUOUS
 62
           3
100
AcDbLine
 10
187.083087804871
 20
-153.926624916472
 11
187.411689599687
 21
-153.926621186937
  0
LINE
  5
3D
100
AcDbEntity
  8
KONTUR
  6
CONTINUOUS
 62
           3
100
AcDbLine
 10
187.411689599687
 20
-153.926621186937
 11
187.740358526115
 21
-153.92742303678
  0
LINE
  5
3C
100
AcDbEntity
  8
KONTUR
  6
CONTINUOUS
 62
           3
100
AcDbLine
 10
187.740358526115
 20
-153.92742303678
 11
188.06904982975
 21
-153.928698537459
  0
LINE
  5
3B
100
AcDbEntity
  8
KONTUR
  6
CONTINUOUS
 62
           3
100
AcDbLine
 10
188.06904982975
 20
-153.928698537459
 11
188.397681460839
 21
-153.929030465999
  0
LINE
  5
3A
100
AcDbEntity
  8
KONTUR
  6
CONTINUOUS
 62
           3
100
AcDbLine
 10
188.397681460839
 20
-153.929030465999
 11
188.726148992424
 21
-153.926941926875
  0
LINE
  5
39
100
AcDbEntity
  8
KONTUR
  6
CONTINUOUS
 62
           3
100
AcDbLine
 10
188.726148992424
 20
-153.926941926875
 11
189.054422588234
 21
-153.925920034517
  0
LINE
  5
38
100
AcDbEntity
  8
KONTUR
  6
CONTINUOUS
 62
           3
100
AcDbLine
 10
189.054422588234
 20
-153.925920034517
 11
189.382718561249
 21
-153.94883429233
  0
LINE
  5
37
100
AcDbEntity
  8
KONTUR
  6
CONTINUOUS
 62
           3
100
AcDbLine
 10
189.382718561249
 20
-153.94883429233
 11
189.707464017754
 21
-154.023447352519
  0
LINE
  5
36
100
AcDbEntity
  8
KONTUR
  6
CONTINUOUS
 62
           3
100
AcDbLine
 10
189.707464017754
 20
-154.023447352519
 11
189.997099639778
 21
-154.178912983526
  0
LINE
  5
35
100
AcDbEntity
  8
KONTUR
  6
CONTINUOUS
 62
           3
100
AcDbLine
 10
189.997099639778
 20
-154.178912983526
 11
190.213755737571
 21
-154.43081317903
  0
LINE
  5
34
100
AcDbEntity
  8
KONTUR
  6
CONTINUOUS
 62
           3
100
AcDbLine
 10
190.213755737571
 20
-154.43081317903
 11
190.341902530938
 21
-154.741591530146
  0
LINE
  5
33
100
AcDbEntity
  8
KONTUR
  6
CONTINUOUS
 62
           3
100
AcDbLine
 10
190.341902530938
 20
-154.741591530146
 11
190.378705573921
 21
-155.066907605376
  0
LINE
  5
32
100
AcDbEntity
  8
KONTUR
  6
CONTINUOUS
 62
           3
100
AcDbLine
 10
190.378705573921
 20
-155.066907605376
 11
190.3703812537
 21
-155.399753610052
  0
LINE
  5
31
100
AcDbEntity
  8
KONTUR
  6
CONTINUOUS
 62
           3
100
AcDbLine
 10
190.3703812537
 20
-155.399753610052
 11
190.328617930298
 21
-155.729675659956
  0
LINE
  5
30
100
AcDbEntity
  8
KONTUR
  6
CONTINUOUS
 62
           3
100
AcDbLine
 10
190.328617930298
 20
-155.729675659956
 11
190.162952023392
 21
-156.007805669131
  0
LINE
  5
2F
100
AcDbEntity
  8
KONTUR
  6
CONTINUOUS
 62
           3
100
AcDbLine
 10
190.162952023392
 20
-156.007805669131
 11
189.885511978035
 21
-156.181993561567
  0
LINE
  5
2E
100
AcDbEntity
  8
KONTUR
  6
CONTINUOUS
 62
           3
100
AcDbLine
 10
189.885511978035
 20
-156.181993561567
 11
189.565353848534
 21
-156.254324146856
  0
ENDBLK
  5
197
100
AcDbEntity
  8
0
100
AcDbBlockEnd
  0
BLOCK
  5
29
100
AcDbEntity
  8
0
100
AcDbBlockBegin
  2
GETRIEBE
 70
           0
 10
0.954534850379
 20
-98.723115774382
 30
0.0
  3
GETRIEBE
  1

  0
HATCH
  5
28F
100
AcDbEntity
  8
0
  6
CONTINUOUS
 62
           3
100
AcDbHatch
 10
0.0
 20
0.0
 30
0.0
210
0.0
220
0.0
230
1.0
  2
USER
 70
           0
 71
           1
 91
        1
 92
        1
 93
        4
 72
           1
 10
-296.32363988808811
 20
-320.55733737913198
 11
-239.74331350750501
 21
-320.55733737913198
 72
           1
 10
-304.98389392593208
 20
-335.55733737913198
 11
-296.32363988808811
 21
-320.55733737913198
 72
           1
 10
-231.0830594696599
 20
-335.55733737913198
 11
-304.98389392593208
 21
-335.55733737913198
 72
           1
 10
-239.74331350750501
 20
-320.55733737913198
 11
-231.0830594696599
 21
-335.55733737913198
 97
        4
330
19E
330
19F
330
19C
330
19D
 75
           1
 76
           0
 52
0.0
 41
0.25
 77
           0
 78
           1
 53
0.0
 43
0.0
 44
0.0
 45
0.0
 46
0.25
 79
           0
 98
        1
 10
0.0
 20
0.0
  0
HATCH
  5
28E
100
AcDbEntity
  8
0
  6
CONTINUOUS
 62
           3
100
AcDbHatch
 10
0.0
 20
0.0
 30
0.0
210
0.0
220
0.0
230
1.0
  2
USER
 70
           0
 71
           1
 91
        1
 92
        1
 93
        4
 72
           1
 10
-293.44799554106999
 20
-227.53809949266491
 11
-308.44799554106999
 21
-201.55733737913201
 72
           1
 10
-308.44799554106999
 20
-201.55733737913201
 11
-308.44799554106999
 21
-329.55733737913198
 72
           1
 10
-308.44799554106999
 20
-329.55733737913198
 11
-293.44799554106999
 21
-303.57657526559888
 72
           1
 10
-293.44799554106999
 20
-303.57657526559888
 11
-293.44799554106999
 21
-227.53809949266491
 97
        4
330
198
330
199
330
19B
330
19A
 75
           1
 76
           0
 52
0.0
 41
0.25
 77
           0
 78
           1
 53
0.0
 43
0.0
 44
0.0
 45
0.0
 46
0.25
 79
           0
 98
        1
 10
0.0
 20
0.0
  0
ARC
  5
28D
100
AcDbEntity
  8
1
  6
CONTINUOUS
 62
           2
100
AcDbCircle
 10
-199.161633343973
 20
-390.557337379132
 40
1.0
100
AcDbArc
 50
-90.0
 51
0.0
  0
ARC
  5
28C
100
AcDbEntity
  8
1
  6
CONTINUOUS
 62
           2
100
AcDbCircle
 10
-213.161633343973
 20
-390.557337379132
 40
1.0
100
AcDbArc
 50
180.0
 51
-90.0
  0
ARC
  5
28B
100
AcDbEntity
  8
1
  6
CONTINUOUS
 62
           2
100
AcDbCircle
 10
-322.905320051619
 20
-390.557337379132
 40
1.0
100
AcDbArc
 50
-90.0
 51
0.0
  0
ARC
  5
28A
100
AcDbEntity
  8
1
  6
CONTINUOUS
 62
           2
100
AcDbCircle
 10
-336.905320051619
 20
-390.557337379132
 40
1.0
100
AcDbArc
 50
180.0
 51
-90.0
  0
ARC
  5
289
100
AcDbEntity
  8
1
  6
CONTINUOUS
 62
           2
100
AcDbCircle
 10
631.45599927524
 20
99.483759252577
 40
1.0
100
AcDbArc
 50
-90.0
 51
0.0
  0
ARC
  5
288
100
AcDbEntity
  8
1
  6
CONTINUOUS
 62
           2
100
AcDbCircle
 10
631.45599927524
 20
113.483759252577
 40
1.0
100
AcDbArc
 50
0.0
 51
90.0
  0
ARC
  5
287
100
AcDbEntity
  8
1
  6
CONTINUOUS
 62
           2
100
AcDbCircle
 10
631.45599927524
 20
223.227445960223
 40
1.0
100
AcDbArc
 50
-90.0
 51
0.0
  0
ARC
  5
286
100
AcDbEntity
  8
1
  6
CONTINUOUS
 62
           2
100
AcDbCircle
 10
631.45599927524
 20
237.227445960223
 40
1.0
100
AcDbArc
 50
0.0
 51
90.0
  0
CIRCLE
  5
285
100
AcDbEntity
  8
1
  6
CONTINUOUS
 62
           2
100
AcDbCircle
 10
-268.033476697796
 20
168.3556026064
 40
97.5
  0
CIRCLE
  5
284
100
AcDbEntity
  8
1
  6
CONTINUOUS
 62
           2
100
AcDbCircle
 10
-348.033476697796
 20
248.3556026064
 40
6.4
  0
CIRCLE
  5
283
100
AcDbEntity
  8
1
  6
CONTINUOUS
 62
           2
100
AcDbCircle
 10
-188.033476697796
 20
248.3556026064
 40
6.4
  0
CIRCLE
  5
282
100
AcDbEntity
  8
1
  6
CONTINUOUS
 62
           2
100
AcDbCircle
 10
-188.033476697796
 20
88.3556026064
 40
6.4
  0
CIRCLE
  5
281
100
AcDbEntity
  8
1
  6
CONTINUOUS
 62
           2
100
AcDbCircle
 10
-348.033476697796
 20
88.3556026064
 40
6.4
  0
CIRCLE
  5
280
100
AcDbEntity
  8
1
  6
CONTINUOUS
 62
           2
100
AcDbCircle
 10
-188.033476697796
 20
-185.557337379132
 40
6.4
  0
CIRCLE
  5
27F
100
AcDbEntity
  8
1
  6
CONTINUOUS
 62
           2
100
AcDbCircle
 10
-188.033476697796
 20
-345.557337379132
 40
6.4
  0
CIRCLE
  5
27E
100
AcDbEntity
  8
1
  6
CONTINUOUS
 62
           2
100
AcDbCircle
 10
-348.033476697796
 20
-185.557337379132
 40
6.4
  0
CIRCLE
  5
27D
100
AcDbEntity
  8
1
  6
CONTINUOUS
 62
           2
100
AcDbCircle
 10
-348.033476697796
 20
-345.557337379132
 40
6.4
  0
CIRCLE
  5
27C
100
AcDbEntity
  8
1
  6
CONTINUOUS
 62
           2
100
AcDbCircle
 10
506.45599927524
 20
168.3556026064
 40
97.5
  0
CIRCLE
  5
27B
100
AcDbEntity
  8
1
  6
CONTINUOUS
 62
           2
100
AcDbCircle
 10
586.45599927524
 20
248.3556026064
 40
6.4
  0
CIRCLE
  5
27A
100
AcDbEntity
  8
1
  6
CONTINUOUS
 62
           2
100
AcDbCircle
 10
426.45599927524
 20
248.3556026064
 40
6.4
  0
CIRCLE
  5
279
100
AcDbEntity
  8
1
  6
CONTINUOUS
 62
           2
100
AcDbCircle
 10
426.45599927524
 20
88.3556026064
 40
6.4
  0
CIRCLE
  5
278
100
AcDbEntity
  8
1
  6
CONTINUOUS
 62
           2
100
AcDbCircle
 10
586.45599927524
 20
88.3556026064
 40
6.4
  0
CIRCLE
  5
277
100
AcDbEntity
  8
1
  6
CONTINUOUS
 62
           2
100
AcDbCircle
 10
-206.161633343973
 20
106.483759252577
 40
8.0
  0
CIRCLE
  5
276
100
AcDbEntity
  8
1
  6
CONTINUOUS
 62
           2
100
AcDbCircle
 10
-329.905320051619
 20
106.483759252577
 40
8.0
  0
CIRCLE
  5
275
100
AcDbEntity
  8
1
  6
CONTINUOUS
 62
           2
100
AcDbCircle
 10
-329.905320051619
 20
230.227445960223
 40
8.0
  0
CIRCLE
  5
274
100
AcDbEntity
  8
1
  6
CONTINUOUS
 62
           2
100
AcDbCircle
 10
-206.161633343973
 20
230.227445960223
 40
8.0
  0
CIRCLE
  5
273
100
AcDbEntity
  8
1
  6
CONTINUOUS
 62
           2
100
AcDbCircle
 10
506.45599927524
 20
168.3556026064
 40
37.5
  0
CIRCLE
  5
272
100
AcDbEntity
  8
1
  6
CONTINUOUS
 62
           2
100
AcDbCircle
 10
506.45599927524
 20
168.3556026064
 40
47.5
  0
CIRCLE
  5
271
100
AcDbEntity
  8
1
  6
CONTINUOUS
 62
           2
100
AcDbCircle
 10
-268.033476697796
 20
168.3556026064
 40
34.0
  0
CIRCLE
  5
270
100
AcDbEntity
  8
1
  6
CONTINUOUS
 62
           2
100
AcDbCircle
 10
-268.033476697796
 20
168.3556026064
 40
16.0
  0
CIRCLE
  5
26F
100
AcDbEntity
  8
1
  6
CONTINUOUS
 62
           2
100
AcDbCircle
 10
-268.033476697796
 20
168.3556026064
 40
54.999999999999
  0
CIRCLE
  5
26E
100
AcDbEntity
  8
1
  6
CONTINUOUS
 62
           2
100
AcDbCircle
 10
-268.033476697796
 20
168.3556026064
 40
77.5
  0
ARC
  5
26D
100
AcDbEntity
  8
1
  6
CONTINUOUS
 62
           3
100
AcDbCircle
 10
-348.033476697796
 20
248.3556026064
 40
8.0
100
AcDbArc
 50
169.999999999999
 51
100.0
  0
ARC
  5
26C
100
AcDbEntity
  8
1
  6
CONTINUOUS
 62
           3
100
AcDbCircle
 10
-188.033476697796
 20
248.3556026064
 40
8.0
100
AcDbArc
 50
169.999999999999
 51
100.0
  0
ARC
  5
26B
100
AcDbEntity
  8
1
  6
CONTINUOUS
 62
           3
100
AcDbCircle
 10
-188.033476697796
 20
88.3556026064
 40
8.0
100
AcDbArc
 50
170.0
 51
100.0
  0
ARC
  5
26A
100
AcDbEntity
  8
1
  6
CONTINUOUS
 62
           3
100
AcDbCircle
 10
-348.033476697796
 20
88.3556026064
 40
8.0
100
AcDbArc
 50
170.0
 51
100.0
  0
ARC
  5
269
100
AcDbEntity
  8
1
  6
CONTINUOUS
 62
           3
100
AcDbCircle
 10
-188.033476697796
 20
-185.557337379132
 40
8.0
100
AcDbArc
 50
170.0
 51
100.0
  0
ARC
  5
268
100
AcDbEntity
  8
1
  6
CONTINUOUS
 62
           3
100
AcDbCircle
 10
-188.033476697796
 20
-345.557337379132
 40
8.0
100
AcDbArc
 50
170.0
 51
100.0
  0
ARC
  5
267
100
AcDbEntity
  8
1
  6
CONTINUOUS
 62
           3
100
AcDbCircle
 10
-348.033476697796
 20
-185.557337379132
 40
8.0
100
AcDbArc
 50
170.0
 51
100.0
  0
ARC
  5
266
100
AcDbEntity
  8
1
  6
CONTINUOUS
 62
           3
100
AcDbCircle
 10
-348.033476697796
 20
-345.557337379132
 40
8.0
100
AcDbArc
 50
170.0
 51
100.0
  0
ARC
  5
265
100
AcDbEntity
  8
1
  6
CONTINUOUS
 62
           3
100
AcDbCircle
 10
586.45599927524
 20
248.3556026064
 40
8.0
100
AcDbArc
 50
169.999999999999
 51
100.000000000002
  0
ARC
  5
264
100
AcDbEntity
  8
1
  6
CONTINUOUS
 62
           3
100
AcDbCircle
 10
426.45599927524
 20
248.3556026064
 40
8.0
100
AcDbArc
 50
169.999999999999
 51
100.000000000002
  0
ARC
  5
263
100
AcDbEntity
  8
1
  6
CONTINUOUS
 62
           3
100
AcDbCircle
 10
426.45599927524
 20
88.3556026064
 40
8.0
100
AcDbArc
 50
170.0
 51
100.000000000002
  0
ARC
  5
262
100
AcDbEntity
  8
1
  6
CONTINUOUS
 62
           3
100
AcDbCircle
 10
586.45599927524
 20
88.3556026064
 40
8.0
100
AcDbArc
 50
170.0
 51
100.000000000002
  0
ARC
  5
261
100
AcDbEntity
  8
1
  6
CONTINUOUS
 62
           2
100
AcDbCircle
 10
506.45599927524
 20
168.3556026064
 40
22.5
100
AcDbArc
 50
-161.873796039443
 51
161.873796039443
  0
ARC
  5
260
100
AcDbEntity
  8
1
  6
CONTINUOUS
 62
           2
100
AcDbCircle
 10
-268.033476697796
 20
168.3556026064
 40
17.5
100
AcDbArc
 50
0.0
 51
73.39845040098
  0
ARC
  5
25F
100
AcDbEntity
  8
1
  6
CONTINUOUS
 62
           2
100
AcDbCircle
 10
-268.033476697796
 20
168.3556026064
 40
17.5
100
AcDbArc
 50
106.60154959902
 51
0.0
  0
ARC
  5
25E
100
AcDbEntity
  8
1
  6
CONTINUOUS
 62
           2
100
AcDbCircle
 10
-268.033476697796
 20
-463.557337379132
 40
5.0
100
AcDbArc
 50
0.0
 51
180.0
  0
ARC
  5
25D
100
AcDbEntity
  8
1
  6
CONTINUOUS
 62
           2
100
AcDbCircle
 10
-268.033476697796
 20
-493.557337379132
 40
5.0
100
AcDbArc
 50
180.0
 51
0.0
  0
LINE
  5
25C
100
AcDbEntity
  8
1
  6
CONTINUOUS
 62
           2
100
AcDbLine
 10
-401.033476697796
 20
70.8556026064
 11
-401.033476697796
 21
265.8556026064
  0
LINE
  5
25B
100
AcDbEntity
  8
1
  6
CONTINUOUS
 62
           2
100
AcDbLine
 10
-401.033476697796
 20
265.8556026064
 11
-388.033476697796
 21
265.8556026064
  0
LINE
  5
25A
100
AcDbEntity
  8
1
  6
CONTINUOUS
 62
           2
100
AcDbLine
 10
-401.033476697796
 20
70.8556026064
 11
-388.033476697796
 21
70.8556026064
  0
LINE
  5
259
100
AcDbEntity
  8
1
  6
CONTINUOUS
 62
           2
100
AcDbLine
 10
-135.033476697796
 20
265.8556026064
 11
-135.033476697796
 21
70.8556026064
  0
LINE
  5
258
100
AcDbEntity
  8
1
  6
CONTINUOUS
 62
           2
100
AcDbLine
 10
-148.033476697796
 20
265.8556026064
 11
-135.033476697796
 21
265.8556026064
  0
LINE
  5
257
100
AcDbEntity
  8
1
  6
CONTINUOUS
 62
           2
100
AcDbLine
 10
-148.033476697796
 20
70.8556026064
 11
-135.033476697796
 21
70.8556026064
  0
LINE
  5
256
100
AcDbEntity
  8
1
  6
CONTINUOUS
 62
           2
100
AcDbLine
 10
-388.033476697796
 20
63.3556026064
 11
-148.033476697796
 21
63.3556026064
  0
LINE
  5
255
100
AcDbEntity
  8
1
  6
CONTINUOUS
 62
           2
100
AcDbLine
 10
-148.033476697796
 20
63.3556026064
 11
-148.033476697796
 21
273.3556026064
  0
LINE
  5
254
100
AcDbEntity
  8
1
  6
CONTINUOUS
 62
           2
100
AcDbLine
 10
-148.033476697796
 20
273.3556026064
 11
-388.033476697796
 21
273.3556026064
  0
LINE
  5
253
100
AcDbEntity
  8
1
  6
CONTINUOUS
 62
           2
100
AcDbLine
 10
-388.033476697796
 20
273.3556026064
 11
-388.033476697796
 21
63.3556026064
  0
LINE
  5
252
100
AcDbEntity
  8
1
  6
DOT_CENTER
 62
           3
100
AcDbLine
 10
-339.233476697796
 20
248.3556026064
 11
-356.833476697796
 21
248.3556026064
  0
LINE
  5
251
100
AcDbEntity
  8
1
  6
DOT_CENTER
 62
           3
100
AcDbLine
 10
-348.033476697796
 20
257.1556026064
 11
-348.033476697796
 21
239.5556026064
  0
LINE
  5
250
100
AcDbEntity
  8
1
  6
DOT_CENTER
 62
           3
100
AcDbLine
 10
-179.233476697796
 20
248.3556026064
 11
-196.833476697796
 21
248.3556026064
  0
LINE
  5
24F
100
AcDbEntity
  8
1
  6
DOT_CENTER
 62
           3
100
AcDbLine
 10
-188.033476697796
 20
257.1556026064
 11
-188.033476697796
 21
239.5556026064
  0
LINE
  5
24E
100
AcDbEntity
  8
1
  6
DOT_CENTER
 62
           3
100
AcDbLine
 10
-179.233476697796
 20
88.3556026064
 11
-196.833476697796
 21
88.3556026064
  0
LINE
  5
24D
100
AcDbEntity
  8
1
  6
DOT_CENTER
 62
           3
100
AcDbLine
 10
-188.033476697796
 20
97.1556026064
 11
-188.033476697796
 21
79.5556026064
  0
LINE
  5
24C
100
AcDbEntity
  8
1
  6
DOT_CENTER
 62
           3
100
AcDbLine
 10
-339.233476697796
 20
88.3556026064
 11
-356.833476697796
 21
88.3556026064
  0
LINE
  5
24B
100
AcDbEntity
  8
1
  6
DOT_CENTER
 62
           3
100
AcDbLine
 10
-348.033476697796
 20
97.1556026064
 11
-348.033476697796
 21
79.5556026064
  0
LINE
  5
24A
100
AcDbEntity
  8
1
  6
CONTINUOUS
 62
           2
100
AcDbLine
 10
-401.033476697796
 20
-363.057337379132
 11
-401.033476697796
 21
-168.057337379132
  0
LINE
  5
249
100
AcDbEntity
  8
1
  6
CONTINUOUS
 62
           2
100
AcDbLine
 10
-401.033476697796
 20
-168.057337379132
 11
-388.033476697796
 21
-168.057337379132
  0
LINE
  5
248
100
AcDbEntity
  8
1
  6
CONTINUOUS
 62
           2
100
AcDbLine
 10
-401.033476697796
 20
-363.057337379132
 11
-388.033476697796
 21
-363.057337379132
  0
LINE
  5
247
100
AcDbEntity
  8
1
  6
CONTINUOUS
 62
           2
100
AcDbLine
 10
-135.033476697796
 20
-168.057337379132
 11
-135.033476697796
 21
-363.057337379132
  0
LINE
  5
246
100
AcDbEntity
  8
1
  6
CONTINUOUS
 62
           2
100
AcDbLine
 10
-148.033476697796
 20
-168.057337379132
 11
-135.033476697796
 21
-168.057337379132
  0
LINE
  5
245
100
AcDbEntity
  8
1
  6
CONTINUOUS
 62
           2
100
AcDbLine
 10
-148.033476697796
 20
-363.057337379132
 11
-135.033476697796
 21
-363.057337379132
  0
LINE
  5
244
100
AcDbEntity
  8
1
  6
CONTINUOUS
 62
           2
100
AcDbLine
 10
-190.533476697796
 20
-389.557337379132
 11
-198.161633343973
 21
-389.557337379132
  0
LINE
  5
243
100
AcDbEntity
  8
1
  6
CONTINUOUS
 62
           2
100
AcDbLine
 10
-213.033476697796
 20
-453.557337379132
 11
-323.033476697796
 21
-453.557337379132
  0
LINE
  5
242
100
AcDbEntity
  8
1
  6
CONTINUOUS
 62
           2
100
AcDbLine
 10
-345.533476697796
 20
-389.557337379132
 11
-345.533476697796
 21
-385.557337379132
  0
LINE
  5
241
100
AcDbEntity
  8
1
  6
CONTINUOUS
 62
           2
100
AcDbLine
 10
-170.533476697796
 20
-385.557337379132
 11
-365.533476697796
 21
-385.557337379132
  0
LINE
  5
240
100
AcDbEntity
  8
1
  6
CONTINUOUS
 62
           2
100
AcDbLine
 10
-190.533476697796
 20
-389.557337379132
 11
-190.533476697796
 21
-385.557337379132
  0
LINE
  5
23F
100
AcDbEntity
  8
1
  6
CONTINUOUS
 62
           2
100
AcDbLine
 10
-323.033476697796
 20
-453.557337379132
 11
-323.033476697796
 21
-391.557337379132
  0
LINE
  5
23E
100
AcDbEntity
  8
1
  6
CONTINUOUS
 62
           2
100
AcDbLine
 10
-365.533476697796
 20
-385.557337379132
 11
-365.533476697796
 21
-370.557337379132
  0
LINE
  5
23D
100
AcDbEntity
  8
1
  6
CONTINUOUS
 62
           2
100
AcDbLine
 10
-170.533476697796
 20
-385.557337379132
 11
-170.533476697796
 21
-370.557337379132
  0
LINE
  5
23C
100
AcDbEntity
  8
1
  6
CONTINUOUS
 62
           2
100
AcDbLine
 10
-250.533476697796
 20
-455.557337379132
 11
-250.533476697796
 21
-453.557337379132
  0
LINE
  5
23B
100
AcDbEntity
  8
1
  6
CONTINUOUS
 62
           2
100
AcDbLine
 10
-250.533476697796
 20
-455.557337379132
 11
-285.533476697796
 21
-455.557337379132
  0
LINE
  5
23A
100
AcDbEntity
  8
1
  6
CONTINUOUS
 62
           2
100
AcDbLine
 10
-285.533476697796
 20
-453.557337379132
 11
-285.533476697796
 21
-455.557337379132
  0
LINE
  5
239
100
AcDbEntity
  8
1
  6
CONTINUOUS
 62
           2
100
AcDbLine
 10
-284.033476697796
 20
-455.557337379132
 11
-284.033476697796
 21
-500.557337379132
  0
LINE
  5
238
100
AcDbEntity
  8
1
  6
CONTINUOUS
 62
           2
100
AcDbLine
 10
-252.033476697796
 20
-500.557337379132
 11
-284.033476697796
 21
-500.557337379132
  0
LINE
  5
237
100
AcDbEntity
  8
1
  6
CONTINUOUS
 62
           2
100
AcDbLine
 10
-252.033476697796
 20
-455.557337379132
 11
-252.033476697796
 21
-500.557337379132
  0
LINE
  5
236
100
AcDbEntity
  8
1
  6
CONTINUOUS
 62
           2
100
AcDbLine
 10
-388.033476697796
 20
-370.557337379132
 11
-148.033476697796
 21
-370.557337379132
  0
LINE
  5
235
100
AcDbEntity
  8
1
  6
CONTINUOUS
 62
           2
100
AcDbLine
 10
-148.033476697796
 20
-370.557337379132
 11
-148.033476697796
 21
-160.557337379132
  0
LINE
  5
234
100
AcDbEntity
  8
1
  6
CONTINUOUS
 62
           2
100
AcDbLine
 10
-148.033476697796
 20
-160.557337379132
 11
-388.033476697796
 21
-160.557337379132
  0
LINE
  5
233
100
AcDbEntity
  8
1
  6
CONTINUOUS
 62
           2
100
AcDbLine
 10
-388.033476697796
 20
-160.557337379132
 11
-388.033476697796
 21
-370.557337379132
  0
LINE
  5
232
100
AcDbEntity
  8
1
  6
DOT_CENTER
 62
           3
100
AcDbLine
 10
-179.233476697796
 20
-185.557337379132
 11
-196.833476697796
 21
-185.557337379132
  0
LINE
  5
231
100
AcDbEntity
  8
1
  6
DOT_CENTER
 62
           3
100
AcDbLine
 10
-188.033476697796
 20
-176.757337379132
 11
-188.033476697796
 21
-194.357337379132
  0
LINE
  5
230
100
AcDbEntity
  8
1
  6
DOT_CENTER
 62
           3
100
AcDbLine
 10
-179.233476697796
 20
-345.557337379132
 11
-196.833476697796
 21
-345.557337379132
  0
LINE
  5
22F
100
AcDbEntity
  8
1
  6
DOT_CENTER
 62
           3
100
AcDbLine
 10
-188.033476697796
 20
-336.757337379132
 11
-188.033476697796
 21
-354.357337379132
  0
LINE
  5
22E
100
AcDbEntity
  8
1
  6
DOT_CENTER
 62
           3
100
AcDbLine
 10
-339.233476697796
 20
-185.557337379132
 11
-356.833476697796
 21
-185.557337379132
  0
LINE
  5
22D
100
AcDbEntity
  8
1
  6
DOT_CENTER
 62
           3
100
AcDbLine
 10
-348.033476697796
 20
-176.757337379132
 11
-348.033476697796
 21
-194.357337379132
  0
LINE
  5
22C
100
AcDbEntity
  8
1
  6
DOT_CENTER
 62
           3
100
AcDbLine
 10
-339.233476697796
 20
-345.557337379132
 11
-356.833476697796
 21
-345.557337379132
  0
LINE
  5
22B
100
AcDbEntity
  8
1
  6
DOT_CENTER
 62
           3
100
AcDbLine
 10
-348.033476697796
 20
-336.757337379132
 11
-348.033476697796
 21
-354.357337379132
  0
LINE
  5
22A
100
AcDbEntity
  8
1
  6
DOT_CENTER
 62
           3
100
AcDbLine
 10
-129.533476697796
 20
-265.557337379132
 11
-406.533476697796
 21
-265.557337379132
  0
LINE
  5
229
100
AcDbEntity
  8
1
  6
DOT_CENTER
 62
           3
100
AcDbLine
 10
-268.033476697796
 20
-157.314593188007
 11
-268.033476697796
 21
-515.557337379132
  0
LINE
  5
228
100
AcDbEntity
  8
1
  6
DOT_CENTER
 62
           3
100
AcDbLine
 10
-268.033476697796
 20
279.254373873912
 11
-268.033476697796
 21
59.934845102935
  0
LINE
  5
227
100
AcDbEntity
  8
1
  6
CONTINUOUS
 62
           2
100
AcDbLine
 10
630.45599927524
 20
245.8556026064
 11
630.45599927524
 21
238.227445960223
  0
LINE
  5
226
100
AcDbEntity
  8
1
  6
CONTINUOUS
 62
           2
100
AcDbLine
 10
694.45599927524
 20
223.3556026064
 11
694.45599927524
 21
113.3556026064
  0
LINE
  5
225
100
AcDbEntity
  8
1
  6
CONTINUOUS
 62
           2
100
AcDbLine
 10
630.45599927524
 20
90.8556026064
 11
626.45599927524
 21
90.8556026064
  0
LINE
  5
224
100
AcDbEntity
  8
1
  6
CONTINUOUS
 62
           2
100
AcDbLine
 10
626.45599927524
 20
265.8556026064
 11
626.45599927524
 21
70.8556026064
  0
LINE
  5
223
100
AcDbEntity
  8
1
  6
CONTINUOUS
 62
           2
100
AcDbLine
 10
630.45599927524
 20
245.8556026064
 11
626.45599927524
 21
245.8556026064
  0
LINE
  5
222
100
AcDbEntity
  8
1
  6
CONTINUOUS
 62
           2
100
AcDbLine
 10
626.45599927524
 20
265.8556026064
 11
611.45599927524
 21
265.8556026064
  0
LINE
  5
221
100
AcDbEntity
  8
1
  6
CONTINUOUS
 62
           2
100
AcDbLine
 10
626.45599927524
 20
70.8556026064
 11
611.45599927524
 21
70.8556026064
  0
LINE
  5
220
100
AcDbEntity
  8
1
  6
CONTINUOUS
 62
           2
100
AcDbLine
 10
694.45599927524
 20
113.3556026064
 11
632.45599927524
 21
113.3556026064
  0
LINE
  5
21F
100
AcDbEntity
  8
1
  6
CONTINUOUS
 62
           2
100
AcDbLine
 10
694.45599927524
 20
223.3556026064
 11
632.45599927524
 21
223.3556026064
  0
LINE
  5
21E
100
AcDbEntity
  8
1
  6
CONTINUOUS
 62
           2
100
AcDbLine
 10
739.449054237811
 20
187.619045466894
 11
739.449054237811
 21
184.3556026064
  0
LINE
  5
21D
100
AcDbEntity
  8
1
  6
CONTINUOUS
 62
           2
100
AcDbLine
 10
699.462944312669
 20
187.619045466894
 11
739.449054237811
 21
187.619045466894
  0
LINE
  5
21C
100
AcDbEntity
  8
1
  6
CONTINUOUS
 62
           2
100
AcDbLine
 10
699.462944312669
 20
184.3556026064
 11
699.462944312669
 21
187.619045466894
  0
LINE
  5
21B
100
AcDbEntity
  8
1
  6
CONTINUOUS
 62
           2
100
AcDbLine
 10
696.45599927524
 20
185.8556026064
 11
694.45599927524
 21
185.8556026064
  0
LINE
  5
21A
100
AcDbEntity
  8
1
  6
CONTINUOUS
 62
           2
100
AcDbLine
 10
696.45599927524
 20
168.3556026064
 11
696.45599927524
 21
184.3556026064
  0
LINE
  5
219
100
AcDbEntity
  8
1
  6
CONTINUOUS
 62
           2
100
AcDbLine
 10
696.45599927524
 20
185.8556026064
 11
696.45599927524
 21
184.3556026064
  0
LINE
  5
218
100
AcDbEntity
  8
1
  6
CONTINUOUS
 62
           2
100
AcDbLine
 10
694.45599927524
 20
150.8556026064
 11
696.45599927524
 21
150.8556026064
  0
LINE
  5
217
100
AcDbEntity
  8
1
  6
CONTINUOUS
 62
           2
100
AcDbLine
 10
696.45599927524
 20
152.3556026064
 11
696.45599927524
 21
168.3556026064
  0
LINE
  5
216
100
AcDbEntity
  8
1
  6
CONTINUOUS
 62
           2
100
AcDbLine
 10
696.45599927524
 20
152.3556026064
 11
696.45599927524
 21
150.8556026064
  0
LINE
  5
215
100
AcDbEntity
  8
1
  6
CONTINUOUS
 62
           2
100
AcDbLine
 10
741.45599927524
 20
168.3556026064
 11
741.45599927524
 21
152.3556026064
  0
LINE
  5
214
100
AcDbEntity
  8
1
  6
CONTINUOUS
 62
           2
100
AcDbLine
 10
696.45599927524
 20
152.3556026064
 11
741.45599927524
 21
152.3556026064
  0
LINE
  5
213
100
AcDbEntity
  8
1
  6
CONTINUOUS
 62
           2
100
AcDbLine
 10
696.45599927524
 20
184.3556026064
 11
741.45599927524
 21
184.3556026064
  0
LINE
  5
212
100
AcDbEntity
  8
1
  6
CONTINUOUS
 62
           2
100
AcDbLine
 10
741.45599927524
 20
168.3556026064
 11
741.45599927524
 21
184.3556026064
  0
LINE
  5
211
100
AcDbEntity
  8
1
  6
CONTINUOUS
 62
           2
100
AcDbLine
 10
401.45599927524
 20
63.3556026064
 11
611.45599927524
 21
63.3556026064
  0
LINE
  5
210
100
AcDbEntity
  8
1
  6
CONTINUOUS
 62
           2
100
AcDbLine
 10
611.45599927524
 20
273.3556026064
 11
401.45599927524
 21
273.3556026064
  0
LINE
  5
20F
100
AcDbEntity
  8
1
  6
CONTINUOUS
 62
           2
100
AcDbLine
 10
401.45599927524
 20
273.3556026064
 11
401.45599927524
 21
63.3556026064
  0
LINE
  5
20E
100
AcDbEntity
  8
1
  6
DOT_CENTER
 62
           3
100
AcDbLine
 10
595.25599927524
 20
248.3556026064
 11
577.65599927524
 21
248.3556026064
  0
LINE
  5
20D
100
AcDbEntity
  8
1
  6
DOT_CENTER
 62
           3
100
AcDbLine
 10
586.45599927524
 20
257.1556026064
 11
586.45599927524
 21
239.5556026064
  0
LINE
  5
20C
100
AcDbEntity
  8
1
  6
DOT_CENTER
 62
           3
100
AcDbLine
 10
435.25599927524
 20
248.3556026064
 11
417.65599927524
 21
248.3556026064
  0
LINE
  5
20B
100
AcDbEntity
  8
1
  6
DOT_CENTER
 62
           3
100
AcDbLine
 10
426.45599927524
 20
257.1556026064
 11
426.45599927524
 21
239.5556026064
  0
LINE
  5
20A
100
AcDbEntity
  8
1
  6
DOT_CENTER
 62
           3
100
AcDbLine
 10
435.25599927524
 20
88.3556026064
 11
417.65599927524
 21
88.3556026064
  0
LINE
  5
209
100
AcDbEntity
  8
1
  6
DOT_CENTER
 62
           3
100
AcDbLine
 10
426.45599927524
 20
97.1556026064
 11
426.45599927524
 21
79.5556026064
  0
LINE
  5
208
100
AcDbEntity
  8
1
  6
DOT_CENTER
 62
           3
100
AcDbLine
 10
595.25599927524
 20
88.3556026064
 11
577.65599927524
 21
88.3556026064
  0
LINE
  5
207
100
AcDbEntity
  8
1
  6
DOT_CENTER
 62
           3
100
AcDbLine
 10
586.45599927524
 20
97.1556026064
 11
586.45599927524
 21
79.5556026064
  0
LINE
  5
206
100
AcDbEntity
  8
1
  6
CONTINUOUS
 62
           2
100
AcDbLine
 10
611.45599927524
 20
63.3556026064
 11
611.45599927524
 21
273.3556026064
  0
LINE
  5
205
100
AcDbEntity
  8
1
  6
DOT_CENTER
 62
           3
100
AcDbLine
 10
506.45599927524
 20
58.426182604057
 11
506.45599927524
 21
279.007931349425
  0
LINE
  5
204
100
AcDbEntity
  8
1
  6
DOT_CENTER
 62
           3
100
AcDbLine
 10
-406.533476697796
 20
168.3556026064
 11
-129.533476697796
 21
168.3556026064
  0
LINE
  5
203
100
AcDbEntity
  8
1
  6
DOT_CENTER
 62
           3
100
AcDbLine
 10
756.45599927524
 20
168.3556026064
 11
399.485123714046
 21
168.3556026064
  0
LINE
  5
202
100
AcDbEntity
  8
1
  6
CONTINUOUS
 62
           2
100
AcDbLine
 10
-198.161633343973
 20
-385.557337379132
 11
-198.161633343973
 21
-390.557337379132
  0
LINE
  5
201
100
AcDbEntity
  8
1
  6
CONTINUOUS
 62
           2
100
AcDbLine
 10
-199.161633343973
 20
-391.557337379132
 11
-213.033476697796
 21
-391.557337379132
  0
LINE
  5
200
100
AcDbEntity
  8
1
  6
CONTINUOUS
 62
           2
100
AcDbLine
 10
-214.161633343973
 20
-390.557337379132
 11
-214.161633343973
 21
-385.557337379132
  0
LINE
  5
1FF
100
AcDbEntity
  8
1
  6
DOT_CENTER
 62
           3
100
AcDbLine
 10
-206.161633343973
 20
-367.957337379132
 11
-206.161633343973
 21
-392.557337379132
  0
LINE
  5
1FE
100
AcDbEntity
  8
1
  6
DOT_CENTER
 62
           3
100
AcDbLine
 10
-329.905320051619
 20
-392.557337379132
 11
-329.905320051619
 21
-367.957337379132
  0
LINE
  5
1FD
100
AcDbEntity
  8
1
  6
CONTINUOUS
 62
           2
100
AcDbLine
 10
-321.905320051619
 20
-385.557337379132
 11
-321.905320051619
 21
-390.557337379132
  0
LINE
  5
1FC
100
AcDbEntity
  8
1
  6
CONTINUOUS
 62
           2
100
AcDbLine
 10
-322.905320051619
 20
-391.557337379132
 11
-323.033476697796
 21
-391.557337379132
  0
LINE
  5
1FB
100
AcDbEntity
  8
1
  6
CONTINUOUS
 62
           2
100
AcDbLine
 10
-337.905320051619
 20
-390.557337379132
 11
-337.905320051619
 21
-385.557337379132
  0
LINE
  5
1FA
100
AcDbEntity
  8
1
  6
CONTINUOUS
 62
           2
100
AcDbLine
 10
631.45599927524
 20
98.483759252577
 11
626.45599927524
 21
98.483759252577
  0
LINE
  5
1F9
100
AcDbEntity
  8
1
  6
CONTINUOUS
 62
           2
100
AcDbLine
 10
632.45599927524
 20
113.483759252577
 11
632.45599927524
 21
113.3556026064
  0
LINE
  5
1F8
100
AcDbEntity
  8
1
  6
CONTINUOUS
 62
           2
100
AcDbLine
 10
626.45599927524
 20
114.483759252577
 11
631.45599927524
 21
114.483759252577
  0
LINE
  5
1F7
100
AcDbEntity
  8
1
  6
DOT_CENTER
 62
           3
100
AcDbLine
 10
633.45599927524
 20
106.483759252577
 11
608.85599927524
 21
106.483759252577
  0
LINE
  5
1F6
100
AcDbEntity
  8
1
  6
DOT_CENTER
 62
           3
100
AcDbLine
 10
608.85599927524
 20
230.227445960223
 11
633.45599927524
 21
230.227445960223
  0
LINE
  5
1F5
100
AcDbEntity
  8
1
  6
CONTINUOUS
 62
           2
100
AcDbLine
 10
631.45599927524
 20
222.227445960223
 11
626.45599927524
 21
222.227445960223
  0
LINE
  5
1F4
100
AcDbEntity
  8
1
  6
CONTINUOUS
 62
           2
100
AcDbLine
 10
632.45599927524
 20
237.227445960223
 11
632.45599927524
 21
223.3556026064
  0
LINE
  5
1F3
100
AcDbEntity
  8
1
  6
CONTINUOUS
 62
           2
100
AcDbLine
 10
626.45599927524
 20
238.227445960223
 11
631.45599927524
 21
238.227445960223
  0
LINE
  5
1F2
100
AcDbEntity
  8
1
  6
CONTINUOUS
 62
           2
100
AcDbLine
 10
-206.161633343973
 20
111.102561406094
 11
-210.161633343973
 21
108.793160329336
  0
LINE
  5
1F1
100
AcDbEntity
  8
1
  6
CONTINUOUS
 62
           2
100
AcDbLine
 10
-210.161633343973
 20
108.793160329336
 11
-210.161633343973
 21
104.174358175819
  0
LINE
  5
1F0
100
AcDbEntity
  8
1
  6
CONTINUOUS
 62
           2
100
AcDbLine
 10
-210.161633343973
 20
104.174358175819
 11
-206.161633343973
 21
101.86495709906
  0
LINE
  5
1EF
100
AcDbEntity
  8
1
  6
CONTINUOUS
 62
           2
100
AcDbLine
 10
-206.161633343973
 20
101.86495709906
 11
-202.161633343973
 21
104.174358175819
  0
LINE
  5
1EE
100
AcDbEntity
  8
1
  6
CONTINUOUS
 62
           2
100
AcDbLine
 10
-202.161633343973
 20
104.174358175819
 11
-202.161633343973
 21
108.793160329336
  0
LINE
  5
1ED
100
AcDbEntity
  8
1
  6
CONTINUOUS
 62
           2
100
AcDbLine
 10
-202.161633343973
 20
108.793160329336
 11
-206.161633343973
 21
111.102561406094
  0
LINE
  5
1EC
100
AcDbEntity
  8
1
  6
DOT_CENTER
 62
           3
100
AcDbLine
 10
-206.161633343973
 20
116.083759252577
 11
-206.161633343973
 21
96.883759252577
  0
LINE
  5
1EB
100
AcDbEntity
  8
1
  6
DOT_CENTER
 62
           3
100
AcDbLine
 10
-215.761633343973
 20
106.483759252577
 11
-196.561633343973
 21
106.483759252577
  0
LINE
  5
1EA
100
AcDbEntity
  8
1
  6
CONTINUOUS
 62
           2
100
AcDbLine
 10
-329.905320051619
 20
111.102561406094
 11
-333.905320051619
 21
108.793160329336
  0
LINE
  5
1E9
100
AcDbEntity
  8
1
  6
CONTINUOUS
 62
           2
100
AcDbLine
 10
-333.905320051619
 20
108.793160329336
 11
-333.905320051619
 21
104.174358175819
  0
LINE
  5
1E8
100
AcDbEntity
  8
1
  6
CONTINUOUS
 62
           2
100
AcDbLine
 10
-333.905320051619
 20
104.174358175819
 11
-329.905320051619
 21
101.86495709906
  0
LINE
  5
1E7
100
AcDbEntity
  8
1
  6
CONTINUOUS
 62
           2
100
AcDbLine
 10
-329.905320051619
 20
101.86495709906
 11
-325.905320051619
 21
104.174358175819
  0
LINE
  5
1E6
100
AcDbEntity
  8
1
  6
CONTINUOUS
 62
           2
100
AcDbLine
 10
-325.905320051619
 20
104.174358175819
 11
-325.905320051619
 21
108.793160329336
  0
LINE
  5
1E5
100
AcDbEntity
  8
1
  6
CONTINUOUS
 62
           2
100
AcDbLine
 10
-325.905320051619
 20
108.793160329336
 11
-329.905320051619
 21
111.102561406094
  0
LINE
  5
1E4
100
AcDbEntity
  8
1
  6
DOT_CENTER
 62
           3
100
AcDbLine
 10
-329.905320051619
 20
116.083759252577
 11
-329.905320051619
 21
96.883759252577
  0
LINE
  5
1E3
100
AcDbEntity
  8
1
  6
DOT_CENTER
 62
           3
100
AcDbLine
 10
-339.505320051619
 20
106.483759252577
 11
-320.305320051619
 21
106.483759252577
  0
LINE
  5
1E2
100
AcDbEntity
  8
1
  6
CONTINUOUS
 62
           2
100
AcDbLine
 10
-329.905320051619
 20
234.84624811374
 11
-333.905320051619
 21
232.536847036981
  0
LINE
  5
1E1
100
AcDbEntity
  8
1
  6
CONTINUOUS
 62
           2
100
AcDbLine
 10
-333.905320051619
 20
232.536847036981
 11
-333.905320051619
 21
227.918044883464
  0
LINE
  5
1E0
100
AcDbEntity
  8
1
  6
CONTINUOUS
 62
           2
100
AcDbLine
 10
-333.905320051619
 20
227.918044883464
 11
-329.905320051619
 21
225.608643806706
  0
LINE
  5
1DF
100
AcDbEntity
  8
1
  6
CONTINUOUS
 62
           2
100
AcDbLine
 10
-329.905320051619
 20
225.608643806706
 11
-325.905320051619
 21
227.918044883464
  0
LINE
  5
1DE
100
AcDbEntity
  8
1
  6
CONTINUOUS
 62
           2
100
AcDbLine
 10
-325.905320051619
 20
227.918044883464
 11
-325.905320051619
 21
232.536847036981
  0
LINE
  5
1DD
100
AcDbEntity
  8
1
  6
CONTINUOUS
 62
           2
100
AcDbLine
 10
-325.905320051619
 20
232.536847036981
 11
-329.905320051619
 21
234.84624811374
  0
LINE
  5
1DC
100
AcDbEntity
  8
1
  6
DOT_CENTER
 62
           3
100
AcDbLine
 10
-329.905320051619
 20
239.827445960223
 11
-329.905320051619
 21
220.627445960223
  0
LINE
  5
1DB
100
AcDbEntity
  8
1
  6
DOT_CENTER
 62
           3
100
AcDbLine
 10
-339.505320051619
 20
230.227445960223
 11
-320.305320051619
 21
230.227445960223
  0
LINE
  5
1DA
100
AcDbEntity
  8
1
  6
CONTINUOUS
 62
           2
100
AcDbLine
 10
-206.161633343973
 20
234.84624811374
 11
-210.161633343973
 21
232.536847036981
  0
LINE
  5
1D9
100
AcDbEntity
  8
1
  6
CONTINUOUS
 62
           2
100
AcDbLine
 10
-210.161633343973
 20
232.536847036981
 11
-210.161633343973
 21
227.918044883464
  0
LINE
  5
1D8
100
AcDbEntity
  8
1
  6
CONTINUOUS
 62
           2
100
AcDbLine
 10
-210.161633343973
 20
227.918044883464
 11
-206.161633343973
 21
225.608643806706
  0
LINE
  5
1D7
100
AcDbEntity
  8
1
  6
CONTINUOUS
 62
           2
100
AcDbLine
 10
-206.161633343973
 20
225.608643806706
 11
-202.161633343973
 21
227.918044883464
  0
LINE
  5
1D6
100
AcDbEntity
  8
1
  6
CONTINUOUS
 62
           2
100
AcDbLine
 10
-202.161633343973
 20
227.918044883464
 11
-202.161633343973
 21
232.536847036981
  0
LINE
  5
1D5
100
AcDbEntity
  8
1
  6
CONTINUOUS
 62
           2
100
AcDbLine
 10
-202.161633343973
 20
232.536847036981
 11
-206.161633343973
 21
234.84624811374
  0
LINE
  5
1D4
100
AcDbEntity
  8
1
  6
DOT_CENTER
 62
           3
100
AcDbLine
 10
-206.161633343973
 20
239.827445960223
 11
-206.161633343973
 21
220.627445960223
  0
LINE
  5
1D3
100
AcDbEntity
  8
1
  6
DOT_CENTER
 62
           3
100
AcDbLine
 10
-215.761633343973
 20
230.227445960223
 11
-196.561633343973
 21
230.227445960223
  0
LINE
  5
1D2
100
AcDbEntity
  8
1
  6
CONTINUOUS
 62
           2
100
AcDbLine
 10
630.45599927524
 20
222.227445960223
 11
630.45599927524
 21
114.483759252577
  0
LINE
  5
1D1
100
AcDbEntity
  8
1
  6
CONTINUOUS
 62
           2
100
AcDbLine
 10
630.45599927524
 20
98.483759252577
 11
630.45599927524
 21
90.8556026064
  0
LINE
  5
1D0
100
AcDbEntity
  8
1
  6
CONTINUOUS
 62
           2
100
AcDbLine
 10
-214.161633343973
 20
-389.557337379132
 11
-321.905320051619
 21
-389.557337379132
  0
LINE
  5
1CF
100
AcDbEntity
  8
1
  6
CONTINUOUS
 62
           2
100
AcDbLine
 10
-213.033476697796
 20
-453.557337379132
 11
-213.033476697796
 21
-391.557337379132
  0
LINE
  5
1CE
100
AcDbEntity
  8
1
  6
CONTINUOUS
 62
           2
100
AcDbLine
 10
-337.905320051619
 20
-389.557337379132
 11
-345.533476697796
 21
-389.557337379132
  0
LINE
  5
1CD
100
AcDbEntity
  8
1
  6
CONTINUOUS
 62
           2
100
AcDbLine
 10
485.072594494897
 20
175.3556026064
 11
480.15599927524
 21
175.3556026064
  0
LINE
  5
1CC
100
AcDbEntity
  8
1
  6
CONTINUOUS
 62
           2
100
AcDbLine
 10
480.15599927524
 20
175.3556026064
 11
480.15599927524
 21
161.3556026064
  0
LINE
  5
1CB
100
AcDbEntity
  8
1
  6
CONTINUOUS
 62
           2
100
AcDbLine
 10
480.15599927524
 20
161.3556026064
 11
485.072594494897
 21
161.3556026064
  0
LINE
  5
1CA
100
AcDbEntity
  8
1
  6
CONTINUOUS
 62
           2
100
AcDbLine
 10
-403.033476697797
 20
140.8556026064
 11
-403.033476697797
 21
168.3556026064
  0
LINE
  5
1C9
100
AcDbEntity
  8
1
  6
CONTINUOUS
 62
           2
100
AcDbLine
 10
-401.033476697797
 20
130.8556026064
 11
-403.033476697797
 21
131.391500991262
  0
LINE
  5
1C8
100
AcDbEntity
  8
1
  6
CONTINUOUS
 62
           2
100
AcDbLine
 10
-403.033476697797
 20
140.8556026064
 11
-403.033476697797
 21
131.391500991262
  0
LINE
  5
1C7
100
AcDbEntity
  8
1
  6
CONTINUOUS
 62
           2
100
AcDbLine
 10
-403.033476697797
 20
168.3556026064
 11
-403.033476697797
 21
195.8556026064
  0
LINE
  5
1C6
100
AcDbEntity
  8
1
  6
CONTINUOUS
 62
           2
100
AcDbLine
 10
-403.033476697797
 20
205.319704221538
 11
-401.033476697797
 21
205.8556026064
  0
LINE
  5
1C5
100
AcDbEntity
  8
1
  6
CONTINUOUS
 62
           2
100
AcDbLine
 10
-403.033476697797
 20
205.319704221538
 11
-403.033476697797
 21
195.8556026064
  0
LINE
  5
1C4
100
AcDbEntity
  8
1
  6
CONTINUOUS
 62
           2
100
AcDbLine
 10
-133.033476697796
 20
168.3556026064
 11
-133.033476697796
 21
140.8556026064
  0
LINE
  5
1C3
100
AcDbEntity
  8
1
  6
CONTINUOUS
 62
           2
100
AcDbLine
 10
-133.033476697796
 20
131.391500991262
 11
-135.033476697796
 21
130.8556026064
  0
LINE
  5
1C2
100
AcDbEntity
  8
1
  6
CONTINUOUS
 62
           2
100
AcDbLine
 10
-133.033476697796
 20
131.391500991262
 11
-133.033476697796
 21
140.8556026064
  0
LINE
  5
1C1
100
AcDbEntity
  8
1
  6
CONTINUOUS
 62
           2
100
AcDbLine
 10
-133.033476697796
 20
195.8556026064
 11
-133.033476697796
 21
168.3556026064
  0
LINE
  5
1C0
100
AcDbEntity
  8
1
  6
CONTINUOUS
 62
           2
100
AcDbLine
 10
-135.033476697796
 20
205.8556026064
 11
-133.033476697796
 21
205.319704221538
  0
LINE
  5
1BF
100
AcDbEntity
  8
1
  6
CONTINUOUS
 62
           2
100
AcDbLine
 10
-133.033476697796
 20
195.8556026064
 11
-133.033476697796
 21
205.319704221538
  0
LINE
  5
1BE
100
AcDbEntity
  8
1
  6
CONTINUOUS
 62
           2
100
AcDbLine
 10
-133.033476697796
 20
-265.557337379132
 11
-133.033476697796
 21
-293.057337379132
  0
LINE
  5
1BD
100
AcDbEntity
  8
1
  6
CONTINUOUS
 62
           2
100
AcDbLine
 10
-133.033476697796
 20
-302.52143899427
 11
-135.033476697796
 21
-303.057337379132
  0
LINE
  5
1BC
100
AcDbEntity
  8
1
  6
CONTINUOUS
 62
           2
100
AcDbLine
 10
-133.033476697796
 20
-302.52143899427
 11
-133.033476697796
 21
-293.057337379132
  0
LINE
  5
1BB
100
AcDbEntity
  8
1
  6
CONTINUOUS
 62
           2
100
AcDbLine
 10
-133.033476697796
 20
-238.057337379132
 11
-133.033476697796
 21
-265.557337379132
  0
LINE
  5
1BA
100
AcDbEntity
  8
1
  6
CONTINUOUS
 62
           2
100
AcDbLine
 10
-135.033476697796
 20
-228.057337379132
 11
-133.033476697796
 21
-228.593235763994
  0
LINE
  5
1B9
100
AcDbEntity
  8
1
  6
CONTINUOUS
 62
           2
100
AcDbLine
 10
-133.033476697796
 20
-238.057337379132
 11
-133.033476697796
 21
-228.593235763994
  0
LINE
  5
1B8
100
AcDbEntity
  8
1
  6
CONTINUOUS
 62
           2
100
AcDbLine
 10
-403.033476697796
 20
-293.057337379132
 11
-403.033476697796
 21
-265.557337379132
  0
LINE
  5
1B7
100
AcDbEntity
  8
1
  6
CONTINUOUS
 62
           2
100
AcDbLine
 10
-401.033476697796
 20
-303.057337379132
 11
-403.033476697796
 21
-302.52143899427
  0
LINE
  5
1B6
100
AcDbEntity
  8
1
  6
CONTINUOUS
 62
           2
100
AcDbLine
 10
-403.033476697796
 20
-293.057337379132
 11
-403.033476697796
 21
-302.52143899427
  0
LINE
  5
1B5
100
AcDbEntity
  8
1
  6
CONTINUOUS
 62
           2
100
AcDbLine
 10
-403.033476697796
 20
-265.557337379132
 11
-403.033476697796
 21
-238.057337379132
  0
LINE
  5
1B4
100
AcDbEntity
  8
1
  6
CONTINUOUS
 62
           2
100
AcDbLine
 10
-403.033476697796
 20
-228.593235763994
 11
-401.033476697796
 21
-228.057337379132
  0
LINE
  5
1B3
100
AcDbEntity
  8
1
  6
CONTINUOUS
 62
           2
100
AcDbLine
 10
-403.033476697796
 20
-228.593235763994
 11
-403.033476697796
 21
-238.057337379132
  0
LINE
  5
1B2
100
AcDbEntity
  8
1
  6
DASHED
 62
           3
100
AcDbLine
 10
-403.033476697796
 20
-243.057337379132
 11
-318.033476697796
 21
-243.057337379132
  0
LINE
  5
1B1
100
AcDbEntity
  8
1
  6
DASHED
 62
           3
100
AcDbLine
 10
-318.033476697796
 20
-237.557337379132
 11
-218.033476697796
 21
-237.557337379132
  0
LINE
  5
1B0
100
AcDbEntity
  8
1
  6
DASHED
 62
           3
100
AcDbLine
 10
-403.033476697796
 20
-288.057337379132
 11
-318.033476697796
 21
-288.057337379132
  0
LINE
  5
1AF
100
AcDbEntity
  8
1
  6
DASHED
 62
           3
100
AcDbLine
 10
-318.033476697796
 20
-293.557337379132
 11
-218.033476697796
 21
-293.557337379132
  0
LINE
  5
1AE
100
AcDbEntity
  8
1
  6
DASHED
 62
           3
100
AcDbLine
 10
-318.033476697796
 20
-237.557337379132
 11
-318.033476697796
 21
-293.557337379132
  0
LINE
  5
1AD
100
AcDbEntity
  8
1
  6
DASHED
 62
           3
100
AcDbLine
 10
-218.033476697796
 20
-293.557337379132
 11
-218.033476697796
 21
-237.557337379132
  0
LINE
  5
1AC
100
AcDbEntity
  8
1
  6
DASHED
 62
           3
100
AcDbLine
 10
-218.033476697796
 20
-288.057337379132
 11
-133.033476697796
 21
-288.057337379132
  0
LINE
  5
1AB
100
AcDbEntity
  8
1
  6
DASHED
 62
           3
100
AcDbLine
 10
-218.033476697796
 20
-243.057337379132
 11
-133.033476697796
 21
-243.057337379132
  0
LINE
  5
1AA
100
AcDbEntity
  8
1
  6
DASHED
 62
           3
100
AcDbLine
 10
-133.033476697796
 20
-239.257337379132
 11
-218.033476697796
 21
-239.257337379132
  0
LINE
  5
1A9
100
AcDbEntity
  8
1
  6
DASHED
 62
           3
100
AcDbLine
 10
-318.033476697796
 20
-239.257337379132
 11
-403.033476697796
 21
-239.257337379132
  0
LINE
  5
1A8
100
AcDbEntity
  8
1
  6
CONTINUOUS
 62
           2
100
AcDbLine
 10
-263.033476697796
 20
187.3556026064
 11
-263.033476697796
 21
183.554286759971
  0
LINE
  5
1A7
100
AcDbEntity
  8
1
  6
CONTINUOUS
 62
           2
100
AcDbLine
 10
-273.033476697796
 20
187.3556026064
 11
-263.033476697796
 21
187.3556026064
  0
LINE
  5
1A6
100
AcDbEntity
  8
1
  6
CONTINUOUS
 62
           2
100
AcDbLine
 10
-273.033476697796
 20
183.554286759971
 11
-273.033476697796
 21
187.3556026064
  0
LINE
  5
1A5
100
AcDbEntity
  8
1
  6
CONTINUOUS
 62
           2
100
AcDbLine
 10
-263.033476697796
 20
-463.557337379132
 11
-263.033476697796
 21
-493.557337379132
  0
LINE
  5
1A4
100
AcDbEntity
  8
1
  6
CONTINUOUS
 62
           2
100
AcDbLine
 10
-273.033476697796
 20
-463.557337379132
 11
-273.033476697796
 21
-493.557337379132
  0
LINE
  5
1A3
100
AcDbEntity
  8
1
  6
CONTINUOUS
 62
           2
100
AcDbLine
 10
-213.033476697796
 20
-391.557337379132
 11
-213.161633343973
 21
-391.557337379132
  0
LINE
  5
1A2
100
AcDbEntity
  8
1
  6
CONTINUOUS
 62
           2
100
AcDbLine
 10
-323.033476697796
 20
-391.557337379132
 11
-336.905320051619
 21
-391.557337379132
  0
LINE
  5
1A1
100
AcDbEntity
  8
1
  6
CONTINUOUS
 62
           2
100
AcDbLine
 10
632.45599927524
 20
223.3556026064
 11
632.45599927524
 21
223.227445960223
  0
LINE
  5
1A0
100
AcDbEntity
  8
1
  6
CONTINUOUS
 62
           2
100
AcDbLine
 10
632.45599927524
 20
113.3556026064
 11
632.45599927524
 21
99.483759252577
  0
LINE
  5
19F
100
AcDbEntity
  8
1
  6
CONTINUOUS
 62
           3
100
AcDbLine
 10
-304.983893925932
 20
-335.557337379132
 11
-296.323639888088
 21
-320.557337379132
  0
LINE
  5
19E
100
AcDbEntity
  8
1
  6
CONTINUOUS
 62
           3
100
AcDbLine
 10
-296.323639888088
 20
-320.557337379132
 11
-239.743313507505
 21
-320.557337379132
  0
LINE
  5
19D
100
AcDbEntity
  8
1
  6
CONTINUOUS
 62
           3
100
AcDbLine
 10
-239.743313507505
 20
-320.557337379132
 11
-231.08305946966
 21
-335.557337379132
  0
LINE
  5
19C
100
AcDbEntity
  8
1
  6
CONTINUOUS
 62
           3
100
AcDbLine
 10
-231.08305946966
 20
-335.557337379132
 11
-304.983893925932
 21
-335.557337379132
  0
LINE
  5
19B
100
AcDbEntity
  8
1
  6
CONTINUOUS
 62
           3
100
AcDbLine
 10
-308.44799554107
 20
-329.557337379132
 11
-293.44799554107
 21
-303.576575265599
  0
LINE
  5
19A
100
AcDbEntity
  8
1
  6
CONTINUOUS
 62
           3
100
AcDbLine
 10
-293.44799554107
 20
-303.576575265599
 11
-293.44799554107
 21
-227.538099492665
  0
LINE
  5
199
100
AcDbEntity
  8
1
  6
CONTINUOUS
 62
           3
100
AcDbLine
 10
-308.44799554107
 20
-201.557337379132
 11
-308.44799554107
 21
-329.557337379132
  0
LINE
  5
198
100
AcDbEntity
  8
1
  6
CONTINUOUS
 62
           3
100
AcDbLine
 10
-293.44799554107
 20
-227.538099492665
 11
-308.44799554107
 21
-201.557337379132
  0
ENDBLK
  5
290
100
AcDbEntity
  8
0
100
AcDbBlockEnd
  0
BLOCK
  5
29C
100
AcDbEntity
  8
0
100
AcDbBlockBegin
  2
*D2
 70
           1
 10
0.0
 20
0.0
 30
0.0
  3
*D2
  1

  0
LINE
  5
29D
100
AcDbEntity
  8
0
  6
CONTINUOUS
 62
           3
100
AcDbLine
 10
-94.917864608212
 20
-243.057337379132
 11
-94.917864608212
 21
-188.863175388815
  0
LINE
  5
29E
100
AcDbEntity
  8
0
  6
CONTINUOUS
 62
           3
100
AcDbLine
 10
-94.917864608212
 20
-288.057337379132
 11
-94.917864608212
 21
-243.057337379132
  0
LINE
  5
29F
100
AcDbEntity
  8
0
  6
CONTINUOUS
 62
           3
100
AcDbLine
 10
-133.033476697796
 20
-243.057337379132
 11
-86.917864608212
 21
-243.057337379132
  0
LINE
  5
2A0
100
AcDbEntity
  8
0
  6
CONTINUOUS
 62
           3
100
AcDbLine
 10
-133.033476697796
 20
-288.057337379132
 11
-86.917864608212
 21
-288.057337379132
  0
LINE
  5
2A1
100
AcDbEntity
  8
0
 62
           3
100
AcDbLine
 10
-94.917864608212
 20
-288.057337379132
 11
-96.497694579261
 21
-276.057337379132
  0
LINE
  5
2A2
100
AcDbEntity
  8
0
 62
           3
100
AcDbLine
 10
-94.917864608212
 20
-288.057337379132
 11
-93.338034637163
 21
-276.057337379132
  0
LINE
  5
2A3
100
AcDbEntity
  8
0
 62
           3
100
AcDbLine
 10
-96.497694579261
 20
-276.057337379132
 11
-93.338034637163
 21
-276.057337379132
  0
LINE
  5
2A4
100
AcDbEntity
  8
0
 62
           3
100
AcDbLine
 10
-94.917864608212
 20
-243.057337379132
 11
-93.338034637163
 21
-255.057337379132
  0
LINE
  5
2A5
100
AcDbEntity
  8
0
 62
           3
100
AcDbLine
 10
-94.917864608212
 20
-243.057337379132
 11
-96.497694579261
 21
-255.057337379132
  0
LINE
  5
2A6
100
AcDbEntity
  8
0
 62
           3
100
AcDbLine
 10
-93.338034637163
 20
-255.057337379132
 11
-96.497694579261
 21
-255.057337379132
  0
MTEXT
  5
2A7
100
AcDbEntity
  8
0
 62
           2
100
AcDbMText
 10
-105.917864608212
 20
-234.223175388815
 30
0.0
 40
12.0
 41
0.0
 71
           7
 72
           1
  1
\C2;Ø\C2;\C2;45\C3;\H7.200000;\SH7^ ;
  7
CONVERTER_2
 11
0.0
 21
1.0
 31
0.0
  0
ENDBLK
  5
2A8
100
AcDbEntity
  8
0
100
AcDbBlockEnd
  0
BLOCK
  5
2AE
100
AcDbEntity
  8
0
100
AcDbBlockBegin
  2
*D5
 70
           1
 10
0.0
 20
0.0
 30
0.0
  3
*D5
  1

  0
LINE
  5
2AF
100
AcDbEntity
  8
0
  6
CONTINUOUS
 62
           3
100
AcDbLine
 10
-426.098730013735
 20
-243.057337379132
 11
-426.098730013735
 21
-186.181548948285
  0
LINE
  5
2B0
100
AcDbEntity
  8
0
  6
CONTINUOUS
 62
           3
100
AcDbLine
 10
-426.098730013735
 20
-288.057337379132
 11
-426.098730013735
 21
-243.057337379132
  0
LINE
  5
2B1
100
AcDbEntity
  8
0
  6
CONTINUOUS
 62
           3
100
AcDbLine
 10
-403.033476697796
 20
-243.057337379132
 11
-434.098730013735
 21
-243.057337379132
  0
LINE
  5
2B2
100
AcDbEntity
  8
0
  6
CONTINUOUS
 62
           3
100
AcDbLine
 10
-403.033476697796
 20
-288.057337379132
 11
-434.098730013735
 21
-288.057337379132
  0
LINE
  5
2B3
100
AcDbEntity
  8
0
 62
           3
100
AcDbLine
 10
-426.098730013735
 20
-288.057337379132
 11
-427.678559984784
 21
-276.057337379132
  0
LINE
  5
2B4
100
AcDbEntity
  8
0
 62
           3
100
AcDbLine
 10
-426.098730013735
 20
-288.057337379132
 11
-424.518900042686
 21
-276.057337379132
  0
LINE
  5
2B5
100
AcDbEntity
  8
0
 62
           3
100
AcDbLine
 10
-427.678559984784
 20
-276.057337379132
 11
-424.518900042686
 21
-276.057337379132
  0
LINE
  5
2B6
100
AcDbEntity
  8
0
 62
           3
100
AcDbLine
 10
-426.098730013735
 20
-243.057337379132
 11
-424.518900042686
 21
-255.057337379132
  0
LINE
  5
2B7
100
AcDbEntity
  8
0
 62
           3
100
AcDbLine
 10
-426.098730013735
 20
-243.057337379132
 11
-427.678559984784
 21
-255.057337379132
  0
LINE
  5
2B8
100
AcDbEntity
  8
0
 62
           3
100
AcDbLine
 10
-424.518900042686
 20
-255.057337379132
 11
-427.678559984784
 21
-255.057337379132
  0
MTEXT
  5
2B9
100
AcDbEntity
  8
0
 62
           2
100
AcDbMText
 10
-437.098730013735
 20
-231.541548948285
 30
0.0
 40
12.0
 41
0.0
 71
           7
 72
           1
  1
\C2;Ø\C2;\C2;45\C3;\H7.200000;\SH7^ ;
  7
CONVERTER_2
 11
0.0
 21
1.0
 31
0.0
  0
ENDBLK
  5
2BA
100
AcDbEntity
  8
0
100
AcDbBlockEnd
  0
BLOCK
  5
2C0
100
AcDbEntity
  8
0
100
AcDbBlockBegin
  2
*D8
 70
           1
 10
0.0
 20
0.0
 30
0.0
  3
*D8
  1

  0
LINE
  5
2C1
100
AcDbEntity
  8
0
  6
CONTINUOUS
 62
           3
100
AcDbLine
 10
-403.033476697796
 20
-35.416478280749
 11
-268.033476697796
 21
-35.416478280749
  0
LINE
  5
2C2
100
AcDbEntity
  8
0
  6
CONTINUOUS
 62
           3
100
AcDbLine
 10
-268.033476697796
 20
-78.401040142023
 11
-268.033476697796
 21
-27.416478280749
  0
LINE
  5
2C3
100
AcDbEntity
  8
0
  6
CONTINUOUS
 62
           3
100
AcDbLine
 10
-403.033476697796
 20
-99.083797263136
 11
-403.033476697796
 21
-27.416478280749
  0
LINE
  5
2C4
100
AcDbEntity
  8
0
  6
CONTINUOUS
 62
           3
100
AcDbLine
 10
-268.033476697796
 20
-157.314593188007
 11
-268.033476697796
 21
-146.79677834598
  0
LINE
  5
2C5
100
AcDbEntity
  8
0
  6
CONTINUOUS
 62
           3
100
AcDbLine
 10
-403.033476697796
 20
-228.593235763994
 11
-403.033476697796
 21
-113.996778345981
  0
LINE
  5
2C6
100
AcDbEntity
  8
0
 62
           3
100
AcDbLine
 10
-268.033476697796
 20
-35.416478280749
 11
-280.033476697796
 21
-36.996308251797
  0
LINE
  5
2C7
100
AcDbEntity
  8
0
 62
           3
100
AcDbLine
 10
-268.033476697796
 20
-35.416478280749
 11
-280.033476697796
 21
-33.8366483097
  0
LINE
  5
2C8
100
AcDbEntity
  8
0
 62
           3
100
AcDbLine
 10
-280.033476697796
 20
-36.996308251797
 11
-280.033476697796
 21
-33.8366483097
  0
LINE
  5
2C9
100
AcDbEntity
  8
0
 62
           3
100
AcDbLine
 10
-403.033476697796
 20
-35.416478280749
 11
-391.033476697796
 21
-33.8366483097
  0
LINE
  5
2CA
100
AcDbEntity
  8
0
 62
           3
100
AcDbLine
 10
-403.033476697796
 20
-35.416478280749
 11
-391.033476697796
 21
-36.996308251797
  0
LINE
  5
2CB
100
AcDbEntity
  8
0
 62
           3
100
AcDbLine
 10
-391.033476697796
 20
-33.8366483097
 11
-391.033476697796
 21
-36.996308251797
  0
TEXT
  5
2CC
100
AcDbEntity
  8
0
 62
           2
100
AcDbText
 10
-349.104079002646
 20
-27.416478280749
 40
12.0
  1
135
 41
0.9
  7
CONVERTER_2
100
AcDbText
  0
ENDBLK
  5
2CD
100
AcDbEntity
  8
0
100
AcDbBlockEnd
  0
BLOCK
  5
2D3
100
AcDbEntity
  8
0
100
AcDbBlockBegin
  2
*D11
 70
           1
 10
0.0
 20
0.0
 30
0.0
  3
*D11
  1

  0
LINE
  5
2D4
100
AcDbEntity
  8
0
  6
CONTINUOUS
 62
           3
100
AcDbLine
 10
-268.033476697796
 20
-35.416478280749
 11
-133.033476697796
 21
-35.416478280749
  0
LINE
  5
2D5
100
AcDbEntity
  8
0
  6
CONTINUOUS
 62
           3
100
AcDbLine
 10
-133.033476697796
 20
-67.674534379901
 11
-133.033476697796
 21
-27.416478280749
  0
LINE
  5
2D6
100
AcDbEntity
  8
0
  6
CONTINUOUS
 62
           3
100
AcDbLine
 10
-268.033476697796
 20
-78.401040142023
 11
-268.033476697796
 21
-27.416478280749
  0
LINE
  5
2D7
100
AcDbEntity
  8
0
  6
CONTINUOUS
 62
           3
100
AcDbLine
 10
-133.033476697796
 20
-228.593235763994
 11
-133.033476697796
 21
-102.535678106798
  0
LINE
  5
2D8
100
AcDbEntity
  8
0
  6
CONTINUOUS
 62
           3
100
AcDbLine
 10
-268.033476697796
 20
-157.314593188007
 11
-268.033476697796
 21
-146.79677834598
  0
LINE
  5
2D9
100
AcDbEntity
  8
0
 62
           3
100
AcDbLine
 10
-268.033476697796
 20
-35.416478280749
 11
-256.033476697796
 21
-33.8366483097
  0
LINE
  5
2DA
100
AcDbEntity
  8
0
 62
           3
100
AcDbLine
 10
-268.033476697796
 20
-35.416478280749
 11
-256.033476697796
 21
-36.996308251797
  0
LINE
  5
2DB
100
AcDbEntity
  8
0
 62
           3
100
AcDbLine
 10
-256.033476697796
 20
-33.8366483097
 11
-256.033476697796
 21
-36.996308251797
  0
LINE
  5
2DC
100
AcDbEntity
  8
0
 62
           3
100
AcDbLine
 10
-133.033476697796
 20
-35.416478280749
 11
-145.033476697796
 21
-36.996308251797
  0
LINE
  5
2DD
100
AcDbEntity
  8
0
 62
           3
100
AcDbLine
 10
-133.033476697796
 20
-35.416478280749
 11
-145.033476697796
 21
-33.8366483097
  0
LINE
  5
2DE
100
AcDbEntity
  8
0
 62
           3
100
AcDbLine
 10
-145.033476697796
 20
-36.996308251797
 11
-145.033476697796
 21
-33.8366483097
  0
TEXT
  5
2DF
100
AcDbEntity
  8
0
 62
           2
100
AcDbText
 10
-207.648284264659
 20
-27.416478280749
 40
12.0
  1
135
 41
0.9
  7
CONVERTER_2
100
AcDbText
  0
ENDBLK
  5
2E0
100
AcDbEntity
  8
0
100
AcDbBlockEnd
  0
BLOCK
  5
2E6
100
AcDbEntity
  8
0
100
AcDbBlockBegin
  2
*D14
 70
           1
 10
0.0
 20
0.0
 30
0.0
  3
*D14
  1

  0
LINE
  5
2E7
100
AcDbEntity
  8
0
  6
CONTINUOUS
 62
           3
100
AcDbLine
 10
-218.033476697796
 20
-319.668880976987
 11
-133.033476697796
 21
-319.668880976987
  0
LINE
  5
2E8
100
AcDbEntity
  8
0
  6
CONTINUOUS
 62
           3
100
AcDbLine
 10
-133.033476697796
 20
-302.52143899427
 11
-133.033476697796
 21
-327.668880976987
  0
LINE
  5
2E9
100
AcDbEntity
  8
0
  6
CONTINUOUS
 62
           3
100
AcDbLine
 10
-218.033476697796
 20
-293.557337379132
 11
-218.033476697796
 21
-327.668880976987
  0
LINE
  5
2EA
100
AcDbEntity
  8
0
 62
           3
100
AcDbLine
 10
-133.033476697796
 20
-319.668880976987
 11
-145.033476697796
 21
-321.248710948036
  0
LINE
  5
2EB
100
AcDbEntity
  8
0
 62
           3
100
AcDbLine
 10
-133.033476697796
 20
-319.668880976987
 11
-145.033476697796
 21
-318.089051005938
  0
LINE
  5
2EC
100
AcDbEntity
  8
0
 62
           3
100
AcDbLine
 10
-145.033476697796
 20
-321.248710948036
 11
-145.033476697796
 21
-318.089051005938
  0
LINE
  5
2ED
100
AcDbEntity
  8
0
 62
           3
100
AcDbLine
 10
-218.033476697796
 20
-319.668880976987
 11
-206.033476697796
 21
-318.089051005938
  0
LINE
  5
2EE
100
AcDbEntity
  8
0
 62
           3
100
AcDbLine
 10
-218.033476697796
 20
-319.668880976987
 11
-206.033476697796
 21
-321.248710948036
  0
LINE
  5
2EF
100
AcDbEntity
  8
0
 62
           3
100
AcDbLine
 10
-206.033476697796
 20
-318.089051005938
 11
-206.033476697796
 21
-321.248710948036
  0
TEXT
  5
2F0
100
AcDbEntity
  8
0
 62
           2
100
AcDbText
 10
-189.299338841741
 20
-311.668880976987
 40
12.0
  1
85
 41
0.9
  7
CONVERTER_2
100
AcDbText
  0
ENDBLK
  5
2F1
100
AcDbEntity
  8
0
100
AcDbBlockEnd
  0
BLOCK
  5
2F7
100
AcDbEntity
  8
0
100
AcDbBlockBegin
  2
*D17
 70
           1
 10
0.0
 20
0.0
 30
0.0
  3
*D17
  1

  0
LINE
  5
2F8
100
AcDbEntity
  8
0
  6
CONTINUOUS
 62
           3
100
AcDbLine
 10
-348.033476697796
 20
296.338511934515
 11
-188.033476697796
 21
296.338511934515
  0
LINE
  5
2F9
100
AcDbEntity
  8
0
  6
CONTINUOUS
 62
           3
100
AcDbLine
 10
-348.033476697796
 20
257.1556026064
 11
-348.033476697796
 21
304.338511934515
  0
LINE
  5
2FA
100
AcDbEntity
  8
0
  6
CONTINUOUS
 62
           3
100
AcDbLine
 10
-188.033476697796
 20
257.1556026064
 11
-188.033476697796
 21
304.338511934515
  0
LINE
  5
2FB
100
AcDbEntity
  8
0
 62
           3
100
AcDbLine
 10
-348.033476697796
 20
296.338511934515
 11
-336.033476697796
 21
297.918341905564
  0
LINE
  5
2FC
100
AcDbEntity
  8
0
 62
           3
100
AcDbLine
 10
-348.033476697796
 20
296.338511934515
 11
-336.033476697796
 21
294.758681963466
  0
LINE
  5
2FD
100
AcDbEntity
  8
0
 62
           3
100
AcDbLine
 10
-336.033476697796
 20
297.918341905564
 11
-336.033476697796
 21
294.758681963466
  0
LINE
  5
2FE
100
AcDbEntity
  8
0
 62
           3
100
AcDbLine
 10
-188.033476697796
 20
296.338511934515
 11
-200.033476697796
 21
294.758681963466
  0
LINE
  5
2FF
100
AcDbEntity
  8
0
 62
           3
100
AcDbLine
 10
-188.033476697796
 20
296.338511934515
 11
-200.033476697796
 21
297.918341905564
  0
LINE
  5
300
100
AcDbEntity
  8
0
 62
           3
100
AcDbLine
 10
-200.033476697796
 20
294.758681963466
 11
-200.033476697796
 21
297.918341905564
  0
TEXT
  5
301
100
AcDbEntity
  8
0
 62
           2
100
AcDbText
 10
-283.983378850438
 20
304.338511934515
 40
12.0
  1
160
 41
0.9
  7
CONVERTER_2
100
AcDbText
  0
ENDBLK
  5
302
100
AcDbEntity
  8
0
100
AcDbBlockEnd
  0
BLOCK
  5
308
100
AcDbEntity
  8
0
100
AcDbBlockBegin
  2
*D20
 70
           1
 10
0.0
 20
0.0
 30
0.0
  3
*D20
  1

  0
LINE
  5
309
100
AcDbEntity
  8
0
  6
CONTINUOUS
 62
           3
100
AcDbLine
 10
-96.70453562365
 20
88.3556026064
 11
-96.70453562365
 21
248.3556026064
  0
LINE
  5
30A
100
AcDbEntity
  8
0
  6
CONTINUOUS
 62
           3
100
AcDbLine
 10
-179.233476697796
 20
248.3556026064
 11
-88.70453562365
 21
248.3556026064
  0
LINE
  5
30B
100
AcDbEntity
  8
0
  6
CONTINUOUS
 62
           3
100
AcDbLine
 10
-179.233476697796
 20
88.3556026064
 11
-88.70453562365
 21
88.3556026064
  0
LINE
  5
30C
100
AcDbEntity
  8
0
 62
           3
100
AcDbLine
 10
-96.70453562365
 20
248.3556026064
 11
-95.124705652601
 21
236.3556026064
  0
LINE
  5
30D
100
AcDbEntity
  8
0
 62
           3
100
AcDbLine
 10
-96.70453562365
 20
248.3556026064
 11
-98.284365594699
 21
236.3556026064
  0
LINE
  5
30E
100
AcDbEntity
  8
0
 62
           3
100
AcDbLine
 10
-95.124705652601
 20
236.3556026064
 11
-98.284365594699
 21
236.3556026064
  0
LINE
  5
30F
100
AcDbEntity
  8
0
 62
           3
100
AcDbLine
 10
-96.70453562365
 20
88.3556026064
 11
-98.284365594699
 21
100.3556026064
  0
LINE
  5
310
100
AcDbEntity
  8
0
 62
           3
100
AcDbLine
 10
-96.70453562365
 20
88.3556026064
 11
-95.124705652601
 21
100.3556026064
  0
LINE
  5
311
100
AcDbEntity
  8
0
 62
           3
100
AcDbLine
 10
-98.284365594699
 20
100.3556026064
 11
-95.124705652601
 21
100.3556026064
  0
MTEXT
  5
312
100
AcDbEntity
  8
0
 62
           2
100
AcDbMText
 10
-104.70453562365
 20
155.958211869284
 30
0.0
 40
12.0
 41
0.0
 71
           7
 72
           1
  1
160
  7
CONVERTER_2
 11
0.0
 21
1.0
 31
0.0
  0
ENDBLK
  5
313
100
AcDbEntity
  8
0
100
AcDbBlockEnd
  0
BLOCK
  5
319
100
AcDbEntity
  8
0
100
AcDbBlockBegin
  2
*D23
 70
           1
 10
0.0
 20
0.0
 30
0.0
  3
*D23
  1

  0
LINE
  5
31A
100
AcDbEntity
  8
0
  6
CONTINUOUS
 62
           3
100
AcDbLine
 10
-62.856133797166
 20
63.3556026064
 11
-62.856133797166
 21
273.3556026064
  0
LINE
  5
31B
100
AcDbEntity
  8
0
  6
CONTINUOUS
 62
           3
100
AcDbLine
 10
-148.033476697796
 20
273.3556026064
 11
-54.856133797166
 21
273.3556026064
  0
LINE
  5
31C
100
AcDbEntity
  8
0
  6
CONTINUOUS
 62
           3
100
AcDbLine
 10
-148.033476697796
 20
63.3556026064
 11
-54.856133797166
 21
63.3556026064
  0
LINE
  5
31D
100
AcDbEntity
  8
0
 62
           3
100
AcDbLine
 10
-62.856133797166
 20
63.3556026064
 11
-64.435963768215
 21
75.3556026064
  0
LINE
  5
31E
100
AcDbEntity
  8
0
 62
           3
100
AcDbLine
 10
-62.856133797166
 20
63.3556026064
 11
-61.276303826117
 21
75.3556026064
  0
LINE
  5
31F
100
AcDbEntity
  8
0
 62
           3
100
AcDbLine
 10
-64.435963768215
 20
75.3556026064
 11
-61.276303826117
 21
75.3556026064
  0
LINE
  5
320
100
AcDbEntity
  8
0
 62
           3
100
AcDbLine
 10
-62.856133797166
 20
273.3556026064
 11
-61.276303826117
 21
261.3556026064
  0
LINE
  5
321
100
AcDbEntity
  8
0
 62
           3
100
AcDbLine
 10
-62.856133797166
 20
273.3556026064
 11
-64.435963768215
 21
261.3556026064
  0
LINE
  5
322
100
AcDbEntity
  8
0
 62
           3
100
AcDbLine
 10
-61.276303826117
 20
261.3556026064
 11
-64.435963768215
 21
261.3556026064
  0
MTEXT
  5
323
100
AcDbEntity
  8
0
 62
           2
100
AcDbMText
 10
-70.856133797166
 20
155.958211869284
 30
0.0
 40
12.0
 41
0.0
 71
           7
 72
           1
  1
210
  7
CONVERTER_2
 11
0.0
 21
1.0
 31
0.0
  0
ENDBLK
  5
324
100
AcDbEntity
  8
0
100
AcDbBlockEnd
  0
BLOCK
  5
32A
100
AcDbEntity
  8
0
100
AcDbBlockBegin
  2
*D26
 70
           1
 10
0.0
 20
0.0
 30
0.0
  3
*D26
  1

  0
LINE
  5
32B
100
AcDbEntity
  8
0
  6
CONTINUOUS
 62
           3
100
AcDbLine
 10
378.491615713596
 20
88.3556026064
 11
378.491615713596
 21
248.3556026064
  0
LINE
  5
32C
100
AcDbEntity
  8
0
  6
CONTINUOUS
 62
           3
100
AcDbLine
 10
417.65599927524
 20
88.3556026064
 11
370.491615713596
 21
88.3556026064
  0
LINE
  5
32D
100
AcDbEntity
  8
0
  6
CONTINUOUS
 62
           3
100
AcDbLine
 10
417.65599927524
 20
248.3556026064
 11
370.491615713596
 21
248.3556026064
  0
LINE
  5
32E
100
AcDbEntity
  8
0
 62
           3
100
AcDbLine
 10
378.491615713596
 20
248.3556026064
 11
380.071445684645
 21
236.3556026064
  0
LINE
  5
32F
100
AcDbEntity
  8
0
 62
           3
100
AcDbLine
 10
378.491615713596
 20
248.3556026064
 11
376.911785742547
 21
236.3556026064
  0
LINE
  5
330
100
AcDbEntity
  8
0
 62
           3
100
AcDbLine
 10
380.071445684645
 20
236.3556026064
 11
376.911785742547
 21
236.3556026064
  0
LINE
  5
331
100
AcDbEntity
  8
0
 62
           3
100
AcDbLine
 10
378.491615713596
 20
88.3556026064
 11
376.911785742547
 21
100.3556026064
  0
LINE
  5
332
100
AcDbEntity
  8
0
 62
           3
100
AcDbLine
 10
378.491615713596
 20
88.3556026064
 11
380.071445684645
 21
100.3556026064
  0
LINE
  5
333
100
AcDbEntity
  8
0
 62
           3
100
AcDbLine
 10
376.911785742547
 20
100.3556026064
 11
380.071445684645
 21
100.3556026064
  0
MTEXT
  5
334
100
AcDbEntity
  8
0
 62
           2
100
AcDbMText
 10
370.491615713596
 20
158.975041614881
 30
0.0
 40
12.0
 41
0.0
 71
           7
 72
           1
  1
160
  7
CONVERTER_2
 11
0.0
 21
1.0
 31
0.0
  0
ENDBLK
  5
335
100
AcDbEntity
  8
0
100
AcDbBlockEnd
  0
BLOCK
  5
33B
100
AcDbEntity
  8
0
100
AcDbBlockBegin
  2
*D29
 70
           1
 10
0.0
 20
0.0
 30
0.0
  3
*D29
  1

  0
LINE
  5
33C
100
AcDbEntity
  8
0
  6
CONTINUOUS
 62
           3
100
AcDbLine
 10
426.45599927524
 20
291.299764380699
 11
586.45599927524
 21
291.299764380699
  0
LINE
  5
33D
100
AcDbEntity
  8
0
  6
CONTINUOUS
 62
           3
100
AcDbLine
 10
426.45599927524
 20
257.1556026064
 11
426.45599927524
 21
299.299764380699
  0
LINE
  5
33E
100
AcDbEntity
  8
0
  6
CONTINUOUS
 62
           3
100
AcDbLine
 10
586.45599927524
 20
257.1556026064
 11
586.45599927524
 21
299.299764380699
  0
LINE
  5
33F
100
AcDbEntity
  8
0
 62
           3
100
AcDbLine
 10
426.45599927524
 20
291.299764380699
 11
438.45599927524
 21
292.879594351748
  0
LINE
  5
340
100
AcDbEntity
  8
0
 62
           3
100
AcDbLine
 10
426.45599927524
 20
291.299764380699
 11
438.45599927524
 21
289.71993440965
  0
LINE
  5
341
100
AcDbEntity
  8
0
 62
           3
100
AcDbLine
 10
438.45599927524
 20
292.879594351748
 11
438.45599927524
 21
289.71993440965
  0
LINE
  5
342
100
AcDbEntity
  8
0
 62
           3
100
AcDbLine
 10
586.45599927524
 20
291.299764380699
 11
574.45599927524
 21
289.71993440965
  0
LINE
  5
343
100
AcDbEntity
  8
0
 62
           3
100
AcDbLine
 10
586.45599927524
 20
291.299764380699
 11
574.45599927524
 21
292.879594351748
  0
LINE
  5
344
100
AcDbEntity
  8
0
 62
           3
100
AcDbLine
 10
574.45599927524
 20
289.71993440965
 11
574.45599927524
 21
292.879594351748
  0
TEXT
  5
345
100
AcDbEntity
  8
0
 62
           2
100
AcDbText
 10
498.453911864934
 20
299.299764380699
 40
12.0
  1
160
 41
0.9
  7
CONVERTER_2
100
AcDbText
  0
ENDBLK
  5
346
100
AcDbEntity
  8
0
100
AcDbBlockEnd
  0
BLOCK
  5
34C
100
AcDbEntity
  8
0
100
AcDbBlockBegin
  2
*D32
 70
           1
 10
0.0
 20
0.0
 30
0.0
  3
*D32
  1

  0
LINE
  5
34D
100
AcDbEntity
  8
0
  6
CONTINUOUS
 62
           3
100
AcDbLine
 10
-348.033476697796
 20
-141.711319621187
 11
-188.033476697796
 21
-141.711319621187
  0
LINE
  5
34E
100
AcDbEntity
  8
0
  6
CONTINUOUS
 62
           3
100
AcDbLine
 10
-348.033476697796
 20
-176.757337379132
 11
-348.033476697796
 21
-133.711319621187
  0
LINE
  5
34F
100
AcDbEntity
  8
0
  6
CONTINUOUS
 62
           3
100
AcDbLine
 10
-188.033476697796
 20
-176.757337379132
 11
-188.033476697796
 21
-133.711319621187
  0
LINE
  5
350
100
AcDbEntity
  8
0
 62
           3
100
AcDbLine
 10
-348.033476697796
 20
-141.711319621187
 11
-336.033476697796
 21
-140.131489650138
  0
LINE
  5
351
100
AcDbEntity
  8
0
 62
           3
100
AcDbLine
 10
-348.033476697796
 20
-141.711319621187
 11
-336.033476697796
 21
-143.291149592236
  0
LINE
  5
352
100
AcDbEntity
  8
0
 62
           3
100
AcDbLine
 10
-336.033476697796
 20
-140.131489650138
 11
-336.033476697796
 21
-143.291149592236
  0
LINE
  5
353
100
AcDbEntity
  8
0
 62
           3
100
AcDbLine
 10
-188.033476697796
 20
-141.711319621187
 11
-200.033476697796
 21
-143.291149592236
  0
LINE
  5
354
100
AcDbEntity
  8
0
 62
           3
100
AcDbLine
 10
-188.033476697796
 20
-141.711319621187
 11
-200.033476697796
 21
-140.131489650138
  0
LINE
  5
355
100
AcDbEntity
  8
0
 62
           3
100
AcDbLine
 10
-200.033476697796
 20
-143.291149592236
 11
-200.033476697796
 21
-140.131489650138
  0
TEXT
  5
356
100
AcDbEntity
  8
0
 62
           2
100
AcDbText
 10
-282.374152324627
 20
-133.711319621187
 40
12.0
  1
160
 41
0.9
  7
CONVERTER_2
100
AcDbText
  0
ENDBLK
  5
357
100
AcDbEntity
  8
0
100
AcDbBlockEnd
  0
BLOCK
  5
35D
100
AcDbEntity
  8
0
100
AcDbBlockBegin
  2
*D35
 70
           1
 10
0.0
 20
0.0
 30
0.0
  3
*D35
  1

  0
LINE
  5
35E
100
AcDbEntity
  8
0
  6
CONTINUOUS
 62
           3
100
AcDbLine
 10
-388.033476697796
 20
-107.72075278424
 11
-148.033476697796
 21
-107.72075278424
  0
LINE
  5
35F
100
AcDbEntity
  8
0
  6
CONTINUOUS
 62
           3
100
AcDbLine
 10
-388.033476697796
 20
-160.557337379132
 11
-388.033476697796
 21
-99.72075278424
  0
LINE
  5
360
100
AcDbEntity
  8
0
  6
CONTINUOUS
 62
           3
100
AcDbLine
 10
-148.033476697796
 20
-160.557337379132
 11
-148.033476697796
 21
-99.72075278424
  0
LINE
  5
361
100
AcDbEntity
  8
0
 62
           3
100
AcDbLine
 10
-388.033476697796
 20
-107.72075278424
 11
-376.033476697796
 21
-106.140922813192
  0
LINE
  5
362
100
AcDbEntity
  8
0
 62
           3
100
AcDbLine
 10
-388.033476697796
 20
-107.72075278424
 11
-376.033476697796
 21
-109.300582755289
  0
LINE
  5
363
100
AcDbEntity
  8
0
 62
           3
100
AcDbLine
 10
-376.033476697796
 20
-106.140922813192
 11
-376.033476697796
 21
-109.300582755289
  0
LINE
  5
364
100
AcDbEntity
  8
0
 62
           3
100
AcDbLine
 10
-148.033476697796
 20
-107.72075278424
 11
-160.033476697796
 21
-109.300582755289
  0
LINE
  5
365
100
AcDbEntity
  8
0
 62
           3
100
AcDbLine
 10
-148.033476697796
 20
-107.72075278424
 11
-160.033476697796
 21
-106.140922813192
  0
LINE
  5
366
100
AcDbEntity
  8
0
 62
           3
100
AcDbLine
 10
-160.033476697796
 20
-109.300582755289
 11
-160.033476697796
 21
-106.140922813192
  0
TEXT
  5
367
100
AcDbEntity
  8
0
 62
           2
100
AcDbText
 10
-279.175539554487
 20
-99.72075278424
 40
12.0
  1
240
 41
0.9
  7
CONVERTER_2
100
AcDbText
  0
ENDBLK
  5
368
100
AcDbEntity
  8
0
100
AcDbBlockEnd
  0
BLOCK
  5
36E
100
AcDbEntity
  8
0
100
AcDbBlockBegin
  2
*D38
 70
           1
 10
0.0
 20
0.0
 30
0.0
  3
*D38
  1

  0
LINE
  5
36F
100
AcDbEntity
  8
0
  6
CONTINUOUS
 62
           3
100
AcDbLine
 10
-364.033476697796
 20
-107.72075278424
 11
-388.033476697796
 21
-107.72075278424
  0
LINE
  5
370
100
AcDbEntity
  8
0
  6
CONTINUOUS
 62
           3
100
AcDbLine
 10
-401.033476697796
 20
-107.72075278424
 11
-388.033476697796
 21
-107.72075278424
  0
LINE
  5
371
100
AcDbEntity
  8
0
  6
CONTINUOUS
 62
           3
100
AcDbLine
 10
-401.033476697796
 20
-107.72075278424
 11
-433.597352455655
 21
-107.72075278424
  0
LINE
  5
372
100
AcDbEntity
  8
0
  6
CONTINUOUS
 62
           3
100
AcDbLine
 10
-401.033476697796
 20
-168.057337379132
 11
-401.033476697796
 21
-99.72075278424
  0
LINE
  5
373
100
AcDbEntity
  8
0
  6
CONTINUOUS
 62
           3
100
AcDbLine
 10
-388.033476697796
 20
-160.557337379132
 11
-388.033476697796
 21
-99.72075278424
  0
LINE
  5
374
100
AcDbEntity
  8
0
 62
           3
100
AcDbLine
 10
-388.033476697796
 20
-107.72075278424
 11
-376.033476697796
 21
-106.140922813192
  0
LINE
  5
375
100
AcDbEntity
  8
0
 62
           3
100
AcDbLine
 10
-388.033476697796
 20
-107.72075278424
 11
-376.033476697796
 21
-109.300582755289
  0
LINE
  5
376
100
AcDbEntity
  8
0
 62
           3
100
AcDbLine
 10
-376.033476697796
 20
-106.140922813192
 11
-376.033476697796
 21
-109.300582755289
  0
LINE
  5
377
100
AcDbEntity
  8
0
 62
           3
100
AcDbLine
 10
-401.033476697796
 20
-107.72075278424
 11
-413.033476697796
 21
-109.300582755289
  0
LINE
  5
378
100
AcDbEntity
  8
0
 62
           3
100
AcDbLine
 10
-401.033476697796
 20
-107.72075278424
 11
-413.033476697796
 21
-106.140922813192
  0
LINE
  5
379
100
AcDbEntity
  8
0
 62
           3
100
AcDbLine
 10
-413.033476697796
 20
-109.300582755289
 11
-413.033476697796
 21
-106.140922813192
  0
TEXT
  5
37A
100
AcDbEntity
  8
0
 62
           2
100
AcDbText
 10
-433.597352455655
 20
-99.72075278424
 40
12.0
  1
13
 41
0.9
  7
CONVERTER_2
100
AcDbText
  0
ENDBLK
  5
37B
100
AcDbEntity
  8
0
100
AcDbBlockEnd
  0
BLOCK
  5
381
100
AcDbEntity
  8
0
100
AcDbBlockBegin
  2
*D41
 70
           1
 10
0.0
 20
0.0
 30
0.0
  3
*D41
  1

  0
LINE
  5
382
100
AcDbEntity
  8
0
  6
CONTINUOUS
 62
           3
100
AcDbLine
 10
-401.033476697796
 20
-68.082753557983
 11
-268.033476697796
 21
-68.082753557983
  0
LINE
  5
383
100
AcDbEntity
  8
0
  6
CONTINUOUS
 62
           3
100
AcDbLine
 10
-268.033476697796
 20
-77.47388206418
 11
-268.033476697796
 21
-60.082753557983
  0
LINE
  5
384
100
AcDbEntity
  8
0
  6
CONTINUOUS
 62
           3
100
AcDbLine
 10
-268.033476697796
 20
-157.314593188006
 11
-268.033476697796
 21
-146.79677834598
  0
LINE
  5
385
100
AcDbEntity
  8
0
  6
CONTINUOUS
 62
           3
100
AcDbLine
 10
-401.033476697796
 20
-168.057337379132
 11
-401.033476697796
 21
-60.082753557983
  0
LINE
  5
386
100
AcDbEntity
  8
0
 62
           3
100
AcDbLine
 10
-268.033476697796
 20
-68.082753557983
 11
-280.033476697796
 21
-69.662583529032
  0
LINE
  5
387
100
AcDbEntity
  8
0
 62
           3
100
AcDbLine
 10
-268.033476697796
 20
-68.082753557983
 11
-280.033476697796
 21
-66.502923586934
  0
LINE
  5
388
100
AcDbEntity
  8
0
 62
           3
100
AcDbLine
 10
-280.033476697796
 20
-69.662583529032
 11
-280.033476697796
 21
-66.502923586934
  0
LINE
  5
389
100
AcDbEntity
  8
0
 62
           3
100
AcDbLine
 10
-401.033476697796
 20
-68.082753557983
 11
-389.033476697796
 21
-66.502923586934
  0
LINE
  5
38A
100
AcDbEntity
  8
0
 62
           3
100
AcDbLine
 10
-401.033476697796
 20
-68.082753557983
 11
-389.033476697796
 21
-69.662583529032
  0
LINE
  5
38B
100
AcDbEntity
  8
0
 62
           3
100
AcDbLine
 10
-389.033476697796
 20
-66.502923586934
 11
-389.033476697796
 21
-69.662583529032
  0
TEXT
  5
38C
100
AcDbEntity
  8
0
 62
           2
100
AcDbText
 10
-345.683074436435
 20
-60.082753557983
 40
12.0
  1
133
 41
0.9
  7
CONVERTER_2
100
AcDbText
  0
ENDBLK
  5
38D
100
AcDbEntity
  8
0
100
AcDbBlockEnd
  0
BLOCK
  5
393
100
AcDbEntity
  8
0
100
AcDbBlockBegin
  2
*D44
 70
           1
 10
0.0
 20
0.0
 30
0.0
  3
*D44
  1

  0
LINE
  5
394
100
AcDbEntity
  8
0
  6
CONTINUOUS
 62
           3
100
AcDbLine
 10
-469.004753062224
 20
-363.057337379132
 11
-469.004753062224
 21
-168.057337379132
  0
LINE
  5
395
100
AcDbEntity
  8
0
  6
CONTINUOUS
 62
           3
100
AcDbLine
 10
-401.033476697796
 20
-168.057337379132
 11
-477.004753062224
 21
-168.057337379132
  0
LINE
  5
396
100
AcDbEntity
  8
0
  6
CONTINUOUS
 62
           3
100
AcDbLine
 10
-401.033476697796
 20
-363.057337379132
 11
-477.004753062224
 21
-363.057337379132
  0
LINE
  5
397
100
AcDbEntity
  8
0
 62
           3
100
AcDbLine
 10
-469.004753062224
 20
-363.057337379132
 11
-470.584583033273
 21
-351.057337379132
  0
LINE
  5
398
100
AcDbEntity
  8
0
 62
           3
100
AcDbLine
 10
-469.004753062224
 20
-363.057337379132
 11
-467.424923091175
 21
-351.057337379132
  0
LINE
  5
399
100
AcDbEntity
  8
0
 62
           3
100
AcDbLine
 10
-470.584583033273
 20
-351.057337379132
 11
-467.424923091175
 21
-351.057337379132
  0
LINE
  5
39A
100
AcDbEntity
  8
0
 62
           3
100
AcDbLine
 10
-469.004753062224
 20
-168.057337379132
 11
-467.424923091175
 21
-180.057337379132
  0
LINE
  5
39B
100
AcDbEntity
  8
0
 62
           3
100
AcDbLine
 10
-469.004753062224
 20
-168.057337379132
 11
-470.584583033273
 21
-180.057337379132
  0
LINE
  5
39C
100
AcDbEntity
  8
0
 62
           3
100
AcDbLine
 10
-467.424923091175
 20
-180.057337379132
 11
-470.584583033273
 21
-180.057337379132
  0
MTEXT
  5
39D
100
AcDbEntity
  8
0
 62
           2
100
AcDbMText
 10
-480.004753062224
 20
-285.062044708233
 30
0.0
 40
12.0
 41
0.0
 71
           7
 72
           1
  1
\C2;Ø\C2;\C2;195\C3;\H7.200000;\S^ h8;
  7
CONVERTER_2
 11
0.0
 21
1.0
 31
0.0
  0
ENDBLK
  5
39E
100
AcDbEntity
  8
0
100
AcDbBlockEnd
  0
BLOCK
  5
3A4
100
AcDbEntity
  8
0
100
AcDbBlockBegin
  2
*D47
 70
           1
 10
0.0
 20
0.0
 30
0.0
  3
*D47
  1

  0
LINE
  5
3A5
100
AcDbEntity
  8
0
  6
CONTINUOUS
 62
           3
100
AcDbLine
 10
-323.033476697796
 20
-435.784732249003
 11
-213.033476697796
 21
-435.784732249003
  0
LINE
  5
3A6
100
AcDbEntity
  8
0
  6
CONTINUOUS
 62
           3
100
AcDbLine
 10
-213.033476697796
 20
-453.557337379132
 11
-213.033476697796
 21
-427.784732249003
  0
LINE
  5
3A7
100
AcDbEntity
  8
0
  6
CONTINUOUS
 62
           3
100
AcDbLine
 10
-323.033476697796
 20
-453.557337379132
 11
-323.033476697796
 21
-427.784732249003
  0
LINE
  5
3A8
100
AcDbEntity
  8
0
 62
           3
100
AcDbLine
 10
-213.033476697796
 20
-435.784732249003
 11
-225.033476697796
 21
-437.364562220052
  0
LINE
  5
3A9
100
AcDbEntity
  8
0
 62
           3
100
AcDbLine
 10
-213.033476697796
 20
-435.784732249003
 11
-225.033476697796
 21
-434.204902277954
  0
LINE
  5
3AA
100
AcDbEntity
  8
0
 62
           3
100
AcDbLine
 10
-225.033476697796
 20
-437.364562220052
 11
-225.033476697796
 21
-434.204902277954
  0
LINE
  5
3AB
100
AcDbEntity
  8
0
 62
           3
100
AcDbLine
 10
-323.033476697796
 20
-435.784732249003
 11
-311.033476697796
 21
-434.204902277954
  0
LINE
  5
3AC
100
AcDbEntity
  8
0
 62
           3
100
AcDbLine
 10
-323.033476697796
 20
-435.784732249003
 11
-311.033476697796
 21
-437.364562220052
  0
LINE
  5
3AD
100
AcDbEntity
  8
0
 62
           3
100
AcDbLine
 10
-311.033476697796
 20
-434.204902277954
 11
-311.033476697796
 21
-437.364562220052
  0
MTEXT
  5
3AE
100
AcDbEntity
  8
0
 62
           2
100
AcDbMText
 10
-259.307388417735
 20
-427.784732249003
 30
0.0
 40
12.0
 41
0.0
 71
           7
 72
           1
  1
\C2;Ø\C2;110
  7
CONVERTER_2
  0
ENDBLK
  5
3AF
100
AcDbEntity
  8
0
100
AcDbBlockEnd
  0
BLOCK
  5
3B5
100
AcDbEntity
  8
0
100
AcDbBlockBegin
  2
*D50
 70
           1
 10
0.0
 20
0.0
 30
0.0
  3
*D50
  1

  0
LINE
  5
3B6
100
AcDbEntity
  8
0
  6
CONTINUOUS
 62
           3
100
AcDbLine
 10
-308.033476697796
 20
-533.579252796948
 11
-284.033476697796
 21
-533.579252796948
  0
LINE
  5
3B7
100
AcDbEntity
  8
0
  6
CONTINUOUS
 62
           3
100
AcDbLine
 10
-284.033476697796
 20
-533.579252796948
 11
-252.033476697796
 21
-533.579252796948
  0
LINE
  5
3B8
100
AcDbEntity
  8
0
  6
CONTINUOUS
 62
           3
100
AcDbLine
 10
-252.033476697796
 20
-533.579252796948
 11
-193.549915053961
 21
-533.579252796948
  0
LINE
  5
3B9
100
AcDbEntity
  8
0
  6
CONTINUOUS
 62
           3
100
AcDbLine
 10
-284.033476697796
 20
-500.557337379132
 11
-284.033476697796
 21
-541.579252796948
  0
LINE
  5
3BA
100
AcDbEntity
  8
0
  6
CONTINUOUS
 62
           3
100
AcDbLine
 10
-252.033476697796
 20
-500.557337379132
 11
-252.033476697796
 21
-541.579252796948
  0
LINE
  5
3BB
100
AcDbEntity
  8
0
 62
           3
100
AcDbLine
 10
-252.033476697796
 20
-533.579252796948
 11
-240.033476697796
 21
-531.999422825899
  0
LINE
  5
3BC
100
AcDbEntity
  8
0
 62
           3
100
AcDbLine
 10
-252.033476697796
 20
-533.579252796948
 11
-240.033476697796
 21
-535.159082767997
  0
LINE
  5
3BD
100
AcDbEntity
  8
0
 62
           3
100
AcDbLine
 10
-240.033476697796
 20
-531.999422825899
 11
-240.033476697796
 21
-535.159082767997
  0
LINE
  5
3BE
100
AcDbEntity
  8
0
 62
           3
100
AcDbLine
 10
-284.033476697796
 20
-533.579252796948
 11
-296.033476697796
 21
-535.159082767997
  0
LINE
  5
3BF
100
AcDbEntity
  8
0
 62
           3
100
AcDbLine
 10
-284.033476697796
 20
-533.579252796948
 11
-296.033476697796
 21
-531.999422825899
  0
LINE
  5
3C0
100
AcDbEntity
  8
0
 62
           3
100
AcDbLine
 10
-296.033476697796
 20
-535.159082767997
 11
-296.033476697796
 21
-531.999422825899
  0
MTEXT
  5
3C1
100
AcDbEntity
  8
0
 62
           2
100
AcDbMText
 10
-238.189915053961
 20
-522.579252796948
 30
0.0
 40
12.0
 41
0.0
 71
           7
 72
           1
  1
\C2;Ø\C2;\C2;32\C3;\H7.200000;\S^ k6;
  7
CONVERTER_2
  0
ENDBLK
  5
3C2
100
AcDbEntity
  8
0
100
AcDbBlockEnd
  0
BLOCK
  5
3C8
100
AcDbEntity
  8
0
100
AcDbBlockBegin
  2
*D53
 70
           1
 10
0.0
 20
0.0
 30
0.0
  3
*D53
  1

  0
LINE
  5
3C9
100
AcDbEntity
  8
0
  6
CONTINUOUS
 62
           3
100
AcDbLine
 10
-365.533476697796
 20
-577.428627584516
 11
-170.533476697796
 21
-577.428627584516
  0
LINE
  5
3CA
100
AcDbEntity
  8
0
  6
CONTINUOUS
 62
           3
100
AcDbLine
 10
-170.533476697796
 20
-385.557337379132
 11
-170.533476697796
 21
-585.428627584516
  0
LINE
  5
3CB
100
AcDbEntity
  8
0
  6
CONTINUOUS
 62
           3
100
AcDbLine
 10
-365.533476697796
 20
-385.557337379132
 11
-365.533476697796
 21
-585.428627584516
  0
LINE
  5
3CC
100
AcDbEntity
  8
0
 62
           3
100
AcDbLine
 10
-170.533476697796
 20
-577.428627584516
 11
-182.533476697796
 21
-579.008457555565
  0
LINE
  5
3CD
100
AcDbEntity
  8
0
 62
           3
100
AcDbLine
 10
-170.533476697796
 20
-577.428627584516
 11
-182.533476697796
 21
-575.848797613467
  0
LINE
  5
3CE
100
AcDbEntity
  8
0
 62
           3
100
AcDbLine
 10
-182.533476697796
 20
-579.008457555565
 11
-182.533476697796
 21
-575.848797613467
  0
LINE
  5
3CF
100
AcDbEntity
  8
0
 62
           3
100
AcDbLine
 10
-365.533476697796
 20
-577.428627584516
 11
-353.533476697796
 21
-575.848797613467
  0
LINE
  5
3D0
100
AcDbEntity
  8
0
 62
           3
100
AcDbLine
 10
-365.533476697796
 20
-577.428627584516
 11
-353.533476697796
 21
-579.008457555565
  0
LINE
  5
3D1
100
AcDbEntity
  8
0
 62
           3
100
AcDbLine
 10
-353.533476697796
 20
-575.848797613467
 11
-353.533476697796
 21
-579.008457555565
  0
MTEXT
  5
3D2
100
AcDbEntity
  8
0
 62
           2
100
AcDbMText
 10
-293.317759014786
 20
-566.428627584516
 30
0.0
 40
12.0
 41
0.0
 71
           7
 72
           1
  1
\C2;Ø\C2;\C2;195\C3;\H7.200000;\S^ h8;
  7
CONVERTER_2
  0
ENDBLK
  5
3D3
100
AcDbEntity
  8
0
100
AcDbBlockEnd
  0
BLOCK
  5
3D9
100
AcDbEntity
  8
0
100
AcDbBlockBegin
  2
*D56
 70
           1
 10
0.0
 20
0.0
 30
0.0
  3
*D56
  1

  0
LINE
  5
3DA
100
AcDbEntity
  8
0
  6
CONTINUOUS
 62
           3
100
AcDbLine
 10
-61.71590766105
 20
-345.557337379132
 11
-61.71590766105
 21
-185.557337379132
  0
LINE
  5
3DB
100
AcDbEntity
  8
0
  6
CONTINUOUS
 62
           3
100
AcDbLine
 10
-179.233476697796
 20
-185.557337379132
 11
-53.71590766105
 21
-185.557337379132
  0
LINE
  5
3DC
100
AcDbEntity
  8
0
  6
CONTINUOUS
 62
           3
100
AcDbLine
 10
-179.233476697796
 20
-345.557337379132
 11
-53.71590766105
 21
-345.557337379132
  0
LINE
  5
3DD
100
AcDbEntity
  8
0
 62
           3
100
AcDbLine
 10
-61.71590766105
 20
-345.557337379132
 11
-63.295737632099
 21
-333.557337379132
  0
LINE
  5
3DE
100
AcDbEntity
  8
0
 62
           3
100
AcDbLine
 10
-61.71590766105
 20
-345.557337379132
 11
-60.136077690001
 21
-333.557337379132
  0
LINE
  5
3DF
100
AcDbEntity
  8
0
 62
           3
100
AcDbLine
 10
-63.295737632099
 20
-333.557337379132
 11
-60.136077690001
 21
-333.557337379132
  0
LINE
  5
3E0
100
AcDbEntity
  8
0
 62
           3
100
AcDbLine
 10
-61.71590766105
 20
-185.557337379132
 11
-60.136077690001
 21
-197.557337379132
  0
LINE
  5
3E1
100
AcDbEntity
  8
0
 62
           3
100
AcDbLine
 10
-61.71590766105
 20
-185.557337379132
 11
-63.295737632099
 21
-197.557337379132
  0
LINE
  5
3E2
100
AcDbEntity
  8
0
 62
           3
100
AcDbLine
 10
-60.136077690001
 20
-197.557337379132
 11
-63.295737632099
 21
-197.557337379132
  0
MTEXT
  5
3E3
100
AcDbEntity
  8
0
 62
           2
100
AcDbMText
 10
-69.71590766105
 20
-276.033264538631
 30
0.0
 40
12.0
 41
0.0
 71
           7
 72
           1
  1
160
  7
CONVERTER_2
 11
0.0
 21
1.0
 31
0.0
  0
ENDBLK
  5
3E4
100
AcDbEntity
  8
0
100
AcDbBlockEnd
  0
BLOCK
  5
3EA
100
AcDbEntity
  8
0
100
AcDbBlockBegin
  2
*D59
 70
           1
 10
0.0
 20
0.0
 30
0.0
  3
*D59
  1

  0
LINE
  5
3EB
100
AcDbEntity
  8
0
  6
CONTINUOUS
 62
           3
100
AcDbLine
 10
-32.888423425347
 20
-370.557337379132
 11
-32.888423425347
 21
-160.557337379132
  0
LINE
  5
3EC
100
AcDbEntity
  8
0
  6
CONTINUOUS
 62
           3
100
AcDbLine
 10
-148.033476697796
 20
-160.557337379132
 11
-24.888423425347
 21
-160.557337379132
  0
LINE
  5
3ED
100
AcDbEntity
  8
0
  6
CONTINUOUS
 62
           3
100
AcDbLine
 10
-148.033476697796
 20
-370.557337379132
 11
-24.888423425347
 21
-370.557337379132
  0
LINE
  5
3EE
100
AcDbEntity
  8
0
 62
           3
100
AcDbLine
 10
-32.888423425347
 20
-370.557337379132
 11
-34.468253396396
 21
-358.557337379132
  0
LINE
  5
3EF
100
AcDbEntity
  8
0
 62
           3
100
AcDbLine
 10
-32.888423425347
 20
-370.557337379132
 11
-31.308593454298
 21
-358.557337379132
  0
LINE
  5
3F0
100
AcDbEntity
  8
0
 62
           3
100
AcDbLine
 10
-34.468253396396
 20
-358.557337379132
 11
-31.308593454298
 21
-358.557337379132
  0
LINE
  5
3F1
100
AcDbEntity
  8
0
 62
           3
100
AcDbLine
 10
-32.888423425347
 20
-160.557337379132
 11
-31.308593454298
 21
-172.557337379132
  0
LINE
  5
3F2
100
AcDbEntity
  8
0
 62
           3
100
AcDbLine
 10
-32.888423425347
 20
-160.557337379132
 11
-34.468253396396
 21
-172.557337379132
  0
LINE
  5
3F3
100
AcDbEntity
  8
0
 62
           3
100
AcDbLine
 10
-31.308593454298
 20
-172.557337379132
 11
-34.468253396396
 21
-172.557337379132
  0
MTEXT
  5
3F4
100
AcDbEntity
  8
0
 62
           2
100
AcDbMText
 10
-40.888423425347
 20
-276.703671148763
 30
0.0
 40
12.0
 41
0.0
 71
           7
 72
           1
  1
210
  7
CONVERTER_2
 11
0.0
 21
1.0
 31
0.0
  0
ENDBLK
  5
3F5
100
AcDbEntity
  8
0
100
AcDbBlockEnd
  0
BLOCK
  5
3FB
100
AcDbEntity
  8
0
100
AcDbBlockBegin
  2
*D62
 70
           1
 10
0.0
 20
0.0
 30
0.0
  3
*D62
  1

  0
LINE
  5
3FC
100
AcDbEntity
  8
0
  6
CONTINUOUS
 62
           3
100
AcDbLine
 10
6.665566572479
 20
-453.557337379132
 11
6.665566572479
 21
-265.557337379132
  0
LINE
  5
3FD
100
AcDbEntity
  8
0
  6
CONTINUOUS
 62
           3
100
AcDbLine
 10
-13.368092918715
 20
-265.557337379132
 11
14.665566572479
 21
-265.557337379132
  0
LINE
  5
3FE
100
AcDbEntity
  8
0
  6
CONTINUOUS
 62
           3
100
AcDbLine
 10
-129.533476697796
 20
-265.557337379132
 11
-118.587162281619
 21
-265.557337379132
  0
LINE
  5
3FF
100
AcDbEntity
  8
0
  6
CONTINUOUS
 62
           3
100
AcDbLine
 10
-213.033476697796
 20
-453.557337379132
 11
14.665566572479
 21
-453.557337379132
  0
LINE
  5
400
100
AcDbEntity
  8
0
 62
           3
100
AcDbLine
 10
6.665566572479
 20
-265.557337379132
 11
8.245396543528
 21
-277.557337379132
  0
LINE
  5
401
100
AcDbEntity
  8
0
 62
           3
100
AcDbLine
 10
6.665566572479
 20
-265.557337379132
 11
5.08573660143
 21
-277.557337379132
  0
LINE
  5
402
100
AcDbEntity
  8
0
 62
           3
100
AcDbLine
 10
8.245396543528
 20
-277.557337379132
 11
5.08573660143
 21
-277.557337379132
  0
LINE
  5
403
100
AcDbEntity
  8
0
 62
           3
100
AcDbLine
 10
6.665566572479
 20
-453.557337379132
 11
5.08573660143
 21
-441.557337379132
  0
LINE
  5
404
100
AcDbEntity
  8
0
 62
           3
100
AcDbLine
 10
6.665566572479
 20
-453.557337379132
 11
8.245396543528
 21
-441.557337379132
  0
LINE
  5
405
100
AcDbEntity
  8
0
 62
           3
100
AcDbLine
 10
5.08573660143
 20
-441.557337379132
 11
8.245396543528
 21
-441.557337379132
  0
MTEXT
  5
406
100
AcDbEntity
  8
0
 62
           2
100
AcDbMText
 10
-1.334433427521
 20
-355.141244534282
 30
0.0
 40
12.0
 41
0.0
 71
           7
 72
           1
  1
188
  7
CONVERTER_2
 11
0.0
 21
1.0
 31
0.0
  0
ENDBLK
  5
407
100
AcDbEntity
  8
0
100
AcDbBlockEnd
  0
BLOCK
  5
40D
100
AcDbEntity
  8
0
100
AcDbBlockBegin
  2
*D65
 70
           1
 10
0.0
 20
0.0
 30
0.0
  3
*D65
  1

  0
LINE
  5
40E
100
AcDbEntity
  8
0
  6
CONTINUOUS
 62
           3
100
AcDbLine
 10
48.230776400702
 20
-500.557337379132
 11
48.230776400702
 21
-265.557337379132
  0
LINE
  5
40F
100
AcDbEntity
  8
0
  6
CONTINUOUS
 62
           3
100
AcDbLine
 10
-129.533476697796
 20
-265.557337379132
 11
-112.831725067968
 21
-265.557337379132
  0
LINE
  5
410
100
AcDbEntity
  8
0
  6
CONTINUOUS
 62
           3
100
AcDbLine
 10
-16.370495042239
 20
-265.557337379132
 11
56.230776400702
 21
-265.557337379132
  0
LINE
  5
411
100
AcDbEntity
  8
0
  6
CONTINUOUS
 62
           3
100
AcDbLine
 10
-252.033476697796
 20
-500.557337379132
 11
56.230776400702
 21
-500.557337379132
  0
LINE
  5
412
100
AcDbEntity
  8
0
 62
           3
100
AcDbLine
 10
48.230776400702
 20
-265.557337379132
 11
49.810606371751
 21
-277.557337379132
  0
LINE
  5
413
100
AcDbEntity
  8
0
 62
           3
100
AcDbLine
 10
48.230776400702
 20
-265.557337379132
 11
46.650946429654
 21
-277.557337379132
  0
LINE
  5
414
100
AcDbEntity
  8
0
 62
           3
100
AcDbLine
 10
49.810606371751
 20
-277.557337379132
 11
46.650946429654
 21
-277.557337379132
  0
LINE
  5
415
100
AcDbEntity
  8
0
 62
           3
100
AcDbLine
 10
48.230776400702
 20
-500.557337379132
 11
46.650946429654
 21
-488.557337379132
  0
LINE
  5
416
100
AcDbEntity
  8
0
 62
           3
100
AcDbLine
 10
48.230776400702
 20
-500.557337379132
 11
49.810606371751
 21
-488.557337379132
  0
LINE
  5
417
100
AcDbEntity
  8
0
 62
           3
100
AcDbLine
 10
46.650946429654
 20
-488.557337379132
 11
49.810606371751
 21
-488.557337379132
  0
MTEXT
  5
418
100
AcDbEntity
  8
0
 62
           2
100
AcDbMText
 10
40.230776400702
 20
-391.575019022601
 30
0.0
 40
12.0
 41
0.0
 71
           7
 72
           1
  1
235
  7
CONVERTER_2
 11
0.0
 21
1.0
 31
0.0
  0
ENDBLK
  5
419
100
AcDbEntity
  8
0
100
AcDbBlockEnd
  0
BLOCK
  5
41F
100
AcDbEntity
  8
0
100
AcDbBlockBegin
  2
*D68
 70
           1
 10
0.0
 20
0.0
 30
0.0
  3
*D68
  1

  0
LINE
  5
420
100
AcDbEntity
  8
0
  6
CONTINUOUS
 62
           3
100
AcDbLine
 10
-32.888423425347
 20
-385.557337379132
 11
-32.888423425347
 21
-418.122718767811
  0
LINE
  5
421
100
AcDbEntity
  8
0
  6
CONTINUOUS
 62
           3
100
AcDbLine
 10
-32.888423425347
 20
-385.557337379132
 11
-32.888423425347
 21
-370.557337379132
  0
LINE
  5
422
100
AcDbEntity
  8
0
  6
CONTINUOUS
 62
           3
100
AcDbLine
 10
-32.888423425347
 20
-346.557337379132
 11
-32.888423425347
 21
-370.557337379132
  0
LINE
  5
423
100
AcDbEntity
  8
0
  6
CONTINUOUS
 62
           3
100
AcDbLine
 10
-148.033476697796
 20
-370.557337379132
 11
-24.888423425347
 21
-370.557337379132
  0
LINE
  5
424
100
AcDbEntity
  8
0
  6
CONTINUOUS
 62
           3
100
AcDbLine
 10
-170.533476697796
 20
-385.557337379132
 11
-24.888423425347
 21
-385.557337379132
  0
LINE
  5
425
100
AcDbEntity
  8
0
 62
           3
100
AcDbLine
 10
-32.888423425347
 20
-385.557337379132
 11
-31.308593454298
 21
-397.557337379132
  0
LINE
  5
426
100
AcDbEntity
  8
0
 62
           3
100
AcDbLine
 10
-32.888423425347
 20
-385.557337379132
 11
-34.468253396396
 21
-397.557337379132
  0
LINE
  5
427
100
AcDbEntity
  8
0
 62
           3
100
AcDbLine
 10
-31.308593454298
 20
-397.557337379132
 11
-34.468253396396
 21
-397.557337379132
  0
LINE
  5
428
100
AcDbEntity
  8
0
 62
           3
100
AcDbLine
 10
-32.888423425347
 20
-370.557337379132
 11
-34.468253396396
 21
-358.557337379132
  0
LINE
  5
429
100
AcDbEntity
  8
0
 62
           3
100
AcDbLine
 10
-32.888423425347
 20
-370.557337379132
 11
-31.308593454298
 21
-358.557337379132
  0
LINE
  5
42A
100
AcDbEntity
  8
0
 62
           3
100
AcDbLine
 10
-34.468253396396
 20
-358.557337379132
 11
-31.308593454298
 21
-358.557337379132
  0
MTEXT
  5
42B
100
AcDbEntity
  8
0
 62
           2
100
AcDbMText
 10
-40.888423425347
 20
-418.122718767811
 30
0.0
 40
12.0
 41
0.0
 71
           7
 72
           1
  1
15
  7
CONVERTER_2
 11
0.0
 21
1.0
 31
0.0
  0
ENDBLK
  5
42C
100
AcDbEntity
  8
0
100
AcDbBlockEnd
  0
BLOCK
  5
432
100
AcDbEntity
  8
0
100
AcDbBlockBegin
  2
*D71
 70
           1
 10
0.0
 20
0.0
 30
0.0
  3
*D71
  1

  0
LINE
  5
433
100
AcDbEntity
  8
0
  6
CONTINUOUS
 62
           3
100
AcDbLine
 10
6.665566572479
 20
-500.557337379132
 11
6.665566572479
 21
-455.557337379132
  0
LINE
  5
434
100
AcDbEntity
  8
0
  6
CONTINUOUS
 62
           3
100
AcDbLine
 10
-252.033476697796
 20
-455.557337379132
 11
14.665566572479
 21
-455.557337379132
  0
LINE
  5
435
100
AcDbEntity
  8
0
  6
CONTINUOUS
 62
           3
100
AcDbLine
 10
-252.033476697796
 20
-500.557337379132
 11
14.665566572479
 21
-500.557337379132
  0
LINE
  5
436
100
AcDbEntity
  8
0
 62
           3
100
AcDbLine
 10
6.665566572479
 20
-500.557337379132
 11
5.08573660143
 21
-488.557337379132
  0
LINE
  5
437
100
AcDbEntity
  8
0
 62
           3
100
AcDbLine
 10
6.665566572479
 20
-500.557337379132
 11
8.245396543528
 21
-488.557337379132
  0
LINE
  5
438
100
AcDbEntity
  8
0
 62
           3
100
AcDbLine
 10
5.08573660143
 20
-488.557337379132
 11
8.245396543528
 21
-488.557337379132
  0
LINE
  5
439
100
AcDbEntity
  8
0
 62
           3
100
AcDbLine
 10
6.665566572479
 20
-455.557337379132
 11
8.245396543528
 21
-467.557337379132
  0
LINE
  5
43A
100
AcDbEntity
  8
0
 62
           3
100
AcDbLine
 10
6.665566572479
 20
-455.557337379132
 11
5.08573660143
 21
-467.557337379132
  0
LINE
  5
43B
100
AcDbEntity
  8
0
 62
           3
100
AcDbLine
 10
8.245396543528
 20
-467.557337379132
 11
5.08573660143
 21
-467.557337379132
  0
MTEXT
  5
43C
100
AcDbEntity
  8
0
 62
           2
100
AcDbMText
 10
-1.334433427521
 20
-486.493599342379
 30
0.0
 40
12.0
 41
0.0
 71
           7
 72
           1
  1
45
  7
CONVERTER_2
 11
0.0
 21
1.0
 31
0.0
  0
ENDBLK
  5
43D
100
AcDbEntity
  8
0
100
AcDbBlockEnd
  0
ENDSEC
  0
SECTION
  2
ENTITIES
  0
DIMENSION
  5
441
100
AcDbEntity
  8
0
100
AcDbDimension
  2
*D71
 10
6.665566572479
 20
-500.557337379132
 11
-7.334433427521
 21
-477.493599342379
 31
0.0
 53
90.0
  1
<>
  3
ME10_DIM_23
100
AcDbAlignedDimension
 13
-252.033476697796
 23
-455.557337379132
 14
-252.033476697796
 24
-500.557337379132
 50
90.0
100
AcDbRotatedDimension
  0
DIMENSION
  5
430
100
AcDbEntity
  8
0
100
AcDbDimension
  2
*D68
 10
-32.888423425347
 20
-385.557337379132
 11
-46.888423425347
 21
-410.922718767811
 31
0.0
 53
90.0
  1
<>
  3
ME10_DIM_22
100
AcDbAlignedDimension
 13
-148.033476697796
 23
-370.557337379132
 14
-170.533476697796
 24
-385.557337379132
 50
90.0
100
AcDbRotatedDimension
  0
DIMENSION
  5
41D
100
AcDbEntity
  8
0
100
AcDbDimension
  2
*D65
 10
48.230776400702
 20
-265.557337379132
 11
34.230776400702
 21
-377.175019022601
 31
0.0
 53
90.0
  1
<>
  3
ME10_DIM_21
100
AcDbAlignedDimension
 13
-252.033476697796
 23
-500.557337379132
 14
-129.533476697796
 24
-265.557337379132
 50
90.0
100
AcDbRotatedDimension
  0
DIMENSION
  5
40B
100
AcDbEntity
  8
0
100
AcDbDimension
  2
*D62
 10
6.665566572479
 20
-265.557337379132
 11
-7.334433427521
 21
-342.541244534282
 31
0.0
 53
90.0
  1
<>
  3
ME10_DIM_20
100
AcDbAlignedDimension
 13
-213.033476697796
 23
-453.557337379132
 14
-129.533476697796
 24
-265.557337379132
 50
90.0
100
AcDbRotatedDimension
  0
DIMENSION
  5
3F9
100
AcDbEntity
  8
0
100
AcDbDimension
  2
*D59
 10
-32.888423425347
 20
-370.557337379132
 11
-46.888423425347
 21
-264.103671148763
 31
0.0
 53
90.0
  1
<>
  3
ME10_DIM_19
100
AcDbAlignedDimension
 13
-148.033476697796
 23
-160.557337379132
 14
-148.033476697796
 24
-370.557337379132
 50
90.0
100
AcDbRotatedDimension
  0
DIMENSION
  5
3E8
100
AcDbEntity
  8
0
100
AcDbDimension
  2
*D56
 10
-61.71590766105
 20
-345.557337379132
 11
-75.71590766105
 21
-263.433264538631
 31
0.0
 53
90.0
  1
<>
  3
ME10_DIM_18
100
AcDbAlignedDimension
 13
-179.233476697796
 23
-185.557337379132
 14
-179.233476697796
 24
-345.557337379132
 50
90.0
100
AcDbRotatedDimension
  0
DIMENSION
  5
3D7
100
AcDbEntity
  8
0
100
AcDbDimension
  2
*D53
 10
-170.533476697796
 20
-577.428627584516
 11
-269.677759014786
 21
-560.428627584516
 31
0.0
  1
<>
  3
ME10_DIM_17
100
AcDbAlignedDimension
 13
-365.533476697796
 23
-385.557337379132
 14
-170.533476697796
 24
-385.557337379132
100
AcDbRotatedDimension
  0
DIMENSION
  5
3C6
100
AcDbEntity
  8
0
100
AcDbDimension
  2
*D50
 10
-252.033476697796
 20
-533.579252796948
 11
-218.149915053961
 21
-516.579252796948
 31
0.0
  1
<>
  3
ME10_DIM_16
100
AcDbAlignedDimension
 13
-284.033476697796
 23
-500.557337379132
 14
-252.033476697796
 24
-500.557337379132
100
AcDbRotatedDimension
  0
DIMENSION
  5
3B3
100
AcDbEntity
  8
0
100
AcDbDimension
  2
*D47
 10
-213.033476697796
 20
-435.784732249003
 11
-245.867388417736
 21
-421.784732249003
 31
0.0
  1
<>
  3
ME10_DIM_15
100
AcDbAlignedDimension
 13
-323.033476697796
 23
-453.557337379132
 14
-213.033476697796
 24
-453.557337379132
100
AcDbRotatedDimension
  0
DIMENSION
  5
3A2
100
AcDbEntity
  8
0
100
AcDbDimension
  2
*D44
 10
-469.004753062224
 20
-363.057337379132
 11
-486.004753062224
 21
-261.422044708233
 31
0.0
 53
90.0
  1
<>
  3
ME10_DIM_14
100
AcDbAlignedDimension
 13
-401.033476697796
 23
-168.057337379132
 14
-401.033476697796
 24
-363.057337379132
 50
90.0
100
AcDbRotatedDimension
  0
DIMENSION
  5
391
100
AcDbEntity
  8
0
100
AcDbDimension
  2
*D41
 10
-268.033476697796
 20
-68.082753557983
 11
-333.083074436435
 21
-54.082753557983
 31
0.0
  1
<>
  3
ME10_DIM_13
100
AcDbAlignedDimension
 13
-401.033476697796
 23
-168.057337379132
 14
-268.033476697796
 24
-157.314593188007
100
AcDbRotatedDimension
  0
DIMENSION
  5
37F
100
AcDbEntity
  8
0
100
AcDbDimension
  2
*D38
 10
-388.033476697796
 20
-107.72075278424
 11
-426.397352455655
 21
-93.72075278424
 31
0.0
  1
<>
  3
ME10_DIM_12
100
AcDbAlignedDimension
 13
-401.033476697796
 23
-168.057337379132
 14
-388.033476697796
 24
-160.557337379132
100
AcDbRotatedDimension
  0
DIMENSION
  5
36C
100
AcDbEntity
  8
0
100
AcDbDimension
  2
*D35
 10
-388.033476697796
 20
-107.72075278424
 11
-264.775539554487
 21
-93.72075278424
 31
0.0
  1
<>
  3
ME10_DIM_11
100
AcDbAlignedDimension
 13
-148.033476697796
 23
-160.557337379132
 14
-388.033476697796
 24
-160.557337379132
100
AcDbRotatedDimension
  0
DIMENSION
  5
35B
100
AcDbEntity
  8
0
100
AcDbDimension
  2
*D32
 10
-348.033476697796
 20
-141.711319621187
 11
-269.774152324627
 21
-127.711319621187
 31
0.0
  1
<>
  3
ME10_DIM_10
100
AcDbAlignedDimension
 13
-188.033476697796
 23
-176.757337379132
 14
-348.033476697796
 24
-176.757337379132
100
AcDbRotatedDimension
  0
DIMENSION
  5
34A
100
AcDbEntity
  8
0
100
AcDbDimension
  2
*D29
 10
426.45599927524
 20
291.299764380699
 11
511.053911864934
 21
305.299764380699
 31
0.0
  1
<>
  3
ME10_DIM_9
100
AcDbAlignedDimension
 13
586.45599927524
 23
257.1556026064
 14
426.45599927524
 24
257.1556026064
100
AcDbRotatedDimension
  0
DIMENSION
  5
339
100
AcDbEntity
  8
0
100
AcDbDimension
  2
*D26
 10
378.491615713596
 20
248.3556026064
 11
364.491615713596
 21
171.575041614881
 31
0.0
 53
90.0
  1
<>
  3
ME10_DIM_8
100
AcDbAlignedDimension
 13
417.65599927524
 23
88.3556026064
 14
417.65599927524
 24
248.3556026064
 50
90.0
100
AcDbRotatedDimension
  0
DIMENSION
  5
328
100
AcDbEntity
  8
0
100
AcDbDimension
  2
*D23
 10
-62.856133797166
 20
63.3556026064
 11
-76.856133797166
 21
168.558211869284
 31
0.0
 53
90.0
  1
<>
  3
ME10_DIM_7
100
AcDbAlignedDimension
 13
-148.033476697796
 23
273.3556026064
 14
-148.033476697796
 24
63.3556026064
 50
90.0
100
AcDbRotatedDimension
  0
DIMENSION
  5
317
100
AcDbEntity
  8
0
100
AcDbDimension
  2
*D20
 10
-96.70453562365
 20
248.3556026064
 11
-110.70453562365
 21
168.558211869284
 31
0.0
 53
90.0
  1
<>
  3
ME10_DIM_6
100
AcDbAlignedDimension
 13
-179.233476697796
 23
88.3556026064
 14
-179.233476697796
 24
248.3556026064
 50
90.0
100
AcDbRotatedDimension
  0
DIMENSION
  5
306
100
AcDbEntity
  8
0
100
AcDbDimension
  2
*D17
 10
-348.033476697796
 20
296.338511934515
 11
-271.383378850438
 21
310.338511934515
 31
0.0
  1
<>
  3
ME10_DIM_5
100
AcDbAlignedDimension
 13
-188.033476697796
 23
257.1556026064
 14
-348.033476697796
 24
257.1556026064
100
AcDbRotatedDimension
  0
DIMENSION
  5
2F5
100
AcDbEntity
  8
0
100
AcDbDimension
  2
*D14
 10
-133.033476697796
 20
-319.668880976987
 11
-180.299338841741
 21
-305.668880976987
 31
0.0
  1
<>
  3
ME10_DIM_4
100
AcDbAlignedDimension
 13
-218.033476697796
 23
-293.557337379132
 14
-133.033476697796
 24
-302.52143899427
100
AcDbRotatedDimension
  0
DIMENSION
  5
2E4
100
AcDbEntity
  8
0
100
AcDbDimension
  2
*D11
 10
-268.033476697796
 20
-35.416478280749
 11
-195.048284264659
 21
-21.416478280749
 31
0.0
  1
<>
  3
ME10_DIM_3
100
AcDbAlignedDimension
 13
-133.033476697796
 23
-228.593235763994
 14
-268.033476697796
 24
-157.314593188007
100
AcDbRotatedDimension
  0
DIMENSION
  5
2D1
100
AcDbEntity
  8
0
100
AcDbDimension
  2
*D8
 10
-268.033476697796
 20
-35.416478280749
 11
-336.504079002646
 21
-21.416478280749
 31
0.0
  1
<>
  3
ME10_DIM_2
100
AcDbAlignedDimension
 13
-403.033476697796
 23
-228.593235763994
 14
-268.033476697796
 24
-157.314593188007
100
AcDbRotatedDimension
  0
DIMENSION
  5
2BE
100
AcDbEntity
  8
0
100
AcDbDimension
  2
*D5
 10
-426.098730013735
 20
-288.057337379132
 11
-443.098730013735
 21
-211.141548948285
 31
0.0
 53
90.0
  1
<>
  3
ME10_DIM_1
100
AcDbAlignedDimension
 13
-403.033476697796
 23
-243.057337379132
 14
-403.033476697796
 24
-288.057337379132
 50
90.0
100
AcDbRotatedDimension
  0
DIMENSION
  5
2AC
100
AcDbEntity
  8
0
100
AcDbDimension
  2
*D2
 10
-94.917864608212
 20
-288.057337379132
 11
-111.917864608212
 21
-213.823175388815
 31
0.0
 53
90.0
  1
<>
  3
ME10_DIM_0
100
AcDbAlignedDimension
 13
-133.033476697796
 23
-243.057337379132
 14
-133.033476697796
 24
-288.057337379132
 50
90.0
100
AcDbRotatedDimension
  0
TEXT
  5
29A
100
AcDbEntity
  8
1
 62
           2
100
AcDbText
 10
-165.646891531551
 20
-84.68250981754
 40
12.0
  1
M16x24
 41
0.9
  7
CONVERTER_2
100
AcDbText
  0
TEXT
  5
299
100
AcDbEntity
  8
1
 62
           2
100
AcDbText
 10
-165.45215128593
 20
314.732051759349
 40
12.0
  1
M16x24
 41
0.9
  7
CONVERTER_2
100
AcDbText
  0
TEXT
  5
298
100
AcDbEntity
  8
1
 62
           2
100
AcDbText
 10
609.037324687106
 20
314.732051759349
 40
12.0
  1
M16x24
 41
0.9
  7
CONVERTER_2
100
AcDbText
  0
LINE
  5
297
100
AcDbEntity
  8
1
  6
CONTINUOUS
 62
           3
100
AcDbLine
 10
-166.884985740546
 20
-88.130364698745
 11
-105.064548387575
 21
-88.130364698745
  0
LINE
  5
296
100
AcDbEntity
  8
1
  6
CONTINUOUS
 62
           3
100
AcDbLine
 10
-166.884985740546
 20
-88.130364698745
 11
-188.033476697796
 21
-185.557337379132
  0
LINE
  5
295
100
AcDbEntity
  8
1
  6
CONTINUOUS
 62
           3
100
AcDbLine
 10
-166.690245494925
 20
311.284196878145
 11
-188.033476697796
 21
248.3556026064
  0
LINE
  5
294
100
AcDbEntity
  8
1
  6
CONTINUOUS
 62
           3
100
AcDbLine
 10
-166.690245494925
 20
311.284196878145
 11
-104.869808141954
 21
311.284196878145
  0
LINE
  5
293
100
AcDbEntity
  8
1
  6
CONTINUOUS
 62
           3
100
AcDbLine
 10
607.799230478111
 20
311.284196878145
 11
669.619667831082
 21
311.284196878145
  0
LINE
  5
292
100
AcDbEntity
  8
1
  6
CONTINUOUS
 62
           3
100
AcDbLine
 10
607.799230478111
 20
311.284196878145
 11
586.45599927524
 21
248.3556026064
  0
INSERT
  5
2C
100
AcDbEntity
  8
0
100
AcDbBlockReference
  2
DINA3_INTERNETRAHMEN
 10
902.363761832318
 20
-765.236178215517
 41
4.0
 42
4.0
  0
INSERT
  5
2D
100
AcDbEntity
  8
0
100
AcDbBlockReference
  2
GETRIEBE
 10
0.954534850379
 20
-98.723115774382
  0
ENDSEC
  0
SECTION
  2
OBJECTS
  0
DICTIONARY
  5
19
100
AcDbDictionary
  3
ACAD_GROUP
350
1A
  3
ACAD_MLINESTYLE
350
1B
  0
DICTIONARY
  5
1A
102
{ACAD_REACTORS
330
19
102
}
100
AcDbDictionary
  0
DICTIONARY
  5
1B
102
{ACAD_REACTORS
330
19
102
}
100
AcDbDictionary
  3
STANDARD
350
1C
  0
MLINESTYLE
  5
1C
102
{ACAD_REACTORS
330
1B
102
}
100
AcDbMlineStyle
  2
STANDARD
 70
           0
  3

 62
           0
 51
90.0
 52
90.0
 71
           2
 49
0.5
 62
         256
  6
BYLAYER
 49
-0.5
 62
         256
  6
BYLAYER
  0
ENDSEC
  0
EOF
