  0
SECTION
  2
HEADER
  9
$ACADVER
  1
AC1014
  9
$ACADMAINTVER
 70
           0
  9
$DWGCODEPAGE
  3
ANSI_1252
  9
$INSBASE
 10
0.0
 20
0.0
 30
0.0
  9
$EXTMIN
 10
1.000000000000E+20
 20
1.000000000000E+20
 30
1.000000000000E+20
  9
$EXTMAX
 10
-1.000000000000E+20
 20
-1.000000000000E+20
 30
-1.000000000000E+20
  9
$LIMMIN
 10
0.0
 20
0.0
  9
$LIMMAX
 10
0.0
 20
0.0
  9
$ORTHOMODE
 70
           0
  9
$REGENMODE
 70
           1
  9
$FILLMODE
 70
           1
  9
$QTEXTMODE
 70
           0
  9
$MIRRTEXT
 70
           1
  9
$DRAGMODE
 70
           2
  9
$LTSCALE
 40
1.0
  9
$OSMODE
 70
           0
  9
$ATTMODE
 70
           1
  9
$TEXTSIZE
 40
0.2
  9
$TRACEWID
 40
0.05
  9
$TEXTSTYLE
  7
STANDARD
  9
$CLAYER
  8
0
  9
$CELTYPE
  6
CONTINUOUS
  9
$CECOLOR
 62
         256
  9
$CELTSCALE
 40
1.0
  9
$DELOBJ
 70
           1
  9
$DISPSILH
 70
           0
  9
$DIMSCALE
 40
1.0
  9
$DIMASZ
 40
0.18
  9
$DIMEXO
 40
0.0625
  9
$DIMDLI
 40
0.38
  9
$DIMRND
 40
0.0
  9
$DIMDLE
 40
0.0
  9
$DIMEXE
 40
0.18
  9
$DIMTP
 40
0.0
  9
$DIMTM
 40
0.0
  9
$DIMTXT
 40
0.18
  9
$DIMCEN
 40
0.09
  9
$DIMTSZ
 40
0.0
  9
$DIMTOL
 70
           0
  9
$DIMLIM
 70
           0
  9
$DIMTIH
 70
           1
  9
$DIMTOH
 70
           1
  9
$DIMSE1
 70
           0
  9
$DIMSE2
 70
           0
  9
$DIMTAD
 70
           0
  9
$DIMZIN
 70
           0
  9
$DIMBLK
  1

  9
$DIMASO
 70
           1
  9
$DIMSHO
 70
           1
  9
$DIMPOST
  1

  9
$DIMAPOST
  1

  9
$DIMALT
 70
           0
  9
$DIMALTD
 70
           2
  9
$DIMALTF
 40
25.4
  9
$DIMLFAC
 40
1.0
  9
$DIMTOFL
 70
           0
  9
$DIMTVP
 40
0.0
  9
$DIMTIX
 70
           0
  9
$DIMSOXD
 70
           0
  9
$DIMSAH
 70
           0
  9
$DIMBLK1
  1

  9
$DIMBLK2
  1

  9
$DIMSTYLE
  2
STANDARD
  9
$DIMCLRD
 70
           0
  9
$DIMCLRE
 70
           0
  9
$DIMCLRT
 70
           0
  9
$DIMTFAC
 40
1.0
  9
$DIMGAP
 40
0.09
  9
$DIMJUST
 70
           0
  9
$DIMSD1
 70
           0
  9
$DIMSD2
 70
           0
  9
$DIMTOLJ
 70
           1
  9
$DIMTZIN
 70
           0
  9
$DIMALTZ
 70
           0
  9
$DIMALTTZ
 70
           0
  9
$DIMFIT
 70
           3
  9
$DIMUPT
 70
           0
  9
$DIMUNIT
 70
           2
  9
$DIMDEC
 70
           4
  9
$DIMTDEC
 70
           4
  9
$DIMALTU
 70
           2
  9
$DIMALTTD
 70
           2
  9
$DIMTXSTY
  7
STANDARD
  9
$DIMAUNIT
 70
           0
  9
$LUNITS
 70
           2
  9
$LUPREC
 70
           4
  9
$SKETCHINC
 40
0.1
  9
$FILLETRAD
 40
0.0
  9
$AUNITS
 70
           0
  9
$AUPREC
 70
           0
  9
$MENU
  1
acad
  9
$ELEVATION
 40
0.0
  9
$PELEVATION
 40
0.0
  9
$THICKNESS
 40
0.0
  9
$LIMCHECK
 70
           0
  9
$BLIPMODE
 70
           1
  9
$CHAMFERA
 40
0.0
  9
$CHAMFERB
 40
0.0
  9
$CHAMFERC
 40
0.0
  9
$CHAMFERD
 40
0.0
  9
$SKPOLY
 70
           0
  9
$TDCREATE
 40
0.000000000
  9
$TDUPDATE
 40
0.000000000
  9
$TDINDWG
 40
0.0000000000
  9
$TDUSRTIMER
 40
0.0000000000
  9
$USRTIMER
 70
           1
  9
$ANGBASE
 50
0.0
  9
$ANGDIR
 70
           0
  9
$PDMODE
 70
           0
  9
$PDSIZE
 40
0.0
  9
$PLINEWID
 40
0.0
  9
$COORDS
 70
           0
  9
$SPLFRAME
 70
           0
  9
$SPLINETYPE
 70
           6
  9
$SPLINESEGS
 70
           8
  9
$ATTDIA
 70
           0
  9
$ATTREQ
 70
           1
  9
$HANDLING
 70
           1
  9
$HANDSEED
  5
450
  9
$SURFTAB1
 70
           6
  9
$SURFTAB2
 70
           6
  9
$SURFTYPE
 70
           6
  9
$SURFU
 70
           6
  9
$SURFV
 70
           6
  9
$UCSNAME
  2

  9
$UCSORG
 10
0.0
 20
0.0
 30
0.0
  9
$UCSXDIR
 10
1.0
 20
0.0
 30
0.0
  9
$UCSYDIR
 10
0.0
 20
1.0
 30
0.0
  9
$PUCSNAME
  2

  9
$PUCSORG
 10
0.0
 20
0.0
 30
0.0
  9
$PUCSXDIR
 10
1.0
 20
0.0
 30
0.0
  9
$PUCSYDIR
 10
0.0
 20
1.0
 30
0.0
  9
$USERI1
 70
           0
  9
$USERI2
 70
           0
  9
$USERI3
 70
           0
  9
$USERI4
 70
           0
  9
$USERI5
 70
           0
  9
$USERR1
 40
0.0
  9
$USERR2
 40
0.0
  9
$USERR3
 40
0.0
  9
$USERR4
 40
0.0
  9
$USERR5
 40
0.0
  9
$WORLDVIEW
 70
           1
  9
$SHADEDGE
 70
           3
  9
$SHADEDIF
 70
          70
  9
$TILEMODE
 70
           1
  9
$MAXACTVP
 70
          16
  9
$PINSBASE
 10
0.0
 20
0.0
 30
0.0
  9
$PLIMCHECK
 70
           0
  9
$PEXTMIN
 10
1.000000000000E+20
 20
1.000000000000E+20
 30
1.000000000000E+20
  9
$PEXTMAX
 10
-1.000000000000E+20
 20
-1.000000000000E+20
 30
-1.000000000000E+20
  9
$PLIMMIN
 10
0.0
 20
0.0
  9
$PLIMMAX
 10
12.0
 20
9.0
  9
$UNITMODE
 70
           0
  9
$VISRETAIN
 70
           0
  9
$PLINEGEN
 70
           1
  9
$PSLTSCALE
 70
           0
  9
$TREEDEPTH
 70
        3020
  9
$PICKSTYLE
 70
           1
  9
$CMLSTYLE
  2
STANDARD
  9
$CMLJUST
 70
           0
  9
$CMLSCALE
 40
1.0
  9
$PROXYGRAPHICS
 70
           0
  9
$MEASUREMENT
 70
           1
  0
ENDSEC
  0
SECTION
  2
CLASSES
  0
CLASS
  1
LWPOLYLINE
  2
AcDbPolyline
  3
"AutoCAD"
 90
        0
280
           0
281
           1
  0
CLASS
  1
IMAGE
  2
AcDbRasterImage
  3
ISM
 90
      127
280
           0
281
           1
  0
CLASS
  1
OLE2FRAME
  2
AcDbOle2Frame
  3
""
 90
        0
280
           0
281
           1
  0
CLASS
  1
HATCH
  2
AcDbHatch
  3
"ACAD_SEDONA"
 90
        0
280
           0
281
           1
  0
CLASS
  1
DICTIONARYVAR
  2
AcDbDictionaryVar
  3
"AutoCAD"
 90
        0
280
           0
281
           0
  0
CLASS
  1
RASTERVARIABLES
  2
AcDbRasterVariables
  3
ISM
 90
        0
280
           0
281
           0
  0
CLASS
  1
IMAGEDEF
  2
AcDbRasterImageDef
  3
ISM
 90
        0
280
           0
281
           0
  0
CLASS
  1
IMAGEDEF_REACTOR
  2
AcDbRasterImageDefReactor
  3
ISM
 90
        1
280
           0
281
           0
  0
CLASS
  1
IDBUFFER
  2
AcDbIdBuffer
  3
"Acad"
 90
        0
280
           0
281
           0
  0
CLASS
  1
SPATIAL_FILTER
  2
AcDbSpatialFilter
  3
"Acad"
 90
        0
280
           0
281
           0
  0
CLASS
  1
XRECORD
  2
AcDbXrecord
  3
"<Built In>"
 90
        0
280
           0
281
           0
  0
CLASS
  1
SORTENTSTABLE
  2
AcDbSortentsTable
  3
"AutoCAD"
 90
        0
280
           0
281
           0
  0
CLASS
  1
LAYER_INDEX
  2
AcDbLayerIndex
  3
"Acad"
 90
        0
280
           0
281
           0
  0
CLASS
  1
SPATIAL_INDEX
  2
AcDbSpatialIndex
  3
"Acad"
 90
        0
280
           0
281
           0
  0
CLASS
  1
OBJECT_PTR
  2
CAseDLPNTableRecord
  3
"ASE-LPNTableRecord"
 90
        1
280
           0
281
           0
  0
CLASS
  1
LAYOUT
  2
AcDbLayout
  3
"AutoCAD 2000"
 90
        1
280
           0
281
           0
  0
CLASS
  1
PLOTSETTINGS
  2
AcDbPlotSettings
  3
"AutoCAD 2000"
 90
        1
280
           0
281
           0
  0
CLASS
  1
ACDBDICTIONARYWDFLT
  2
AcDbDictionaryWithDefault
  3
"AutoCAD 2000"
 90
        1
280
           0
281
           0
  0
CLASS
  1
ACDBPLACEHOLDER
  2
AcDbPlaceHolder
  3
"AutoCAD 2000"
 90
        1
280
           0
281
           0
  0
CLASS
  1
VBA_PROJECT
  2
AcDbVbaProject
  3
"acadvba"
 90
        1
280
           0
281
           0
  0
CLASS
  1
WIPEOUT
  2
AcDbWipeout
  3
WipeOut|AutoCAD Express Tool|expresstools@autodesk.com
 90
      127
280
           0
281
           1
  0
CLASS
  1
WIPEOUTVARIABLES
  2
AcDbWipeoutVariables
  3
WipeOut|AutoCAD Express Tool|expresstools@autodesk.com
 90
        0
280
           0
281
           0
  0
CLASS
  1
RTEXT
  2
RText
  3
RText|AutoCAD Express Tool|expresstools@autodesk.com
 90
        0
280
           0
281
           1
  0
CLASS
  1
ARCALIGNEDTEXT
  2
AcDbArcAlignedText
  3
ATEXT|AutoCAD Express Tool|expresstools@autodesk.com
 90
        0
280
           0
281
           1
  0
ENDSEC
  0
SECTION
  2
TABLES
  0
TABLE
  2
VPORT
  5
7
100
AcDbSymbolTable
 70
           1
  0
VPORT
  5
15
100
AcDbSymbolTableRecord
100
AcDbViewportTableRecord
  2
*ACTIVE
 70
           0
 10
0.0
 20
0.0
 11
1.0
 21
1.0
 12
6.591288
 22
4.579184
 13
0.0
 23
0.0
 14
1.0
 24
1.0
 15
0.0
 25
0.0
 16
0.0
 26
0.0
 36
1.0
 17
0.0
 27
0.0
 37
0.0
 40
9.158369
 41
0.688564
 42
50.0
 43
0.0
 44
0.0
 50
0.0
 51
0.0
 71
           0
 72
         100
 73
           1
 74
           1
 75
           0
 76
           0
 77
           0
 78
           0
  0
ENDTAB
  0
TABLE
  2
LTYPE
  5
4
100
AcDbSymbolTable
 70
          10
  0
LTYPE
  5
11
100
AcDbSymbolTableRecord
100
AcDbLinetypeTableRecord
  2
BYBLOCK
 70
          64
  3

 72
          65
 73
           0
 40
0.0
  0
LTYPE
  5
12
100
AcDbSymbolTableRecord
100
AcDbLinetypeTableRecord
  2
BYLAYER
 70
          64
  3

 72
          65
 73
           0
 40
0.0
  0
LTYPE
  5
13
100
AcDbSymbolTableRecord
100
AcDbLinetypeTableRecord
  2
CONTINUOUS
 70
          64
  3
Solid line
 72
          65
 73
           0
 40
0.0
  0
LTYPE
  5
1D
100
AcDbSymbolTableRecord
100
AcDbLinetypeTableRecord
  2
DASHED
 70
          64
  3
Dashed
 72
          65
 73
           2
 40
15.0
 49
12.0
 74
           0
 49
-3.0
 74
           0
  0
LTYPE
  5
1E
100
AcDbSymbolTableRecord
100
AcDbLinetypeTableRecord
  2
DOTTED
 70
          64
  3
Dotted
 72
          65
 73
           2
 40
3.5
 49
0.5
 74
           0
 49
-3.0
 74
           0
  0
LTYPE
  5
1F
100
AcDbSymbolTableRecord
100
AcDbLinetypeTableRecord
  2
DOT_CENTER
 70
          64
  3
Dot_Center
 72
          65
 73
           4
 40
2.0
 49
1.25
 74
           0
 49
-0.25
 74
           0
 49
0.25
 74
           0
 49
-0.25
 74
           0
  0
LTYPE
  5
20
100
AcDbSymbolTableRecord
100
AcDbLinetypeTableRecord
  2
LONG_DASHED
 70
          64
  3
Long_Dashed
 72
          65
 73
           2
 40
2.0
 49
1.5
 74
           0
 49
-0.5
 74
           0
  0
LTYPE
  5
21
100
AcDbSymbolTableRecord
100
AcDbLinetypeTableRecord
  2
DASH_CENTER
 70
          64
  3
Dash_Center
 72
          65
 73
           4
 40
36.0
 49
24.0
 74
           0
 49
-3.0
 74
           0
 49
6.0
 74
           0
 49
-3.0
 74
           0
  0
LTYPE
  5
22
100
AcDbSymbolTableRecord
100
AcDbLinetypeTableRecord
  2
PHANTOM
 70
          64
  3
Phantom
 72
          65
 73
           6
 40
2.5
 49
1.25
 74
           0
 49
-0.25
 74
           0
 49
0.25
 74
           0
 49
-0.25
 74
           0
 49
0.25
 74
           0
 49
-0.25
 74
           0
  0
LTYPE
  5
23
100
AcDbSymbolTableRecord
100
AcDbLinetypeTableRecord
  2
CENTER_DASH_DASH
 70
          64
  3
Center_Dash_Dash
 72
          65
 73
           6
 40
22.0
 49
12.0
 74
           0
 49
-3.0
 74
           0
 49
0.5
 74
           0
 49
-3.0
 74
           0
 49
0.5
 74
           0
 49
-3.0
 74
           0
  0
ENDTAB
  0
TABLE
  2
LAYER
  5
2
100
AcDbSymbolTable
 70
           3
  0
LAYER
  5
14
100
AcDbSymbolTableRecord
100
AcDbLayerTableRecord
  2
0
 70
           0
 62
           7
  6
CONTINUOUS
  0
LAYER
  5
24
100
AcDbSymbolTableRecord
100
AcDbLayerTableRecord
  2
KONTUR
 70
           0
 62
           7
  6
CONTINUOUS
  0
LAYER
  5
25
100
AcDbSymbolTableRecord
100
AcDbLayerTableRecord
  2
1
 70
           0
 62
           7
  6
CONTINUOUS
  0
ENDTAB
  0
TABLE
  2
STYLE
  5
3
100
AcDbSymbolTable
 70
           5
  0
STYLE
  5
17
100
AcDbSymbolTableRecord
100
AcDbTextStyleTableRecord
  2
STANDARD
 70
           0
 40
0.0
 41
1.0
 50
0.0
 71
           0
 42
0.0
  3
txt
  4

  0
STYLE
  5
16C
100
AcDbSymbolTableRecord
100
AcDbTextStyleTableRecord
  2
CONVERTER_1
 70
           0
 40
0.0
 41
0.855
 50
0.0
 71
           0
 42
0.0
  3
txt.shx
  4

  0
STYLE
  5
16E
100
AcDbSymbolTableRecord
100
AcDbTextStyleTableRecord
  2
CONVERTER_2
 70
           0
 40
0.0
 41
0.9
 50
0.0
 71
           0
 42
0.0
  3
txt.shx
  4

  0
STYLE
  5
173
100
AcDbSymbolTableRecord
100
AcDbTextStyleTableRecord
  2
CONVERTER_3
 70
           0
 40
0.0
 41
0.765
 50
15.0
 71
           0
 42
0.0
  3
txt.shx
  4

  0
STYLE
  5
188
100
AcDbSymbolTableRecord
100
AcDbTextStyleTableRecord
  2
CONVERTER_4
 70
           0
 40
0.0
 41
0.792
 50
0.0
 71
           0
 42
0.0
  3
txt.shx
  4

  0
ENDTAB
  0
TABLE
  2
VIEW
  5
5
100
AcDbSymbolTable
 70
           0
  0
ENDTAB
  0
TABLE
  2
UCS
  5
6
100
AcDbSymbolTable
 70
           0
  0
ENDTAB
  0
TABLE
  2
APPID
  5
8
100
AcDbSymbolTable
 70
           1
  0
APPID
  5
16
100
AcDbSymbolTableRecord
100
AcDbRegAppTableRecord
  2
ACAD
 70
           0
  0
ENDTAB
  0
TABLE
  2
DIMSTYLE
  5
9
100
AcDbSymbolTable
 70
          25
  0
DIMSTYLE
105
18
100
AcDbSymbolTableRecord
100
AcDbDimStyleTableRecord
  2
STANDARD
 70
           0
  3

  4

  5

  6

  7

 40
1.0
 41
0.18
 42
0.0625
 43
0.38
 44
0.18
 45
0.0
 46
0.0
 47
0.0
 48
0.0
 71
           0
 72
           0
 73
           1
 74
           1
 75
           0
 76
           0
 77
           0
 78
           0
140
0.18
141
0.09
142
0.0
143
25.4
144
1.0
145
0.0
146
1.0
147
0.09
170
           0
171
           2
172
           0
173
           0
174
           0
175
           0
176
           0
177
           0
178
           0
270
           2
271
           4
272
           4
273
           2
274
           2
275
           0
280
           0
281
           0
282
           0
283
           1
284
           0
285
           0
286
           0
287
           0
288
           0
340
17
  0
DIMSTYLE
105
2BA
100
AcDbSymbolTableRecord
100
AcDbDimStyleTableRecord
  2
ME10_DIM_0
 70
           0
  3

  4

  5

  6
_CLOSED
  7
_CLOSED
 40
1.0
 41
6.0
 42
0.0
 43
0.38
 44
4.0
 45
0.0
 46
0.0
 47
0.0
 48
0.0
 71
           0
 72
           0
 73
           0
 74
           0
 75
           0
 76
           0
 77
           1
 78
           8
140
6.0
141
0.09
142
0.0
143
25.4
144
1.0
145
0.0
146
1.0
147
0.625
170
           0
171
           2
172
           0
173
           1
174
           0
175
           0
176
           3
177
           3
178
           2
270
           2
271
           2
272
           4
273
           2
274
           2
275
           0
280
           0
281
           0
282
           0
283
           1
284
           0
285
           0
286
           0
287
           3
288
           0
340
17
  0
DIMSTYLE
105
2CB
100
AcDbSymbolTableRecord
100
AcDbDimStyleTableRecord
  2
ME10_DIM_1
 70
           0
  3

  4

  5

  6
_CLOSED
  7
_CLOSED
 40
1.0
 41
6.0
 42
0.0
 43
0.38
 44
4.0
 45
0.0
 46
0.0
 47
0.0
 48
0.0
 71
           0
 72
           0
 73
           0
 74
           0
 75
           0
 76
           0
 77
           1
 78
           8
140
6.0
141
0.09
142
0.0
143
25.4
144
1.0
145
0.0
146
1.0
147
0.625
170
           0
171
           2
172
           0
173
           1
174
           0
175
           0
176
           3
177
           3
178
           2
270
           2
271
           2
272
           4
273
           2
274
           2
275
           0
280
           0
281
           0
282
           0
283
           1
284
           0
285
           0
286
           0
287
           3
288
           0
340
17
  0
DIMSTYLE
105
2DC
100
AcDbSymbolTableRecord
100
AcDbDimStyleTableRecord
  2
ME10_DIM_2
 70
           0
  3

  4

  5

  6
_CLOSED
  7
_CLOSED
 40
1.0
 41
6.0
 42
0.0
 43
0.38
 44
4.0
 45
0.0
 46
0.0
 47
0.0
 48
0.0
 71
           0
 72
           0
 73
           0
 74
           0
 75
           0
 76
           0
 77
           1
 78
           8
140
6.0
141
0.09
142
0.0
143
25.4
144
1.0
145
0.0
146
1.0
147
0.625
170
           0
171
           2
172
           0
173
           1
174
           0
175
           0
176
           3
177
           3
178
           2
270
           2
271
           2
272
           4
273
           2
274
           2
275
           0
280
           0
281
           0
282
           0
283
           1
284
           0
285
           0
286
           0
287
           3
288
           0
340
17
  0
DIMSTYLE
105
2ED
100
AcDbSymbolTableRecord
100
AcDbDimStyleTableRecord
  2
ME10_DIM_3
 70
           0
  3

  4

  5

  6
_CLOSED
  7
_CLOSED
 40
1.0
 41
6.0
 42
0.0
 43
0.38
 44
4.0
 45
0.0
 46
0.0
 47
0.0
 48
0.0
 71
           0
 72
           0
 73
           0
 74
           0
 75
           0
 76
           0
 77
           1
 78
           8
140
6.0
141
0.09
142
0.0
143
25.4
144
1.0
145
0.0
146
1.0
147
0.625
170
           0
171
           2
172
           0
173
           1
174
           0
175
           0
176
           3
177
           3
178
           2
270
           2
271
           2
272
           4
273
           2
274
           2
275
           0
280
           0
281
           0
282
           0
283
           1
284
           0
285
           0
286
           0
287
           3
288
           0
340
17
  0
DIMSTYLE
105
2FE
100
AcDbSymbolTableRecord
100
AcDbDimStyleTableRecord
  2
ME10_DIM_4
 70
           0
  3

  4

  5

  6
_CLOSED
  7
_CLOSED
 40
1.0
 41
6.0
 42
0.0
 43
0.38
 44
4.0
 45
0.0
 46
0.0
 47
0.0
 48
0.0
 71
           0
 72
           0
 73
           0
 74
           0
 75
           0
 76
           0
 77
           1
 78
           8
140
6.0
141
0.09
142
0.0
143
25.4
144
1.0
145
0.0
146
1.0
147
0.625
170
           0
171
           2
172
           0
173
           1
174
           0
175
           0
176
           3
177
           3
178
           2
270
           2
271
           2
272
           4
273
           2
274
           2
275
           0
280
           0
281
           0
282
           0
283
           1
284
           0
285
           0
286
           0
287
           3
288
           0
340
17
  0
DIMSTYLE
105
30F
100
AcDbSymbolTableRecord
100
AcDbDimStyleTableRecord
  2
ME10_DIM_5
 70
           0
  3

  4

  5

  6
_CLOSED
  7
_CLOSED
 40
1.0
 41
6.0
 42
0.0
 43
0.38
 44
4.0
 45
0.0
 46
0.0
 47
0.0
 48
0.0
 71
           0
 72
           0
 73
           0
 74
           0
 75
           0
 76
           0
 77
           1
 78
           8
140
6.0
141
0.09
142
0.0
143
25.4
144
1.0
145
0.0
146
1.0
147
0.625
170
           0
171
           2
172
           0
173
           1
174
           0
175
           0
176
           3
177
           3
178
           2
270
           2
271
           2
272
           4
273
           2
274
           2
275
           0
280
           0
281
           0
282
           0
283
           1
284
           0
285
           0
286
           0
287
           3
288
           0
340
17
  0
DIMSTYLE
105
320
100
AcDbSymbolTableRecord
100
AcDbDimStyleTableRecord
  2
ME10_DIM_6
 70
           0
  3

  4

  5

  6
_CLOSED
  7
_CLOSED
 40
1.0
 41
6.0
 42
0.0
 43
0.38
 44
4.0
 45
0.0
 46
0.0
 47
0.0
 48
0.0
 71
           0
 72
           0
 73
           0
 74
           0
 75
           0
 76
           0
 77
           1
 78
           8
140
6.0
141
0.09
142
0.0
143
25.4
144
1.0
145
0.0
146
1.0
147
0.625
170
           0
171
           2
172
           0
173
           1
174
           0
175
           0
176
           3
177
           3
178
           2
270
           2
271
           2
272
           4
273
           2
274
           2
275
           0
280
           0
281
           0
282
           0
283
           1
284
           0
285
           0
286
           0
287
           3
288
           0
340
17
  0
DIMSTYLE
105
333
100
AcDbSymbolTableRecord
100
AcDbDimStyleTableRecord
  2
ME10_DIM_7
 70
           0
  3

  4

  5

  6
_CLOSED
  7
_CLOSED
 40
1.0
 41
6.0
 42
0.0
 43
0.38
 44
4.0
 45
0.0
 46
0.0
 47
0.0
 48
0.0
 71
           0
 72
           0
 73
           0
 74
           0
 75
           0
 76
           0
 77
           1
 78
           8
140
6.0
141
0.09
142
0.0
143
25.4
144
1.0
145
0.0
146
1.0
147
0.625
170
           0
171
           2
172
           0
173
           1
174
           0
175
           0
176
           3
177
           3
178
           2
270
           2
271
           2
272
           4
273
           2
274
           2
275
           0
280
           0
281
           0
282
           0
283
           1
284
           0
285
           0
286
           0
287
           3
288
           0
340
17
  0
DIMSTYLE
105
345
100
AcDbSymbolTableRecord
100
AcDbDimStyleTableRecord
  2
ME10_DIM_8
 70
           0
  3

  4

  5

  6
_CLOSED
  7
_CLOSED
 40
1.0
 41
6.0
 42
0.0
 43
0.38
 44
4.0
 45
0.0
 46
0.0
 47
0.0
 48
0.0
 71
           0
 72
           0
 73
           0
 74
           0
 75
           0
 76
           0
 77
           1
 78
           8
140
6.0
141
0.09
142
0.0
143
25.4
144
1.0
145
0.0
146
1.0
147
0.625
170
           0
171
           2
172
           0
173
           1
174
           0
175
           0
176
           3
177
           3
178
           2
270
           2
271
           2
272
           4
273
           2
274
           2
275
           0
280
           0
281
           0
282
           0
283
           1
284
           0
285
           0
286
           0
287
           3
288
           0
340
17
  0
DIMSTYLE
105
357
100
AcDbSymbolTableRecord
100
AcDbDimStyleTableRecord
  2
ME10_DIM_9
 70
           0
  3

  4

  5

  6
_CLOSED
  7
_CLOSED
 40
1.0
 41
6.0
 42
0.0
 43
0.38
 44
4.0
 45
0.0
 46
0.0
 47
0.0
 48
0.0
 71
           0
 72
           0
 73
           0
 74
           0
 75
           0
 76
           0
 77
           1
 78
           8
140
6.0
141
0.09
142
0.0
143
25.4
144
1.0
145
0.0
146
1.0
147
0.625
170
           0
171
           2
172
           0
173
           1
174
           0
175
           0
176
           3
177
           3
178
           2
270
           2
271
           2
272
           4
273
           2
274
           2
275
           0
280
           0
281
           0
282
           0
283
           1
284
           0
285
           0
286
           0
287
           3
288
           0
340
17
  0
DIMSTYLE
105
369
100
AcDbSymbolTableRecord
100
AcDbDimStyleTableRecord
  2
ME10_DIM_10
 70
           0
  3

  4

  5

  6
_CLOSED
  7
_CLOSED
 40
1.0
 41
6.0
 42
0.0
 43
0.38
 44
4.0
 45
0.0
 46
0.0
 47
0.0
 48
0.0
 71
           0
 72
           0
 73
           0
 74
           0
 75
           0
 76
           0
 77
           1
 78
           8
140
6.0
141
0.09
142
0.0
143
25.4
144
1.0
145
0.0
146
1.0
147
0.625
170
           0
171
           2
172
           0
173
           1
174
           0
175
           0
176
           3
177
           3
178
           2
270
           2
271
           2
272
           4
273
           2
274
           2
275
           0
280
           0
281
           0
282
           0
283
           1
284
           0
285
           0
286
           0
287
           3
288
           0
340
17
  0
DIMSTYLE
105
37A
100
AcDbSymbolTableRecord
100
AcDbDimStyleTableRecord
  2
ME10_DIM_11
 70
           0
  3

  4

  5

  6
_CLOSED
  7
_CLOSED
 40
1.0
 41
6.0
 42
0.0
 43
0.38
 44
4.0
 45
0.0
 46
0.0
 47
0.0
 48
0.0
 71
           0
 72
           0
 73
           0
 74
           0
 75
           0
 76
           0
 77
           1
 78
           8
140
6.0
141
0.09
142
0.0
143
25.4
144
1.0
145
0.0
146
1.0
147
0.625
170
           0
171
           2
172
           0
173
           1
174
           0
175
           0
176
           3
177
           3
178
           2
270
           2
271
           2
272
           4
273
           2
274
           2
275
           0
280
           0
281
           0
282
           0
283
           1
284
           0
285
           0
286
           0
287
           3
288
           0
340
17
  0
DIMSTYLE
105
38B
100
AcDbSymbolTableRecord
100
AcDbDimStyleTableRecord
  2
ME10_DIM_12
 70
           0
  3

  4

  5

  6
_CLOSED
  7
_CLOSED
 40
1.0
 41
6.0
 42
0.0
 43
0.38
 44
4.0
 45
0.0
 46
0.0
 47
0.0
 48
0.0
 71
           0
 72
           0
 73
           0
 74
           0
 75
           0
 76
           0
 77
           1
 78
           8
140
6.0
141
0.09
142
0.0
143
25.4
144
1.0
145
0.0
146
1.0
147
0.625
170
           0
171
           2
172
           0
173
           1
174
           0
175
           0
176
           3
177
           3
178
           2
270
           2
271
           2
272
           4
273
           2
274
           2
275
           0
280
           0
281
           0
282
           0
283
           1
284
           0
285
           0
286
           0
287
           3
288
           0
340
17
  0
DIMSTYLE
105
39C
100
AcDbSymbolTableRecord
100
AcDbDimStyleTableRecord
  2
ME10_DIM_13
 70
           0
  3
Ø<>
  4

  5

  6
_CLOSED
  7
_CLOSED
 40
1.0
 41
6.0
 42
0.0
 43
0.38
 44
4.0
 45
0.0
 46
0.0
 47
0.0
 48
-8.0
 71
           1
 72
           0
 73
           0
 74
           0
 75
           0
 76
           0
 77
           1
 78
           8
140
6.0
141
0.09
142
0.0
143
25.4
144
1.0
145
0.0
146
0.6
147
0.625
170
           0
171
           2
172
           0
173
           1
174
           0
175
           0
176
           3
177
           3
178
           2
270
           2
271
           2
272
           0
273
           2
274
           2
275
           0
280
           0
281
           0
282
           0
283
           1
284
           0
285
           0
286
           0
287
           3
288
           0
340
17
  0
DIMSTYLE
105
3AE
100
AcDbSymbolTableRecord
100
AcDbDimStyleTableRecord
  2
ME10_DIM_14
 70
           0
  3
Ø<>
  4

  5

  6
_CLOSED
  7
_CLOSED
 40
1.0
 41
6.0
 42
0.0
 43
0.38
 44
4.0
 45
0.0
 46
0.0
 47
0.0
 48
-6.0
 71
           1
 72
           0
 73
           0
 74
           0
 75
           0
 76
           0
 77
           1
 78
           8
140
6.0
141
0.09
142
0.0
143
25.4
144
1.0
145
0.0
146
0.6
147
0.625
170
           0
171
           2
172
           0
173
           1
174
           0
175
           0
176
           3
177
           3
178
           2
270
           2
271
           2
272
           0
273
           2
274
           2
275
           0
280
           0
281
           0
282
           0
283
           1
284
           0
285
           0
286
           0
287
           3
288
           0
340
17
  0
DIMSTYLE
105
3BF
100
AcDbSymbolTableRecord
100
AcDbDimStyleTableRecord
  2
ME10_DIM_15
 70
           0
  3
Ø<>
  4

  5

  6
_CLOSED
  7
_CLOSED
 40
1.0
 41
6.0
 42
0.0
 43
0.38
 44
4.0
 45
0.0
 46
0.0
 47
0.0
 48
0.0
 71
           0
 72
           0
 73
           0
 74
           0
 75
           0
 76
           0
 77
           1
 78
           8
140
6.0
141
0.09
142
0.0
143
25.4
144
1.0
145
0.0
146
1.0
147
0.625
170
           0
171
           2
172
           0
173
           1
174
           0
175
           0
176
           3
177
           3
178
           2
270
           2
271
           2
272
           4
273
           2
274
           2
275
           0
280
           0
281
           0
282
           0
283
           1
284
           0
285
           0
286
           0
287
           3
288
           0
340
17
  0
DIMSTYLE
105
3D0
100
AcDbSymbolTableRecord
100
AcDbDimStyleTableRecord
  2
ME10_DIM_16
 70
           0
  3
Ø<>
  4

  5

  6
_CLOSED
  7
_CLOSED
 40
1.0
 41
6.0
 42
0.0
 43
0.38
 44
4.0
 45
0.0
 46
0.0
 47
0.0
 48
-8.0
 71
           1
 72
           0
 73
           0
 74
           0
 75
           0
 76
           0
 77
           1
 78
           8
140
6.0
141
0.09
142
0.0
143
25.4
144
1.0
145
0.0
146
0.6
147
0.625
170
           0
171
           2
172
           0
173
           1
174
           0
175
           0
176
           3
177
           3
178
           2
270
           2
271
           2
272
           0
273
           2
274
           2
275
           0
280
           0
281
           0
282
           0
283
           1
284
           0
285
           0
286
           0
287
           3
288
           0
340
17
  0
DIMSTYLE
105
3E3
100
AcDbSymbolTableRecord
100
AcDbDimStyleTableRecord
  2
ME10_DIM_17
 70
           0
  3
Ø<>
  4

  5

  6
_CLOSED
  7
_CLOSED
 40
1.0
 41
6.0
 42
0.0
 43
0.38
 44
4.0
 45
0.0
 46
0.0
 47
0.0
 48
-6.0
 71
           1
 72
           0
 73
           0
 74
           0
 75
           0
 76
           0
 77
           1
 78
           8
140
6.0
141
0.09
142
0.0
143
25.4
144
1.0
145
0.0
146
0.6
147
0.625
170
           0
171
           2
172
           0
173
           1
174
           0
175
           0
176
           3
177
           3
178
           2
270
           2
271
           2
272
           0
273
           2
274
           2
275
           0
280
           0
281
           0
282
           0
283
           1
284
           0
285
           0
286
           0
287
           3
288
           0
340
17
  0
DIMSTYLE
105
3F4
100
AcDbSymbolTableRecord
100
AcDbDimStyleTableRecord
  2
ME10_DIM_18
 70
           0
  3

  4

  5

  6
_CLOSED
  7
_CLOSED
 40
1.0
 41
6.0
 42
0.0
 43
0.38
 44
4.0
 45
0.0
 46
0.0
 47
0.0
 48
0.0
 71
           0
 72
           0
 73
           0
 74
           0
 75
           0
 76
           0
 77
           1
 78
           8
140
6.0
141
0.09
142
0.0
143
25.4
144
1.0
145
0.0
146
1.0
147
0.625
170
           0
171
           2
172
           0
173
           1
174
           0
175
           0
176
           3
177
           3
178
           2
270
           2
271
           2
272
           4
273
           2
274
           2
275
           0
280
           0
281
           0
282
           0
283
           1
284
           0
285
           0
286
           0
287
           3
288
           0
340
17
  0
DIMSTYLE
105
405
100
AcDbSymbolTableRecord
100
AcDbDimStyleTableRecord
  2
ME10_DIM_19
 70
           0
  3

  4

  5

  6
_CLOSED
  7
_CLOSED
 40
1.0
 41
6.0
 42
0.0
 43
0.38
 44
4.0
 45
0.0
 46
0.0
 47
0.0
 48
0.0
 71
           0
 72
           0
 73
           0
 74
           0
 75
           0
 76
           0
 77
           1
 78
           8
140
6.0
141
0.09
142
0.0
143
25.4
144
1.0
145
0.0
146
1.0
147
0.625
170
           0
171
           2
172
           0
173
           1
174
           0
175
           0
176
           3
177
           3
178
           2
270
           2
271
           2
272
           4
273
           2
274
           2
275
           0
280
           0
281
           0
282
           0
283
           1
284
           0
285
           0
286
           0
287
           3
288
           0
340
17
  0
DIMSTYLE
105
417
100
AcDbSymbolTableRecord
100
AcDbDimStyleTableRecord
  2
ME10_DIM_20
 70
           0
  3

  4

  5

  6
_CLOSED
  7
_CLOSED
 40
1.0
 41
6.0
 42
0.0
 43
0.38
 44
4.0
 45
0.0
 46
0.0
 47
0.0
 48
0.0
 71
           0
 72
           0
 73
           0
 74
           0
 75
           0
 76
           0
 77
           1
 78
           8
140
6.0
141
0.09
142
0.0
143
25.4
144
1.0
145
0.0
146
1.0
147
0.625
170
           0
171
           2
172
           0
173
           1
174
           0
175
           0
176
           3
177
           3
178
           2
270
           2
271
           2
272
           4
273
           2
274
           2
275
           0
280
           0
281
           0
282
           0
283
           1
284
           0
285
           0
286
           0
287
           3
288
           0
340
17
  0
DIMSTYLE
105
429
100
AcDbSymbolTableRecord
100
AcDbDimStyleTableRecord
  2
ME10_DIM_21
 70
           0
  3

  4

  5

  6
_CLOSED
  7
_CLOSED
 40
1.0
 41
6.0
 42
0.0
 43
0.38
 44
4.0
 45
0.0
 46
0.0
 47
0.0
 48
0.0
 71
           0
 72
           0
 73
           0
 74
           0
 75
           0
 76
           0
 77
           1
 78
           8
140
6.0
141
0.09
142
0.0
143
25.4
144
1.0
145
0.0
146
1.0
147
0.625
170
           0
171
           2
172
           0
173
           1
174
           0
175
           0
176
           3
177
           3
178
           2
270
           2
271
           2
272
           4
273
           2
274
           2
275
           0
280
           0
281
           0
282
           0
283
           1
284
           0
285
           0
286
           0
287
           3
288
           0
340
17
  0
DIMSTYLE
105
43A
100
AcDbSymbolTableRecord
100
AcDbDimStyleTableRecord
  2
ME10_DIM_22
 70
           0
  3

  4

  5

  6
_CLOSED
  7
_CLOSED
 40
1.0
 41
6.0
 42
0.0
 43
0.38
 44
4.0
 45
0.0
 46
0.0
 47
0.0
 48
0.0
 71
           0
 72
           0
 73
           0
 74
           0
 75
           0
 76
           0
 77
           1
 78
           8
140
6.0
141
0.09
142
0.0
143
25.4
144
1.0
145
0.0
146
1.0
147
0.625
170
           0
171
           2
172
           0
173
           1
174
           0
175
           0
176
           3
177
           3
178
           2
270
           2
271
           2
272
           4
273
           2
274
           2
275
           0
280
           0
281
           0
282
           0
283
           1
284
           0
285
           0
286
           0
287
           3
288
           0
340
17
  0
DIMSTYLE
105
44D
100
AcDbSymbolTableRecord
100
AcDbDimStyleTableRecord
  2
ME10_DIM_23
 70
           0
  3

  4

  5

  6
_CLOSED
  7
_CLOSED
 40
1.0
 41
6.0
 42
0.0
 43
0.38
 44
4.0
 45
0.0
 46
0.0
 47
0.0
 48
0.0
 71
           0
 72
           0
 73
           0
 74
           0
 75
           0
 76
           0
 77
           1
 78
           8
140
6.0
141
0.09
142
0.0
143
25.4
144
1.0
145
0.0
146
1.0
147
0.625
170
           0
171
           2
172
           0
173
           1
174
           0
175
           0
176
           3
177
           3
178
           2
270
           2
271
           2
272
           4
273
           2
274
           2
275
           0
280
           0
281
           0
282
           0
283
           1
284
           0
285
           0
286
           0
287
           3
288
           0
340
17
  0
ENDTAB
  0
TABLE
  2
BLOCK_RECORD
  5
1
100
AcDbSymbolTable
 70
          74
  0
BLOCK_RECORD
  5
A
100
AcDbSymbolTableRecord
100
AcDbBlockTableRecord
  2
*MODEL_SPACE
  0
BLOCK_RECORD
  5
B
100
AcDbSymbolTableRecord
100
AcDbBlockTableRecord
  2
*PAPER_SPACE
  0
BLOCK_RECORD
  5
26
100
AcDbSymbolTableRecord
100
AcDbBlockTableRecord
  2
DINA3_INTERNETRAHMEN
  0
BLOCK_RECORD
  5
28
100
AcDbSymbolTableRecord
100
AcDbBlockTableRecord
  2
GETRIEBE
  0
BLOCK_RECORD
  5
2AB
100
AcDbSymbolTableRecord
100
AcDbBlockTableRecord
  2
*D2
  0
BLOCK_RECORD
  5
2BC
100
AcDbSymbolTableRecord
100
AcDbBlockTableRecord
  2
*D5
  0
BLOCK_RECORD
  5
2CD
100
AcDbSymbolTableRecord
100
AcDbBlockTableRecord
  2
*D8
  0
BLOCK_RECORD
  5
2DE
100
AcDbSymbolTableRecord
100
AcDbBlockTableRecord
  2
*D11
  0
BLOCK_RECORD
  5
2EF
100
AcDbSymbolTableRecord
100
AcDbBlockTableRecord
  2
*D14
  0
BLOCK_RECORD
  5
300
100
AcDbSymbolTableRecord
100
AcDbBlockTableRecord
  2
*D17
  0
BLOCK_RECORD
  5
311
100
AcDbSymbolTableRecord
100
AcDbBlockTableRecord
  2
*D20
  0
BLOCK_RECORD
  5
322
100
AcDbSymbolTableRecord
100
AcDbBlockTableRecord
  2
*D23
  0
BLOCK_RECORD
  5
335
100
AcDbSymbolTableRecord
100
AcDbBlockTableRecord
  2
*D26
  0
BLOCK_RECORD
  5
347
100
AcDbSymbolTableRecord
100
AcDbBlockTableRecord
  2
*D29
  0
BLOCK_RECORD
  5
359
100
AcDbSymbolTableRecord
100
AcDbBlockTableRecord
  2
*D32
  0
BLOCK_RECORD
  5
36B
100
AcDbSymbolTableRecord
100
AcDbBlockTableRecord
  2
*D35
  0
BLOCK_RECORD
  5
37C
100
AcDbSymbolTableRecord
100
AcDbBlockTableRecord
  2
*D38
  0
BLOCK_RECORD
  5
38D
100
AcDbSymbolTableRecord
100
AcDbBlockTableRecord
  2
*D41
  0
BLOCK_RECORD
  5
39E
100
AcDbSymbolTableRecord
100
AcDbBlockTableRecord
  2
*D44
  0
BLOCK_RECORD
  5
3B0
100
AcDbSymbolTableRecord
100
AcDbBlockTableRecord
  2
*D47
  0
BLOCK_RECORD
  5
3C1
100
AcDbSymbolTableRecord
100
AcDbBlockTableRecord
  2
*D50
  0
BLOCK_RECORD
  5
3D2
100
AcDbSymbolTableRecord
100
AcDbBlockTableRecord
  2
*D53
  0
BLOCK_RECORD
  5
3E5
100
AcDbSymbolTableRecord
100
AcDbBlockTableRecord
  2
*D56
  0
BLOCK_RECORD
  5
3F6
100
AcDbSymbolTableRecord
100
AcDbBlockTableRecord
  2
*D59
  0
BLOCK_RECORD
  5
407
100
AcDbSymbolTableRecord
100
AcDbBlockTableRecord
  2
*D62
  0
BLOCK_RECORD
  5
419
100
AcDbSymbolTableRecord
100
AcDbBlockTableRecord
  2
*D65
  0
BLOCK_RECORD
  5
42B
100
AcDbSymbolTableRecord
100
AcDbBlockTableRecord
  2
*D68
  0
BLOCK_RECORD
  5
43C
100
AcDbSymbolTableRecord
100
AcDbBlockTableRecord
  2
*D71
  0
ENDTAB
  0
ENDSEC
  0
SECTION
  2
BLOCKS
  0
BLOCK
  5
D
100
AcDbEntity
  8
0
100
AcDbBlockBegin
  2
*MODEL_SPACE
 70
           0
 10
0.0
 20
0.0
 30
0.0
  3
*MODEL_SPACE
  1

  0
ENDBLK
  5
E
100
AcDbEntity
  8
0
100
AcDbBlockEnd
  0
BLOCK
  5
F
100
AcDbEntity
 67
           1
  8
0
100
AcDbBlockBegin
  2
*PAPER_SPACE
 70
           0
 10
0.0
 20
0.0
 30
0.0
  3
*PAPER_SPACE
  1

  0
ENDBLK
  5
10
100
AcDbEntity
 67
           1
  8
0
100
AcDbBlockEnd
  0
BLOCK
  5
27
100
AcDbEntity
  8
0
100
AcDbBlockBegin
  2
DINA3_INTERNETRAHMEN
 70
           0
 10
229.15381328079
 20
-175.227015834357
 30
0.0
  3
DINA3_INTERNETRAHMEN
  1

  0
HATCH
  5
196
100
AcDbEntity
  8
0
  6
CONTINUOUS
 62
           3
100
AcDbHatch
 10
0.0
 20
0.0
 30
0.0
210
0.0
220
0.0
230
1.0
  2
USER
 70
           0
 71
           1
 91
        2
 92
        1
 93
       66
 72
           1
 10
169.17908935196681
 20
-137.8449475198565
 11
172.76793300562159
 21
-137.8449475198565
 72
           1
 10
172.76793300562159
 20
-137.8449475198565
 11
172.97092628109669
 21
-137.8444880404592
 72
           1
 10
172.97092628109669
 20
-137.8444880404592
 11
173.17342133772601
 21
-137.84548755561181
 72
           1
 10
173.17342133772601
 20
-137.84548755561181
 11
173.37544274351799
 21
-137.84994807845439
 72
           1
 10
173.37544274351799
 20
-137.84994807845439
 11
173.57789304573751
 21
-137.86079356375919
 72
           1
 10
173.57789304573751
 20
-137.86079356375919
 11
173.78174938233121
 21
-137.8810635818605
 72
           1
 10
173.78174938233121
 20
-137.8810635818605
 11
173.98552739870769
 21
-137.915360377897
 72
           1
 10
173.98552739870769
 20
-137.915360377897
 11
174.18267803290101
 21
-137.9715308917167
 72
           1
 10
174.18267803290101
 20
-137.9715308917167
 11
174.3660070135376
 21
-138.05783604146299
 72
           1
 10
174.3660070135376
 20
-138.05783604146299
 11
174.52818953554859
 21
-138.18136567155199
 72
           1
 10
174.52818953554859
 20
-138.18136567155199
 11
174.6605320548318
 21
-138.33847602711921
 72
           1
 10
174.6605320548318
 20
-138.33847602711921
 11
174.75377786762911
 21
-138.51973511630311
 72
           1
 10
174.75377786762911
 20
-138.51973511630311
 11
174.8074533231042
 21
-138.71589742394681
 72
           1
 10
174.8074533231042
 20
-138.71589742394681
 11
174.83400760624639
 21
-138.9181351427205
 72
           1
 10
174.83400760624639
 20
-138.9181351427205
 11
174.84495005944001
 21
-139.1204437226418
 72
           1
 10
174.84495005944001
 20
-139.1204437226418
 11
174.84749733126401
 21
-139.32297607461311
 72
           1
 10
174.84749733126401
 20
-139.32297607461311
 11
174.84828053343509
 21
-139.52667950030661
 72
           1
 10
174.84828053343509
 20
-139.52667950030661
 11
174.84702368042679
 21
-139.73122207118311
 72
           1
 10
174.84702368042679
 20
-139.73122207118311
 11
174.82631357729639
 21
-139.93306818887041
 72
           1
 10
174.82631357729639
 20
-139.93306818887041
 11
174.7665254153512
 21
-140.12794007769961
 72
           1
 10
174.7665254153512
 20
-140.12794007769961
 11
174.65946913759939
 21
-140.3043358543521
 72
           1
 10
174.65946913759939
 20
-140.3043358543521
 11
174.5098402275346
 21
-140.4426642759444
 72
           1
 10
174.5098402275346
 20
-140.4426642759444
 11
174.327335473945
 21
-140.53276982098939
 72
           1
 10
174.327335473945
 20
-140.53276982098939
 11
174.13072189266899
 21
-140.58607978211691
 72
           1
 10
174.13072189266899
 20
-140.58607978211691
 11
173.92997971708979
 21
-140.61406620637169
 72
           1
 10
173.92997971708979
 20
-140.61406620637169
 11
173.92997971708979
 21
-140.62767527648319
 72
           1
 10
173.92997971708979
 20
-140.62767527648319
 11
174.03957953713149
 21
-140.6523573334816
 72
           1
 10
174.03957953713149
 20
-140.6523573334816
 11
174.147874020221
 21
-140.680750276959
 72
           1
 10
174.147874020221
 20
-140.680750276959
 11
174.25355037033771
 21
-140.71657245246169
 72
           1
 10
174.25355037033771
 20
-140.71657245246169
 11
174.35539275934929
 21
-140.76284478265049
 72
           1
 10
174.35539275934929
 20
-140.76284478265049
 11
174.45174154455879
 21
-140.82016399298939
 72
           1
 10
174.45174154455879
 20
-140.82016399298939
 11
174.53977719814989
 21
-140.8897235344057
 72
           1
 10
174.53977719814989
 20
-140.8897235344057
 11
174.61632588656181
 21
-140.97190754891679
 72
           1
 10
174.61632588656181
 20
-140.97190754891679
 11
174.67767299378119
 21
-141.06502655755341
 72
           1
 10
174.67767299378119
 20
-141.06502655755341
 11
174.72260642121049
 21
-141.16693980771331
 72
           1
 10
174.72260642121049
 20
-141.16693980771331
 11
174.75348323443151
 21
-141.27526412707701
 72
           1
 10
174.75348323443151
 20
-141.27526412707701
 11
174.7729252959511
 21
-141.38760515471799
 72
           1
 10
174.7729252959511
 20
-141.38760515471799
 11
174.78353582060549
 21
-141.50156107064561
 72
           1
 10
174.78353582060549
 20
-141.50156107064561
 11
174.78791802323079
 21
-141.61483821135781
 72
           1
 10
174.78791802323079
 20
-141.61483821135781
 11
174.78833946058961
 21
-141.7267950969817
 72
           1
 10
174.78833946058961
 20
-141.7267950969817
 11
174.7868252697252
 21
-141.83808439599321
 72
           1
 10
174.7868252697252
 20
-141.83808439599321
 11
174.78532972653139
 21
-141.94938488360711
 72
           1
 10
174.78532972653139
 20
-141.94938488360711
 11
174.78466586945279
 21
-142.06097627488421
 72
           1
 10
174.78466586945279
 20
-142.06097627488421
 11
174.78463976271379
 21
-142.17279143821051
 72
           1
 10
174.78463976271379
 20
-142.17279143821051
 11
174.78500898659451
 21
-142.2847408647668
 72
           1
 10
174.78500898659451
 20
-142.2847408647668
 11
174.78554603951201
 21
-142.3967499638681
 72
           1
 10
174.78554603951201
 20
-142.3967499638681
 11
174.78600850174629
 21
-142.50873295623211
 72
           1
 10
174.78600850174629
 20
-142.50873295623211
 11
174.78620616705621
 21
-142.6206227102405
 72
           1
 10
174.78620616705621
 20
-142.6206227102405
 11
174.78618006031729
 21
-142.73243414403311
 72
           1
 10
174.78618006031729
 20
-142.73243414403311
 11
174.78603833801961
 21
-142.84420828248281
 72
           1
 10
174.78603833801961
 20
-142.84420828248281
 11
174.150395185306
 21
-142.84420828248281
 72
           1
 10
174.150395185306
 20
-142.84420828248281
 11
174.15010055210789
 21
-142.59602643252711
 72
           1
 10
174.15010055210789
 20
-142.59602643252711
 11
174.14991780493469
 21
-142.3478595007069
 72
           1
 10
174.14991780493469
 20
-142.3478595007069
 11
174.15129400303579
 21
-142.09989023419681
 72
           1
 10
174.15129400303579
 20
-142.09989023419681
 11
174.15190191710229
 21
-141.85182399979939
 72
           1
 10
174.15190191710229
 20
-141.85182399979939
 11
174.14453235762329
 21
-141.60313866273191
 72
           1
 10
174.14453235762329
 20
-141.60313866273191
 11
174.10676709482891
 21
-141.3579292514932
 72
           1
 10
174.10676709482891
 20
-141.3579292514932
 11
174.0025937469745
 21
-141.13306817857031
 72
           1
 10
174.0025937469745
 20
-141.13306817857031
 11
173.81383456461651
 21
-140.97266837388321
 72
           1
 10
173.81383456461651
 20
-140.97266837388321
 11
173.5764124206805
 21
-140.8974958835731
 72
           1
 10
173.5764124206805
 20
-140.8974958835731
 11
173.32971492531499
 21
-140.87261989079829
 72
           1
 10
173.32971492531499
 20
-140.87261989079829
 11
173.08151069815369
 21
-140.8668167356615
 72
           1
 10
173.08151069815369
 20
-140.8668167356615
 11
169.8556900995255
 21
-140.86910496312191
 72
           1
 10
169.8556900995255
 20
-140.86910496312191
 11
169.8556900995255
 21
-142.84420790203171
 72
           1
 10
169.8556900995255
 20
-142.84420790203171
 11
169.17908935196681
 21
-142.84420790203171
 72
           1
 10
169.17908935196681
 20
-142.84420790203171
 11
169.17908935196681
 21
-137.8449475198565
 97
       64
330
107
330
169
330
A4
330
A3
330
A2
330
A1
330
A0
330
9F
330
9E
330
9D
330
9C
330
9B
330
9A
330
99
330
98
330
97
330
96
330
95
330
94
330
93
330
92
330
91
330
90
330
8F
330
168
330
ED
330
EC
330
EB
330
EA
330
E9
330
E8
330
E7
330
E6
330
E5
330
E4
330
E3
330
E2
330
E1
330
E0
330
DF
330
DE
330
DD
330
DC
330
DB
330
DA
330
D9
330
D8
330
D7
330
167
330
D5
330
D4
330
D3
330
D2
330
D1
330
D0
330
CF
330
CE
330
CD
330
CC
330
CB
330
166
330
10C
330
10A
330
10B
 92
       16
 93
       12
 72
           1
 10
169.8556900995255
 20
-140.3171270135505
 11
169.8556900995255
 21
-138.39726228780211
 72
           1
 10
169.8556900995255
 20
-138.39726228780211
 11
172.74968658583359
 21
-138.39731688739059
 72
           1
 10
172.74968658583359
 20
-138.39731688739059
 11
173.16272503378599
 21
-138.40108744641569
 72
           1
 10
173.16272503378599
 20
-138.40108744641569
 11
173.57831075356219
 21
-138.43655158664049
 72
           1
 10
173.57831075356219
 20
-138.43655158664049
 11
173.96318748915411
 21
-138.58301412221309
 72
           1
 10
173.96318748915411
 20
-138.58301412221309
 11
174.1601628352426
 21
-138.93781589442531
 72
           1
 10
174.1601628352426
 20
-138.93781589442531
 11
174.17100459101411
 21
-139.35455776978799
 72
           1
 10
174.17100459101411
 20
-139.35455776978799
 11
174.15732838928909
 21
-139.76774166957179
 72
           1
 10
174.15732838928909
 20
-139.76774166957179
 11
173.95620207169279
 21
-140.12107400533071
 72
           1
 10
173.95620207169279
 20
-140.12107400533071
 11
173.57476769612049
 21
-140.279896217073
 72
           1
 10
173.57476769612049
 20
-140.279896217073
 11
173.16332175925001
 21
-140.3162517159582
 72
           1
 10
173.16332175925001
 20
-140.3162517159582
 11
169.8556900995255
 21
-140.3171270135505
 97
       12
330
106
330
16B
330
B6
330
B5
330
B4
330
B3
330
B2
330
B1
330
B0
330
AF
330
AE
330
16A
 75
           1
 76
           0
 52
0.0
 41
0.3
 77
           0
 78
           1
 53
0.0
 43
463.014737656294
 44
-326.933005700425
 45
0.0
 46
0.3
 79
           0
 98
        1
 10
0.0
 20
0.0
  0
HATCH
  5
195
100
AcDbEntity
  8
0
  6
CONTINUOUS
 62
           3
100
AcDbHatch
 10
0.0
 20
0.0
 30
0.0
210
0.0
220
0.0
230
1.0
  2
USER
 70
           0
 71
           1
 91
        3
 92
        1
 93
       27
 72
           1
 10
188.34571967078239
 20
-137.84494757120419
 11
192.61729541094519
 21
-137.84389131499549
 72
           1
 10
192.61729541094519
 20
-137.84389131499549
 11
192.94559138395999
 21
-137.8668055728082
 72
           1
 10
192.94559138395999
 20
-137.8668055728082
 11
193.27033684046501
 21
-137.94141863299669
 72
           1
 10
193.27033684046501
 20
-137.94141863299669
 11
193.55997246248859
 21
-138.0968842640045
 72
           1
 10
193.55997246248859
 20
-138.0968842640045
 11
193.7766285602824
 21
-138.34878445950821
 72
           1
 10
193.7766285602824
 20
-138.34878445950821
 11
193.90477535364869
 21
-138.65956281062421
 72
           1
 10
193.90477535364869
 20
-138.65956281062421
 11
193.94157839663239
 21
-138.98487888585441
 72
           1
 10
193.94157839663239
 20
-138.98487888585441
 11
193.93325407641129
 21
-139.31772489053051
 72
           1
 10
193.93325407641129
 20
-139.31772489053051
 11
193.89149075300881
 21
-139.6476469404341
 72
           1
 10
193.89149075300881
 20
-139.6476469404341
 11
193.72582484610251
 21
-139.925776949609
 72
           1
 10
193.72582484610251
 20
-139.925776949609
 11
193.44838480074631
 21
-140.09996484204541
 72
           1
 10
193.44838480074631
 20
-140.09996484204541
 11
193.12822298584749
 21
-140.17229511318661
 72
           1
 10
193.12822298584749
 20
-140.17229511318661
 11
193.12822298584749
 21
-140.199644765069
 72
           1
 10
193.12822298584749
 20
-140.199644765069
 11
193.48157019560509
 21
-140.25259602710091
 72
           1
 10
193.48157019560509
 20
-140.25259602710091
 11
193.80397350466509
 21
-140.39994619180041
 72
           1
 10
193.80397350466509
 20
-140.39994619180041
 11
194.0289166273374
 21
-140.67308981381669
 72
           1
 10
194.0289166273374
 20
-140.67308981381669
 11
194.12122259753011
 21
-141.01621068507421
 72
           1
 10
194.12122259753011
 20
-141.01621068507421
 11
194.13043454687769
 21
-141.37169123250331
 72
           1
 10
194.13043454687769
 20
-141.37169123250331
 11
194.13158324339639
 21
-141.7268846058021
 72
           1
 10
194.13158324339639
 20
-141.7268846058021
 11
194.0845687359114
 21
-142.0810225209357
 72
           1
 10
194.0845687359114
 20
-142.0810225209357
 11
193.91657559969619
 21
-142.3928600597506
 72
           1
 10
193.91657559969619
 20
-142.3928600597506
 11
193.6424846760051
 21
-142.6204325039993
 72
           1
 10
193.6424846760051
 20
-142.6204325039993
 11
193.31544182646519
 21
-142.75954039822929
 72
           1
 10
193.31544182646519
 20
-142.75954039822929
 11
192.96667817004001
 21
-142.82867477275161
 72
           1
 10
192.96667817004001
 20
-142.82867477275161
 11
192.6116116009012
 21
-142.84471549912811
 72
           1
 10
192.6116116009012
 20
-142.84471549912811
 11
188.3457182276037
 21
-142.84420828248281
 72
           1
 10
188.3457182276037
 20
-142.84420828248281
 11
188.34571967078239
 21
-137.84494757120419
 97
       26
330
163
330
38
330
37
330
36
330
35
330
34
330
33
330
32
330
31
330
30
330
2F
330
162
330
FB
330
161
330
74
330
73
330
72
330
71
330
70
330
6F
330
6E
330
6D
330
6C
330
6B
330
6A
330
160
 92
       16
 93
       10
 72
           1
 10
189.01944301804639
 20
-139.99202991999019
 11
189.01944301804639
 21
-138.39726228780211
 72
           1
 10
189.01944301804639
 20
-139.99202991999019
 11
192.20389892771499
 21
-139.99600780717171
 72
           1
 10
192.20389892771499
 20
-139.99600780717171
 11
192.60251153757741
 21
-139.987847586453
 72
           1
 10
192.60251153757741
 20
-139.987847586453
 11
192.98798872816769
 21
-139.8934642657405
 72
           1
 10
192.98798872816769
 20
-139.8934642657405
 11
193.23192263872889
 21
-139.58496465998931
 72
           1
 10
193.23192263872889
 20
-139.58496465998931
 11
193.25971512720739
 21
-139.1893394069796
 72
           1
 10
193.25971512720739
 20
-139.1893394069796
 11
193.24384222986879
 21
-138.78955199385959
 72
           1
 10
193.24384222986879
 20
-138.78955199385959
 11
192.99024136679381
 21
-138.49083868571569
 72
           1
 10
192.99024136679381
 20
-138.49083868571569
 11
192.60212366602619
 21
-138.39961800996181
 72
           1
 10
192.60212366602619
 20
-138.39961800996181
 11
189.01944301804639
 21
-138.39726228780211
 97
        2
330
FC
330
165
 92
       16
 93
       19
 72
           1
 10
189.01944365351389
 20
-140.54481621629091
 11
189.01944301804639
 21
-142.29142158836581
 72
           1
 10
189.01944301804639
 20
-142.29142158836581
 11
192.36910983145501
 21
-142.29271833831169
 72
           1
 10
192.36910983145501
 20
-142.29271833831169
 11
192.78778733504001
 21
-142.28294322930631
 72
           1
 10
192.78778733504001
 20
-142.28294322930631
 11
193.189025536945
 21
-142.17217606507549
 72
           1
 10
193.189025536945
 20
-142.17217606507549
 11
193.42975204813749
 21
-141.83977760449699
 72
           1
 10
193.42975204813749
 20
-141.83977760449699
 11
193.45262155154009
 21
-141.42208096839309
 72
           1
 10
193.45262155154009
 20
-141.42208096839309
 11
193.42640292647141
 21
-141.0041046172266
 72
           1
 10
193.42640292647141
 20
-141.0041046172266
 11
193.19751395666751
 21
-140.66849875727931
 72
           1
 10
193.19751395666751
 20
-140.66849875727931
 11
192.78607174933131
 21
-140.5538864433419
 72
           1
 10
192.78607174933131
 20
-140.5538864433419
 11
192.36735695040511
 21
-140.54002003537451
 72
           1
 10
192.36735695040511
 20
-140.54002003537451
 11
191.9513124979274
 21
-140.5473560290456
 72
           1
 10
191.9513124979274
 20
-140.5473560290456
 11
191.53212031863001
 21
-140.54594626513821
 72
           1
 10
191.53212031863001
 20
-140.54594626513821
 11
191.11274912169239
 21
-140.54402182551681
 72
           1
 10
191.11274912169239
 20
-140.54402182551681
 11
190.69418350413011
 21
-140.54446191054711
 72
           1
 10
190.69418350413011
 20
-140.54446191054711
 11
190.27563280470619
 21
-140.54494674998529
 72
           1
 10
190.27563280470619
 20
-140.54494674998529
 11
189.8568732513688
 21
-140.54480875722149
 72
           1
 10
189.8568732513688
 20
-140.54480875722149
 11
189.43815099337391
 21
-140.54480502768789
 72
           1
 10
189.43815099337391
 20
-140.54480502768789
 11
189.01944365351389
 21
-140.54481621629091
 72
           1
 10
189.01944365351389
 20
-140.54481621629091
 11
189.01944365351389
 21
-140.54481621629091
 97
        1
330
164
 75
           1
 76
           0
 52
0.0
 41
0.3
 77
           0
 78
           1
 53
0.0
 43
478.378850264612
 44
-326.102403568464
 45
0.0
 46
0.3
 79
           0
 98
        1
 10
0.0
 20
0.0
  0
HATCH
  5
194
100
AcDbEntity
  8
0
  6
CONTINUOUS
 62
           1
100
AcDbHatch
 10
0.0
 20
0.0
 30
0.0
210
0.0
220
0.0
230
1.0
  2
USER
 70
           0
 71
           1
 91
        1
 92
        1
 93
        4
 72
           2
 10
140.87957281779259
 20
-126.9158313191206
 40
7.9080459764773057
 50
-111.389835812799
 51
-28.017530678763
 73
           1
 72
           1
 10
137.76943928721741
 20
-134.93562734632209
 11
137.99541663252441
 21
-134.27917527856309
 72
           2
 10
140.88128247593099
 20
-126.91943811939861
 40
8.5990032999753669
 50
-111.215954643911
 51
-27.268535966438
 73
           1
 72
           1
 10
147.86082671226211
 20
-130.6305702368692
 11
148.52466965216681
 21
-130.85917037262769
 97
        4
330
15E
330
136
330
15F
330
FA
 75
           1
 76
           0
 52
20.0
 41
0.2
 77
           0
 78
           1
 53
20.0
 43
438.579971957639
 44
-322.79498074093
 45
-0.0684040286651337
 46
0.1879385241571817
 79
           0
 98
        1
 10
0.0
 20
0.0
  0
HATCH
  5
193
100
AcDbEntity
  8
0
  6
CONTINUOUS
 62
           4
100
AcDbHatch
 10
0.0
 20
0.0
 30
0.0
210
0.0
220
0.0
230
1.0
  2
USER
 70
           0
 71
           1
 91
        1
 92
        1
 93
        4
 72
           2
 10
151.4891439995798
 20
-141.5851694877995
 40
9.0827251411655396
 50
75.086616427323
 51
-141.583441934091
 73
           1
 72
           1
 10
145.0399454906233
 20
-145.29150357028311
 11
144.37270244368349
 21
-147.22894088390049
 72
           2
 10
151.48680532308299
 20
-141.5816744926781
 40
7.438066515191033
 50
75.966597347068
 51
-150.0818348265
 73
           1
 72
           1
 10
153.82666069422751
 20
-132.80838695134551
 11
153.29044365231471
 21
-134.36560061128441
 97
        4
330
15C
330
12B
330
15D
330
123
 75
           1
 76
           0
 52
0.0
 41
0.15
 77
           0
 78
           1
 53
0.0
 43
0.0
 44
0.0
 45
0.0
 46
0.15
 79
           0
 98
        1
 10
0.0
 20
0.0
  0
HATCH
  5
192
100
AcDbEntity
  8
0
  6
CONTINUOUS
 62
           2
100
AcDbHatch
 10
0.0
 20
0.0
 30
0.0
210
0.0
220
0.0
230
1.0
  2
USER
 70
           0
 71
           1
 91
        1
 92
        1
 93
       12
 72
           1
 10
127.61664534723219
 20
-141.64297860362419
 11
131.2005273660923
 21
-139.06039025741421
 72
           1
 10
127.61664534723219
 20
-142.84420759591421
 11
127.61664534723219
 21
-141.64297860362419
 72
           1
 10
133.54821873466241
 20
-142.84420759591421
 11
127.61664534723219
 21
-142.84420759591421
 72
           1
 10
133.54821873466241
 20
-141.64297860362419
 11
133.54821873466241
 21
-142.84420759591421
 72
           1
 10
129.88848516967221
 20
-141.64297860362419
 11
133.54821873466241
 21
-141.64297860362419
 72
           1
 10
129.88848516967221
 20
-141.6285629812842
 11
129.88848516967221
 21
-141.64297860362419
 72
           1
 10
133.4653615605524
 20
-139.04637861038421
 11
129.88848516967221
 21
-141.6285629812842
 72
           1
 10
133.4653615605524
 20
-137.84494743490421
 11
133.4653615605524
 21
-139.04637861038421
 72
           1
 10
127.7131774571024
 20
-137.84494743490421
 11
133.4653615605524
 21
-137.84494743490421
 72
           1
 10
127.7131774571024
 20
-139.04637861038421
 11
127.7131774571024
 21
-137.84494743490421
 72
           1
 10
131.2005273660923
 20
-139.04637861038421
 11
127.7131774571024
 21
-139.04637861038421
 72
           1
 10
131.2005273660923
 20
-139.06039025741421
 11
131.2005273660923
 21
-139.04637861038421
 97
       12
330
14D
330
148
330
149
330
142
330
14A
330
147
330
14B
330
13B
330
14C
330
146
330
14E
330
13A
 75
           1
 76
           0
 52
0.0
 41
0.2
 77
           0
 78
           1
 53
0.0
 43
0.0
 44
0.0
 45
0.0
 46
0.2
 79
           0
 98
        1
 10
0.0
 20
0.0
  0
HATCH
  5
191
100
AcDbEntity
  8
0
  6
CONTINUOUS
 62
           2
100
AcDbHatch
 10
0.0
 20
0.0
 30
0.0
210
0.0
220
0.0
230
1.0
  2
USER
 70
           0
 71
           1
 91
        1
 92
        1
 93
       12
 72
           1
 10
134.87151084177231
 20
-137.84494743490421
 11
140.62349315310229
 21
-137.84494743490421
 72
           1
 10
134.87151084177231
 20
-139.04637861038421
 11
134.87151084177231
 21
-137.84494743490421
 72
           1
 10
138.35865895864211
 20
-139.04637861038421
 11
134.87151084177231
 21
-139.04637861038421
 72
           1
 10
138.35865895864211
 20
-139.06039025741421
 11
138.35865895864211
 21
-139.04637861038421
 72
           1
 10
134.77477654871231
 20
-141.64297860362419
 11
138.35865895864211
 21
-139.06039025741421
 72
           1
 10
134.77477654871231
 20
-142.84420759591421
 11
134.77477654871231
 21
-141.64297860362419
 72
           1
 10
140.70635032721231
 20
-142.84420759591421
 11
134.77477654871231
 21
-142.84420759591421
 72
           1
 10
140.70635032721231
 20
-141.64297860362419
 11
140.70635032721231
 21
-142.84420759591421
 72
           1
 10
137.04661676222219
 20
-141.64297860362419
 11
140.70635032721231
 21
-141.64297860362419
 72
           1
 10
137.04661676222219
 20
-141.6285629812842
 11
137.04661676222219
 21
-141.64297860362419
 72
           1
 10
140.62349315310229
 20
-139.04637861038421
 11
137.04661676222219
 21
-141.6285629812842
 72
           1
 10
140.62349315310229
 20
-137.84494743490421
 11
140.62349315310229
 21
-139.04637861038421
 97
       12
330
13C
330
139
330
13D
330
138
330
144
330
141
330
143
330
13E
330
140
330
13F
330
145
330
137
 75
           1
 76
           0
 52
0.0
 41
0.2
 77
           0
 78
           1
 53
0.0
 43
0.0
 44
0.0
 45
0.0
 46
0.2
 79
           0
 98
        1
 10
0.0
 20
0.0
  0
HATCH
  5
190
100
AcDbEntity
  8
0
  6
CONTINUOUS
 62
           3
100
AcDbHatch
 10
0.0
 20
0.0
 30
0.0
210
0.0
220
0.0
230
1.0
  2
USER
 70
           0
 71
           1
 91
        1
 92
        1
 93
       10
 72
           1
 10
154.22186131780231
 20
-137.84494743490421
 11
155.23009335439249
 21
-137.84494743490421
 72
           1
 10
154.22186131780231
 20
-142.84420759591421
 11
154.22186131780231
 21
-137.84494743490421
 72
           1
 10
154.89866387581219
 20
-142.84420759591421
 11
154.22186131780231
 21
-142.84420759591421
 72
           1
 10
154.89866387581219
 20
-138.4525677545644
 11
154.89866387581219
 21
-142.84420759591421
 72
           1
 10
159.47676667530209
 20
-142.84420759591421
 11
154.89866387581219
 21
-138.4525677545644
 72
           1
 10
160.4849314478526
 20
-142.84420759591421
 11
159.47676667530209
 21
-142.84420759591421
 72
           1
 10
160.4849314478526
 20
-137.84494743490421
 11
160.4849314478526
 21
-142.84420759591421
 72
           1
 10
159.80826341792229
 20
-137.84494743490421
 11
160.4849314478526
 21
-137.84494743490421
 72
           1
 10
159.80826341792229
 20
-142.2367221954045
 11
159.80826341792229
 21
-137.84494743490421
 72
           1
 10
155.23009335439249
 20
-137.84494743490421
 11
159.80826341792229
 21
-142.2367221954045
 97
       10
330
124
330
132
330
126
330
133
330
134
330
11E
330
11F
330
11A
330
120
330
135
 75
           1
 76
           0
 52
0.0
 41
0.3
 77
           0
 78
           1
 53
0.0
 43
469.98900658108
 44
-327.208403005825
 45
0.0
 46
0.3
 79
           0
 98
        1
 10
0.0
 20
0.0
  0
HATCH
  5
18F
100
AcDbEntity
  8
0
  6
CONTINUOUS
 62
           3
100
AcDbHatch
 10
0.0
 20
0.0
 30
0.0
210
0.0
220
0.0
230
1.0
  2
USER
 70
           0
 71
           1
 91
        2
 92
        1
 93
        8
 72
           1
 10
145.9731117539022
 20
-142.84420798698429
 11
148.94236782512229
 21
-137.84494743490421
 72
           1
 10
146.73964297699229
 20
-142.84420798698429
 11
145.9731117539022
 21
-142.84420798698429
 72
           1
 10
147.36120767964229
 20
-141.78781059598441
 11
146.73964297699229
 21
-142.84420798698429
 72
           1
 10
151.36624745109211
 20
-141.78781059598441
 11
147.36120767964229
 21
-141.78781059598441
 72
           1
 10
151.9876099705522
 20
-142.84420798698429
 11
151.36624745109211
 21
-141.78781059598441
 72
           1
 10
152.75407392960241
 20
-142.84420798698429
 11
151.9876099705522
 21
-142.84420798698429
 72
           1
 10
149.78495277753231
 20
-137.84494743490421
 11
152.75407392960241
 21
-142.84420798698429
 72
           1
 10
148.94236782512229
 20
-137.84494743490421
 11
149.78495277753231
 21
-137.84494743490421
 97
        8
330
12F
330
12A
330
129
330
12C
330
128
330
127
330
12E
330
125
 92
       16
 93
        3
 72
           1
 10
151.04162180837241
 20
-141.23515907552431
 11
147.68563113917219
 21
-141.23515907552431
 72
           1
 10
147.68563113917219
 20
-141.23515907552431
 11
149.36372776090221
 21
-138.39726224409449
 72
           1
 10
149.36372776090221
 20
-138.39726224409449
 11
151.04162180837241
 21
-141.23515907552431
 97
        3
330
12D
330
130
330
131
 75
           1
 76
           0
 52
0.0
 41
0.3
 77
           0
 78
           1
 53
0.0
 43
444.760066932193
 44
-328.247283258136
 45
0.0
 46
0.3
 79
           0
 98
        1
 10
0.0
 20
0.0
  0
HATCH
  5
18E
100
AcDbEntity
  8
0
  6
CONTINUOUS
 62
           3
100
AcDbHatch
 10
0.0
 20
0.0
 30
0.0
210
0.0
220
0.0
230
1.0
  2
USER
 70
           0
 71
           1
 91
        1
 92
        1
 93
        8
 72
           1
 10
161.96686501116241
 20
-137.84494743490421
 11
167.6987052621424
 21
-137.84494743490421
 72
           1
 10
161.96686501116241
 20
-138.39726224409449
 11
161.96686501116241
 21
-137.84494743490421
 72
           1
 10
164.49421511094229
 20
-138.39726224409449
 11
161.96686501116241
 21
-138.39726224409449
 72
           1
 10
164.49421511094229
 20
-142.84420759591421
 11
164.49421511094229
 21
-138.39726224409449
 72
           1
 10
165.17081587683239
 20
-142.84420759591421
 11
164.49421511094229
 21
-142.84420759591421
 72
           1
 10
165.17081587683239
 20
-138.39726224409449
 11
165.17081587683239
 21
-142.84420759591421
 72
           1
 10
167.6987052621424
 20
-138.39726224409449
 11
165.17081587683239
 21
-138.39726224409449
 72
           1
 10
167.6987052621424
 20
-137.84494743490421
 11
167.6987052621424
 21
-138.39726224409449
 97
        8
330
11B
330
119
330
11C
330
121
330
11D
330
122
330
118
330
117
 75
           1
 76
           0
 52
0.0
 41
0.3
 77
           0
 78
           1
 53
0.0
 43
455.439735354765
 44
-325.508764189189
 45
0.0
 46
0.3
 79
           0
 98
        1
 10
0.0
 20
0.0
  0
HATCH
  5
18D
100
AcDbEntity
  8
0
  6
CONTINUOUS
 62
           3
100
AcDbHatch
 10
0.0
 20
0.0
 30
0.0
210
0.0
220
0.0
230
1.0
  2
USER
 70
           0
 71
           1
 91
        1
 92
        1
 93
       12
 72
           1
 10
180.94496338452259
 20
-137.84494743490421
 11
185.85429347940249
 21
-137.84494743490421
 72
           1
 10
180.94496338452259
 20
-142.84420759591421
 11
180.94496338452259
 21
-137.84494743490421
 72
           1
 10
185.88164295985229
 20
-142.84420759591421
 11
180.94496338452259
 21
-142.84420759591421
 72
           1
 10
185.88164295985229
 20
-142.2914215473742
 11
185.88164295985229
 21
-142.84420759591421
 72
           1
 10
181.62156415041269
 20
-142.2914215473742
 11
185.88164295985229
 21
-142.2914215473742
 72
           1
 10
181.62156415041269
 20
-140.54481610983439
 11
181.62156415041269
 21
-142.2914215473742
 72
           1
 10
185.6885787401126
 20
-140.54481610983439
 11
181.62156415041269
 21
-140.54481610983439
 72
           1
 10
185.6885787401126
 20
-139.99202967022421
 11
185.6885787401126
 21
-140.54481610983439
 72
           1
 10
181.62156415041269
 20
-139.99202967022421
 11
185.6885787401126
 21
-139.99202967022421
 72
           1
 10
181.62156415041269
 20
-138.39726224409449
 11
181.62156415041269
 21
-139.99202967022421
 72
           1
 10
185.85429347940249
 20
-138.39726224409449
 11
181.62156415041269
 21
-138.39726224409449
 72
           1
 10
185.85429347940249
 20
-137.84494743490421
 11
185.85429347940249
 21
-138.39726224409449
 97
       12
330
113
330
10D
330
111
330
FF
330
112
330
10E
330
114
330
FE
330
115
330
103
330
116
330
FD
 75
           1
 76
           0
 52
0.0
 41
0.3
 77
           0
 78
           1
 53
0.0
 43
470.534094947584
 44
-327.281203031343
 45
0.0
 46
0.3
 79
           0
 98
        1
 10
0.0
 20
0.0
  0
HATCH
  5
18C
100
AcDbEntity
  8
0
  6
CONTINUOUS
 62
           3
100
AcDbHatch
 10
0.0
 20
0.0
 30
0.0
210
0.0
220
0.0
230
1.0
  2
USER
 70
           0
 71
           1
 91
        1
 92
        1
 93
        4
 72
           1
 10
177.4893417667723
 20
-137.84494743490421
 11
178.16594253266251
 21
-137.84494743490421
 72
           1
 10
177.4893417667723
 20
-142.84420759591421
 11
177.4893417667723
 21
-137.84494743490421
 72
           1
 10
178.16594253266251
 20
-142.84420759591421
 11
177.4893417667723
 21
-142.84420759591421
 72
           1
 10
178.16594253266251
 20
-137.84494743490421
 11
178.16594253266251
 21
-142.84420759591421
 97
        4
330
104
330
10F
330
108
330
110
 75
           1
 76
           0
 52
0.0
 41
0.3
 77
           0
 78
           1
 53
0.0
 43
465.732989702146
 44
-329.104220759636
 45
0.0
 46
0.3
 79
           0
 98
        1
 10
0.0
 20
0.0
  0
HATCH
  5
18B
100
AcDbEntity
  8
0
  6
CONTINUOUS
 62
           3
100
AcDbHatch
 10
0.0
 20
0.0
 30
0.0
210
0.0
220
0.0
230
1.0
  2
USER
 70
           0
 71
           1
 91
        1
 92
        1
 93
       12
 72
           1
 10
196.76397522475239
 20
-137.84494743490421
 11
201.6742481894027
 21
-137.84494743490421
 72
           1
 10
196.76397522475239
 20
-142.84420759591421
 11
196.76397522475239
 21
-137.84494743490421
 72
           1
 10
201.70159766985239
 20
-142.84420759591421
 11
196.76397522475239
 21
-142.84420759591421
 72
           1
 10
201.70159766985239
 20
-142.2914215473742
 11
201.70159766985239
 21
-142.84420759591421
 72
           1
 10
197.44151886041229
 20
-142.2914215473742
 11
201.70159766985239
 21
-142.2914215473742
 72
           1
 10
197.44151886041229
 20
-140.54481610983439
 11
197.44151886041229
 21
-142.2914215473742
 72
           1
 10
201.50853345011251
 20
-140.54481610983439
 11
197.44151886041229
 21
-140.54481610983439
 72
           1
 10
201.50853345011251
 20
-139.99202967022421
 11
201.50853345011251
 21
-140.54481610983439
 72
           1
 10
197.44151886041229
 20
-139.99202967022421
 11
201.50853345011251
 21
-139.99202967022421
 72
           1
 10
197.44151886041229
 20
-138.39726224409449
 11
197.44151886041229
 21
-139.99202967022421
 72
           1
 10
201.6742481894027
 20
-138.39726224409449
 11
197.44151886041229
 21
-138.39726224409449
 72
           1
 10
201.6742481894027
 20
-137.84494743490421
 11
201.6742481894027
 21
-138.39726224409449
 97
       12
330
F1
330
F8
330
F6
330
F5
330
F7
330
F9
330
F2
330
EF
330
F3
330
F0
330
F4
330
EE
 75
           1
 76
           0
 52
0.0
 41
0.3
 77
           0
 78
           1
 53
0.0
 43
483.798770870378
 44
-327.29898966355
 45
0.0
 46
0.3
 79
           0
 98
        1
 10
0.0
 20
0.0
  0
TEXT
  5
18A
100
AcDbEntity
  8
1
 62
           7
100
AcDbText
 10
111.15381328079
 20
-46.227015834357
 40
3.0
  1
Bevel Gearbox:
 41
0.765
  7
CONVERTER_3
100
AcDbText
  0
TEXT
  5
189
100
AcDbEntity
  8
1
 62
           3
100
AcDbText
 10
-15.84618671921
 20
-169.227015834357
 40
2.5
  1
Maße und Darstellung unverbindlich, Änderungen vorbehalten.
 41
0.792
  7
CONVERTER_4
100
AcDbText
  0
MTEXT
  5
187
100
AcDbEntity
  8
1
 62
           3
100
AcDbMText
 10
111.15381328079
 20
-166.227015834357
 30
0.0
 40
2.5
 41
0.0
 71
           7
 72
           1
  1
ZZ-Antriebe GmbH\PAn der Tagweide 12\PD-76139 Karlsruhe
  7
CONVERTER_2
  0
MTEXT
  5
186
100
AcDbEntity
  8
1
 62
           3
100
AcDbMText
 10
169.15381328079
 20
-166.227015834357
 30
0.0
 40
2.5
 41
0.0
 71
           7
 72
           1
  1
Tel.: +49-(0)721-6205-0\Pwww.zz-antriebe.de\Pinfo@zz-antriebe.de
  7
CONVERTER_2
  0
TEXT
  5
185
100
AcDbEntity
  8
1
 62
           7
100
AcDbText
 10
111.15381328079
 20
-40.227015834357
 40
4.0
  1
Kegelradgetriebe:
 41
0.9
  7
CONVERTER_2
100
AcDbText
  0
TEXT
  5
184
100
AcDbEntity
  8
1
 62
           7
100
AcDbText
 10
169.15381328079
 20
-43.227015834357
 40
4.5
  1
K110
 41
0.9
  7
CONVERTER_2
100
AcDbText
  0
TEXT
  5
183
100
AcDbEntity
  8
1
 62
           3
100
AcDbText
 10
111.15381328079
 20
-55.477015834357
 40
3.0
  1
Übersetzung:
 41
0.9
  7
CONVERTER_2
100
AcDbText
  0
TEXT
  5
182
100
AcDbEntity
  8
1
 62
           3
100
AcDbText
 10
111.15381328079
 20
-60.977015834357
 40
3.0
  1
Transmission ratio:
 41
0.765
  7
CONVERTER_3
100
AcDbText
  0
TEXT
  5
181
100
AcDbEntity
  8
1
 62
           3
100
AcDbText
 10
111.15381328079
 20
-73.977015834357
 40
3.0
  1
Shaft configuration:
 41
0.765
  7
CONVERTER_3
100
AcDbText
  0
TEXT
  5
180
100
AcDbEntity
  8
1
 62
           3
100
AcDbText
 10
111.15381328079
 20
-68.477015834357
 40
3.0
  1
Wellenausführung:
 41
0.9
  7
CONVERTER_2
100
AcDbText
  0
TEXT
  5
17F
100
AcDbEntity
  8
1
 62
           3
100
AcDbText
 10
111.15381328079
 20
-81.477015834357
 40
3.0
  1
Verzahnung:
 41
0.9
  7
CONVERTER_2
100
AcDbText
  0
TEXT
  5
17E
100
AcDbEntity
  8
1
 62
           3
100
AcDbText
 10
111.15381328079
 20
-86.977015834357
 40
3.0
  1
Gear teeth:
 41
0.765
  7
CONVERTER_3
100
AcDbText
  0
TEXT
  5
17D
100
AcDbEntity
  8
1
 62
           3
100
AcDbText
 10
111.15381328079
 20
-99.977015834357
 40
3.0
  1
Feather key dimensions:
 41
0.765
  7
CONVERTER_3
100
AcDbText
  0
TEXT
  5
17C
100
AcDbEntity
  8
1
 62
           3
100
AcDbText
 10
111.15381328079
 20
-94.477015834357
 40
3.0
  1
Paßfedermaße:
 41
0.9
  7
CONVERTER_2
100
AcDbText
  0
TEXT
  5
17B
100
AcDbEntity
  8
1
 62
           3
100
AcDbText
 10
111.15381328079
 20
-107.477015834357
 40
3.0
  1
Wellenzentrierung:
 41
0.9
  7
CONVERTER_2
100
AcDbText
  0
TEXT
  5
17A
100
AcDbEntity
  8
1
 62
           3
100
AcDbText
 10
111.15381328079
 20
-112.977015834357
 40
3.0
  1
Centre thread:
 41
0.765
  7
CONVERTER_3
100
AcDbText
  0
TEXT
  5
179
100
AcDbEntity
  8
1
 62
           3
100
AcDbText
 10
111.15381328079
 20
-125.977015834357
 40
3.0
  1
Weight:
 41
0.765
  7
CONVERTER_3
100
AcDbText
  0
TEXT
  5
178
100
AcDbEntity
  8
1
 62
           3
100
AcDbText
 10
111.15381328079
 20
-120.477015834357
 40
3.0
  1
Gewicht:
 41
0.9
  7
CONVERTER_2
100
AcDbText
  0
TEXT
  5
177
100
AcDbEntity
  8
1
 62
           3
100
AcDbText
 10
169.15381328079
 20
-86.977015834357
 40
3.0
  1
Palloid spiral gears
 41
0.765
  7
CONVERTER_3
100
AcDbText
  0
TEXT
  5
176
100
AcDbEntity
  8
1
 62
           3
100
AcDbText
 10
169.15381328079
 20
-81.477015834357
 40
3.0
  1
Palloid spiralverzahnt
 41
0.9
  7
CONVERTER_2
100
AcDbText
  0
TEXT
  5
175
100
AcDbEntity
  8
1
 62
           3
100
AcDbText
 10
169.15381328079
 20
-68.477015834357
 40
3.0
  1
Vollwelle
 41
0.9
  7
CONVERTER_2
100
AcDbText
  0
TEXT
  5
174
100
AcDbEntity
  8
1
 62
           3
100
AcDbText
 10
169.15381328079
 20
-73.977015834357
 40
3.0
  1
Solid shaft
 41
0.765
  7
CONVERTER_3
100
AcDbText
  0
TEXT
  5
172
100
AcDbEntity
  8
1
 62
           3
100
AcDbText
 10
169.15381328079
 20
-123.227015834357
 40
3.0
  1
ca. 10kg
 41
0.9
  7
CONVERTER_2
100
AcDbText
  0
TEXT
  5
171
100
AcDbEntity
  8
1
 62
           3
100
AcDbText
 10
169.15381328079
 20
-58.227015834357
 40
3.0
  1
5:1
 41
0.9
  7
CONVERTER_2
100
AcDbText
  0
TEXT
  5
170
100
AcDbEntity
  8
1
 62
           3
100
AcDbText
 10
169.15381328079
 20
-97.227015834357
 40
3.0
  1
DIN 6885/1
 41
0.9
  7
CONVERTER_2
100
AcDbText
  0
TEXT
  5
16F
100
AcDbEntity
  8
1
 62
           3
100
AcDbText
 10
169.15381328079
 20
-110.227015834357
 40
3.0
  1
DIN 332/2-DS
 41
0.9
  7
CONVERTER_2
100
AcDbText
  0
TEXT
  5
16D
100
AcDbEntity
  8
1
 62
           3
100
AcDbText
 10
-170.846186719209
 20
-169.227015834357
 40
2.5
  1
Schutzvermerk DIN ISO 16016 / DIN 34
 41
0.855
  7
CONVERTER_1
100
AcDbText
  0
LWPOLYLINE
  5
16B
100
AcDbEntity
  8
1
  6
CONTINUOUS
 62
           3
 60
           1
100
AcDbPolyline
 90
        2
 70
           0
 10
169.855690099526
 20
-138.397262287802
 10
172.749686585834
 20
-138.397316887391
  0
LWPOLYLINE
  5
16A
100
AcDbEntity
  8
1
  6
CONTINUOUS
 62
           3
 60
           1
100
AcDbPolyline
 90
        2
 70
           0
 10
173.16332175925
 20
-140.316251715958
 10
169.855690099526
 20
-140.317127013551
  0
LWPOLYLINE
  5
169
100
AcDbEntity
  8
1
  6
CONTINUOUS
 62
           3
 60
           1
100
AcDbPolyline
 90
        2
 70
           0
 10
172.767933005622
 20
-137.844947519857
 10
172.970926281097
 20
-137.844488040459
  0
LWPOLYLINE
  5
168
100
AcDbEntity
  8
1
  6
CONTINUOUS
 62
           3
 60
           1
100
AcDbPolyline
 90
        3
 70
           0
 10
174.130721892669
 20
-140.586079782117
 10
173.92997971709
 20
-140.614066206372
 10
173.92997971709
 20
-140.627675276483
  0
LWPOLYLINE
  5
167
100
AcDbEntity
  8
1
  6
CONTINUOUS
 62
           3
 60
           1
100
AcDbPolyline
 90
        3
 70
           0
 10
174.786180060317
 20
-142.732434144033
 10
174.78603833802
 20
-142.844208282483
 10
174.150395185306
 20
-142.844208282483
  0
LWPOLYLINE
  5
166
100
AcDbEntity
  8
1
  6
CONTINUOUS
 62
           3
 60
           1
100
AcDbPolyline
 90
        2
 70
           0
 10
173.081510698154
 20
-140.866816735662
 10
169.855690099526
 20
-140.869104963122
  0
LWPOLYLINE
  5
165
100
AcDbEntity
  8
1
  6
CONTINUOUS
 62
           3
 60
           1
100
AcDbPolyline
 90
       10
 70
           0
 10
189.019443018046
 20
-139.99202991999
 10
192.203898927715
 20
-139.996007807172
 10
192.602511537577
 20
-139.987847586453
 10
192.987988728168
 20
-139.893464265741
 10
193.231922638729
 20
-139.584964659989
 10
193.259715127207
 20
-139.18933940698
 10
193.243842229869
 20
-138.78955199386
 10
192.990241366794
 20
-138.490838685716
 10
192.602123666026
 20
-138.399618009962
 10
189.019443018046
 20
-138.397262287802
  0
LWPOLYLINE
  5
164
100
AcDbEntity
  8
1
  6
CONTINUOUS
 62
           3
 60
           1
100
AcDbPolyline
 90
       19
 70
           1
 10
189.019443653514
 20
-140.544816216291
 10
189.019443018046
 20
-142.291421588366
 10
192.369109831455
 20
-142.292718338312
 10
192.78778733504
 20
-142.282943229306
 10
193.189025536945
 20
-142.172176065075
 10
193.429752048137
 20
-141.839777604497
 10
193.45262155154
 20
-141.422080968393
 10
193.426402926471
 20
-141.004104617227
 10
193.197513956668
 20
-140.668498757279
 10
192.786071749331
 20
-140.553886443342
 10
192.367356950405
 20
-140.540020035375
 10
191.951312497927
 20
-140.547356029046
 10
191.53212031863
 20
-140.545946265138
 10
191.112749121692
 20
-140.544021825517
 10
190.69418350413
 20
-140.544461910547
 10
190.275632804706
 20
-140.544946749985
 10
189.856873251369
 20
-140.544808757221
 10
189.438150993374
 20
-140.544805027688
 10
189.019443653514
 20
-140.544816216291
  0
LWPOLYLINE
  5
163
100
AcDbEntity
  8
1
  6
CONTINUOUS
 62
           3
 60
           1
100
AcDbPolyline
 90
        2
 70
           0
 10
188.345719670782
 20
-137.844947571204
 10
192.617295410945
 20
-137.843891314995
  0
LWPOLYLINE
  5
162
100
AcDbEntity
  8
1
  6
CONTINUOUS
 62
           3
 60
           1
100
AcDbPolyline
 90
        2
 70
           0
 10
193.448384800746
 20
-140.099964842045
 10
193.128222985847
 20
-140.172295113187
  0
LWPOLYLINE
  5
161
100
AcDbEntity
  8
1
  6
CONTINUOUS
 62
           3
 60
           1
100
AcDbPolyline
 90
        2
 70
           0
 10
193.128222985847
 20
-140.199644765069
 10
193.481570195605
 20
-140.252596027101
  0
LWPOLYLINE
  5
160
100
AcDbEntity
  8
1
  6
CONTINUOUS
 62
           3
 60
           1
100
AcDbPolyline
 90
        3
 70
           0
 10
192.611611600901
 20
-142.844715499128
 10
188.345718227604
 20
-142.844208282483
 10
188.345719670782
 20
-137.844947571204
  0
ARC
  5
15F
100
AcDbEntity
  8
KONTUR
  6
CONTINUOUS
 62
           1
100
AcDbCircle
 10
140.881282475931
 20
-126.919438119399
 40
8.599003299975
100
AcDbArc
 50
-111.215954643911
 51
-27.268535966438
  0
ARC
  5
15E
100
AcDbEntity
  8
KONTUR
  6
CONTINUOUS
 62
           1
100
AcDbCircle
 10
140.879572817793
 20
-126.915831319121
 40
7.908045976477
100
AcDbArc
 50
-111.389835812799
 51
-28.017530678763
  0
ARC
  5
15D
100
AcDbEntity
  8
KONTUR
  6
CONTINUOUS
 62
           4
100
AcDbCircle
 10
151.486805323083
 20
-141.581674492678
 40
7.438066515191
100
AcDbArc
 50
75.966597347068
 51
-150.0818348265
  0
ARC
  5
15C
100
AcDbEntity
  8
KONTUR
  6
CONTINUOUS
 62
           4
100
AcDbCircle
 10
151.48914399958
 20
-141.5851694878
 40
9.082725141166
100
AcDbArc
 50
75.086616427323
 51
-141.583441934091
  0
LINE
  5
15B
100
AcDbEntity
  8
1
  6
CONTINUOUS
 62
           6
100
AcDbLine
 10
-180.846186719209
 20
-175.227015834357
 11
229.15381328079
 21
-175.227015834357
  0
LINE
  5
15A
100
AcDbEntity
  8
1
  6
CONTINUOUS
 62
           6
100
AcDbLine
 10
-180.846186719209
 20
111.772984165643
 11
229.15381328079
 21
111.772984165643
  0
LINE
  5
159
100
AcDbEntity
  8
1
  6
CONTINUOUS
 62
           6
100
AcDbLine
 10
-180.846186719209
 20
-175.227015834357
 11
-180.846186719209
 21
111.772984165643
  0
LINE
  5
158
100
AcDbEntity
  8
1
  6
CONTINUOUS
 62
           6
100
AcDbLine
 10
229.15381328079
 20
-175.227015834357
 11
229.15381328079
 21
111.772984165643
  0
LINE
  5
157
100
AcDbEntity
  8
1
  6
CONTINUOUS
 62
           3
100
AcDbLine
 10
-165.846186719209
 20
-175.227015834357
 11
-165.846186719209
 21
-174.527015834358
  0
LINE
  5
156
100
AcDbEntity
  8
1
  6
CONTINUOUS
 62
           3
100
AcDbLine
 10
-165.846186719209
 20
111.772984165643
 11
-165.846186719209
 21
111.072984165643
  0
LINE
  5
155
100
AcDbEntity
  8
1
  6
CONTINUOUS
 62
           2
100
AcDbLine
 10
106.15381328079
 20
-169.227015834357
 11
223.15381328079
 21
-169.227015834357
  0
LINE
  5
154
100
AcDbEntity
  8
1
  6
CONTINUOUS
 62
           2
100
AcDbLine
 10
223.15381328079
 20
-33.227015834357
 11
106.15381328079
 21
-33.227015834357
  0
LINE
  5
153
100
AcDbEntity
  8
1
  6
CONTINUOUS
 62
           3
100
AcDbLine
 10
106.15381328079
 20
-49.227015834357
 11
223.15381328079
 21
-49.227015834357
  0
LINE
  5
152
100
AcDbEntity
  8
1
  6
CONTINUOUS
 62
           2
100
AcDbLine
 10
106.15381328079
 20
-33.227015834357
 11
106.15381328079
 21
-169.227015834357
  0
LINE
  5
151
100
AcDbEntity
  8
1
  6
CONTINUOUS
 62
           3
100
AcDbLine
 10
106.15381328079
 20
-129.227015834357
 11
223.15381328079
 21
-129.227015834357
  0
LINE
  5
150
100
AcDbEntity
  8
1
  6
CONTINUOUS
 62
           2
100
AcDbLine
 10
223.15381328079
 20
-169.227015834357
 11
223.15381328079
 21
-33.227015834357
  0
LINE
  5
14F
100
AcDbEntity
  8
1
  6
CONTINUOUS
 62
           3
100
AcDbLine
 10
223.15381328079
 20
-149.227015834357
 11
106.15381328079
 21
-149.227015834357
  0
LINE
  5
14E
100
AcDbEntity
  8
KONTUR
  6
CONTINUOUS
 62
           2
100
AcDbLine
 10
131.200527366092
 20
-139.046378610384
 11
127.713177457102
 21
-139.046378610384
  0
LINE
  5
14D
100
AcDbEntity
  8
KONTUR
  6
CONTINUOUS
 62
           2
100
AcDbLine
 10
127.616645347232
 20
-141.642978603624
 11
131.200527366092
 21
-139.060390257414
  0
LINE
  5
14C
100
AcDbEntity
  8
KONTUR
  6
CONTINUOUS
 62
           2
100
AcDbLine
 10
127.713177457102
 20
-137.844947434904
 11
133.465361560552
 21
-137.844947434904
  0
LINE
  5
14B
100
AcDbEntity
  8
KONTUR
  6
CONTINUOUS
 62
           2
100
AcDbLine
 10
133.465361560552
 20
-139.046378610384
 11
129.888485169672
 21
-141.628562981284
  0
LINE
  5
14A
100
AcDbEntity
  8
KONTUR
  6
CONTINUOUS
 62
           2
100
AcDbLine
 10
129.888485169672
 20
-141.642978603624
 11
133.548218734662
 21
-141.642978603624
  0
LINE
  5
149
100
AcDbEntity
  8
KONTUR
  6
CONTINUOUS
 62
           2
100
AcDbLine
 10
133.548218734662
 20
-142.844207595914
 11
127.616645347232
 21
-142.844207595914
  0
LINE
  5
148
100
AcDbEntity
  8
KONTUR
  6
CONTINUOUS
 62
           2
100
AcDbLine
 10
127.616645347232
 20
-142.844207595914
 11
127.616645347232
 21
-141.642978603624
  0
LINE
  5
147
100
AcDbEntity
  8
KONTUR
  6
CONTINUOUS
 62
           2
100
AcDbLine
 10
129.888485169672
 20
-141.628562981284
 11
129.888485169672
 21
-141.642978603624
  0
LINE
  5
146
100
AcDbEntity
  8
KONTUR
  6
CONTINUOUS
 62
           2
100
AcDbLine
 10
127.713177457102
 20
-139.046378610384
 11
127.713177457102
 21
-137.844947434904
  0
LINE
  5
145
100
AcDbEntity
  8
KONTUR
  6
CONTINUOUS
 62
           2
100
AcDbLine
 10
140.623493153102
 20
-139.046378610384
 11
137.046616762222
 21
-141.628562981284
  0
LINE
  5
144
100
AcDbEntity
  8
KONTUR
  6
CONTINUOUS
 62
           2
100
AcDbLine
 10
134.774776548712
 20
-141.642978603624
 11
138.358658958642
 21
-139.060390257414
  0
LINE
  5
143
100
AcDbEntity
  8
KONTUR
  6
CONTINUOUS
 62
           2
100
AcDbLine
 10
140.706350327212
 20
-142.844207595914
 11
134.774776548712
 21
-142.844207595914
  0
LINE
  5
142
100
AcDbEntity
  8
KONTUR
  6
CONTINUOUS
 62
           2
100
AcDbLine
 10
133.548218734662
 20
-141.642978603624
 11
133.548218734662
 21
-142.844207595914
  0
LINE
  5
141
100
AcDbEntity
  8
KONTUR
  6
CONTINUOUS
 62
           2
100
AcDbLine
 10
134.774776548712
 20
-142.844207595914
 11
134.774776548712
 21
-141.642978603624
  0
LINE
  5
140
100
AcDbEntity
  8
KONTUR
  6
CONTINUOUS
 62
           2
100
AcDbLine
 10
137.046616762222
 20
-141.642978603624
 11
140.706350327212
 21
-141.642978603624
  0
LINE
  5
13F
100
AcDbEntity
  8
KONTUR
  6
CONTINUOUS
 62
           2
100
AcDbLine
 10
137.046616762222
 20
-141.628562981284
 11
137.046616762222
 21
-141.642978603624
  0
LINE
  5
13E
100
AcDbEntity
  8
KONTUR
  6
CONTINUOUS
 62
           2
100
AcDbLine
 10
140.706350327212
 20
-141.642978603624
 11
140.706350327212
 21
-142.844207595914
  0
LINE
  5
13D
100
AcDbEntity
  8
KONTUR
  6
CONTINUOUS
 62
           2
100
AcDbLine
 10
138.358658958642
 20
-139.046378610384
 11
134.871510841772
 21
-139.046378610384
  0
LINE
  5
13C
100
AcDbEntity
  8
KONTUR
  6
CONTINUOUS
 62
           2
100
AcDbLine
 10
134.871510841772
 20
-137.844947434904
 11
140.623493153102
 21
-137.844947434904
  0
LINE
  5
13B
100
AcDbEntity
  8
KONTUR
  6
CONTINUOUS
 62
           2
100
AcDbLine
 10
133.465361560552
 20
-137.844947434904
 11
133.465361560552
 21
-139.046378610384
  0
LINE
  5
13A
100
AcDbEntity
  8
KONTUR
  6
CONTINUOUS
 62
           2
100
AcDbLine
 10
131.200527366092
 20
-139.060390257414
 11
131.200527366092
 21
-139.046378610384
  0
LINE
  5
139
100
AcDbEntity
  8
KONTUR
  6
CONTINUOUS
 62
           2
100
AcDbLine
 10
134.871510841772
 20
-139.046378610384
 11
134.871510841772
 21
-137.844947434904
  0
LINE
  5
138
100
AcDbEntity
  8
KONTUR
  6
CONTINUOUS
 62
           2
100
AcDbLine
 10
138.358658958642
 20
-139.060390257414
 11
138.358658958642
 21
-139.046378610384
  0
LINE
  5
137
100
AcDbEntity
  8
KONTUR
  6
CONTINUOUS
 62
           2
100
AcDbLine
 10
140.623493153102
 20
-137.844947434904
 11
140.623493153102
 21
-139.046378610384
  0
LINE
  5
136
100
AcDbEntity
  8
KONTUR
  6
CONTINUOUS
 62
           1
100
AcDbLine
 10
137.769439287217
 20
-134.935627346322
 11
137.995416632524
 21
-134.279175278563
  0
LINE
  5
135
100
AcDbEntity
  8
KONTUR
  6
CONTINUOUS
 62
           3
100
AcDbLine
 10
155.230093354392
 20
-137.844947434904
 11
159.808263417922
 21
-142.236722195405
  0
LINE
  5
134
100
AcDbEntity
  8
KONTUR
  6
CONTINUOUS
 62
           3
100
AcDbLine
 10
159.476766675302
 20
-142.844207595914
 11
154.898663875812
 21
-138.452567754564
  0
LINE
  5
133
100
AcDbEntity
  8
KONTUR
  6
CONTINUOUS
 62
           3
100
AcDbLine
 10
154.898663875812
 20
-138.452567754564
 11
154.898663875812
 21
-142.844207595914
  0
LINE
  5
132
100
AcDbEntity
  8
KONTUR
  6
CONTINUOUS
 62
           3
100
AcDbLine
 10
154.221861317802
 20
-142.844207595914
 11
154.221861317802
 21
-137.844947434904
  0
LINE
  5
131
100
AcDbEntity
  8
KONTUR
  6
CONTINUOUS
 62
           3
100
AcDbLine
 10
149.363727760902
 20
-138.397262244094
 11
151.041621808372
 21
-141.235159075524
  0
LINE
  5
130
100
AcDbEntity
  8
KONTUR
  6
CONTINUOUS
 62
           3
100
AcDbLine
 10
147.685631139172
 20
-141.235159075524
 11
149.363727760902
 21
-138.397262244094
  0
LINE
  5
12F
100
AcDbEntity
  8
KONTUR
  6
CONTINUOUS
 62
           3
100
AcDbLine
 10
145.973111753902
 20
-142.844207986984
 11
148.942367825122
 21
-137.844947434904
  0
LINE
  5
12E
100
AcDbEntity
  8
KONTUR
  6
CONTINUOUS
 62
           3
100
AcDbLine
 10
149.784952777532
 20
-137.844947434904
 11
152.754073929602
 21
-142.844207986984
  0
LINE
  5
12D
100
AcDbEntity
  8
KONTUR
  6
CONTINUOUS
 62
           3
100
AcDbLine
 10
151.041621808372
 20
-141.235159075524
 11
147.685631139172
 21
-141.235159075524
  0
LINE
  5
12C
100
AcDbEntity
  8
KONTUR
  6
CONTINUOUS
 62
           3
100
AcDbLine
 10
151.366247451092
 20
-141.787810595984
 11
147.361207679642
 21
-141.787810595984
  0
LINE
  5
12B
100
AcDbEntity
  8
KONTUR
  6
CONTINUOUS
 62
           4
100
AcDbLine
 10
145.039945490623
 20
-145.291503570283
 11
144.372702443683
 21
-147.2289408839
  0
LINE
  5
12A
100
AcDbEntity
  8
KONTUR
  6
CONTINUOUS
 62
           3
100
AcDbLine
 10
146.739642976992
 20
-142.844207986984
 11
145.973111753902
 21
-142.844207986984
  0
LINE
  5
129
100
AcDbEntity
  8
KONTUR
  6
CONTINUOUS
 62
           3
100
AcDbLine
 10
147.361207679642
 20
-141.787810595984
 11
146.739642976992
 21
-142.844207986984
  0
LINE
  5
128
100
AcDbEntity
  8
KONTUR
  6
CONTINUOUS
 62
           3
100
AcDbLine
 10
151.987609970552
 20
-142.844207986984
 11
151.366247451092
 21
-141.787810595984
  0
LINE
  5
127
100
AcDbEntity
  8
KONTUR
  6
CONTINUOUS
 62
           3
100
AcDbLine
 10
152.754073929602
 20
-142.844207986984
 11
151.987609970552
 21
-142.844207986984
  0
LINE
  5
126
100
AcDbEntity
  8
KONTUR
  6
CONTINUOUS
 62
           3
100
AcDbLine
 10
154.898663875812
 20
-142.844207595914
 11
154.221861317802
 21
-142.844207595914
  0
LINE
  5
125
100
AcDbEntity
  8
KONTUR
  6
CONTINUOUS
 62
           3
100
AcDbLine
 10
148.942367825122
 20
-137.844947434904
 11
149.784952777532
 21
-137.844947434904
  0
LINE
  5
124
100
AcDbEntity
  8
KONTUR
  6
CONTINUOUS
 62
           3
100
AcDbLine
 10
154.221861317802
 20
-137.844947434904
 11
155.230093354392
 21
-137.844947434904
  0
LINE
  5
123
100
AcDbEntity
  8
KONTUR
  6
CONTINUOUS
 62
           4
100
AcDbLine
 10
153.826660694228
 20
-132.808386951346
 11
153.290443652315
 21
-134.365600611284
  0
LINE
  5
122
100
AcDbEntity
  8
KONTUR
  6
CONTINUOUS
 62
           3
100
AcDbLine
 10
165.170815876832
 20
-138.397262244094
 11
165.170815876832
 21
-142.844207595914
  0
LINE
  5
121
100
AcDbEntity
  8
KONTUR
  6
CONTINUOUS
 62
           3
100
AcDbLine
 10
164.494215110942
 20
-142.844207595914
 11
164.494215110942
 21
-138.397262244094
  0
LINE
  5
120
100
AcDbEntity
  8
KONTUR
  6
CONTINUOUS
 62
           3
100
AcDbLine
 10
159.808263417922
 20
-142.236722195405
 11
159.808263417922
 21
-137.844947434904
  0
LINE
  5
11F
100
AcDbEntity
  8
KONTUR
  6
CONTINUOUS
 62
           3
100
AcDbLine
 10
160.484931447853
 20
-137.844947434904
 11
160.484931447853
 21
-142.844207595914
  0
LINE
  5
11E
100
AcDbEntity
  8
KONTUR
  6
CONTINUOUS
 62
           3
100
AcDbLine
 10
160.484931447853
 20
-142.844207595914
 11
159.476766675302
 21
-142.844207595914
  0
LINE
  5
11D
100
AcDbEntity
  8
KONTUR
  6
CONTINUOUS
 62
           3
100
AcDbLine
 10
165.170815876832
 20
-142.844207595914
 11
164.494215110942
 21
-142.844207595914
  0
LINE
  5
11C
100
AcDbEntity
  8
KONTUR
  6
CONTINUOUS
 62
           3
100
AcDbLine
 10
164.494215110942
 20
-138.397262244094
 11
161.966865011162
 21
-138.397262244094
  0
LINE
  5
11B
100
AcDbEntity
  8
KONTUR
  6
CONTINUOUS
 62
           3
100
AcDbLine
 10
161.966865011162
 20
-137.844947434904
 11
167.698705262142
 21
-137.844947434904
  0
LINE
  5
11A
100
AcDbEntity
  8
KONTUR
  6
CONTINUOUS
 62
           3
100
AcDbLine
 10
159.808263417922
 20
-137.844947434904
 11
160.484931447853
 21
-137.844947434904
  0
LINE
  5
119
100
AcDbEntity
  8
KONTUR
  6
CONTINUOUS
 62
           3
100
AcDbLine
 10
161.966865011162
 20
-138.397262244094
 11
161.966865011162
 21
-137.844947434904
  0
LINE
  5
118
100
AcDbEntity
  8
KONTUR
  6
CONTINUOUS
 62
           3
100
AcDbLine
 10
167.698705262142
 20
-138.397262244094
 11
165.170815876832
 21
-138.397262244094
  0
LINE
  5
117
100
AcDbEntity
  8
KONTUR
  6
CONTINUOUS
 62
           3
100
AcDbLine
 10
167.698705262142
 20
-137.844947434904
 11
167.698705262142
 21
-138.397262244094
  0
LINE
  5
116
100
AcDbEntity
  8
KONTUR
  6
CONTINUOUS
 62
           3
100
AcDbLine
 10
185.854293479402
 20
-138.397262244094
 11
181.621564150413
 21
-138.397262244094
  0
LINE
  5
115
100
AcDbEntity
  8
KONTUR
  6
CONTINUOUS
 62
           3
100
AcDbLine
 10
181.621564150413
 20
-139.992029670224
 11
185.688578740113
 21
-139.992029670224
  0
LINE
  5
114
100
AcDbEntity
  8
KONTUR
  6
CONTINUOUS
 62
           3
100
AcDbLine
 10
185.688578740113
 20
-140.544816109834
 11
181.621564150413
 21
-140.544816109834
  0
LINE
  5
113
100
AcDbEntity
  8
KONTUR
  6
CONTINUOUS
 62
           3
100
AcDbLine
 10
180.944963384523
 20
-137.844947434904
 11
185.854293479402
 21
-137.844947434904
  0
LINE
  5
112
100
AcDbEntity
  8
KONTUR
  6
CONTINUOUS
 62
           3
100
AcDbLine
 10
181.621564150413
 20
-142.291421547374
 11
185.881642959852
 21
-142.291421547374
  0
LINE
  5
111
100
AcDbEntity
  8
KONTUR
  6
CONTINUOUS
 62
           3
100
AcDbLine
 10
185.881642959852
 20
-142.844207595914
 11
180.944963384523
 21
-142.844207595914
  0
LINE
  5
110
100
AcDbEntity
  8
KONTUR
  6
CONTINUOUS
 62
           3
100
AcDbLine
 10
178.165942532663
 20
-137.844947434904
 11
178.165942532663
 21
-142.844207595914
  0
LINE
  5
10F
100
AcDbEntity
  8
KONTUR
  6
CONTINUOUS
 62
           3
100
AcDbLine
 10
177.489341766772
 20
-142.844207595914
 11
177.489341766772
 21
-137.844947434904
  0
LINE
  5
10E
100
AcDbEntity
  8
KONTUR
  6
CONTINUOUS
 62
           3
100
AcDbLine
 10
181.621564150413
 20
-140.544816109834
 11
181.621564150413
 21
-142.291421547374
  0
LINE
  5
10D
100
AcDbEntity
  8
KONTUR
  6
CONTINUOUS
 62
           3
100
AcDbLine
 10
180.944963384523
 20
-142.844207595914
 11
180.944963384523
 21
-137.844947434904
  0
LINE
  5
10C
100
AcDbEntity
  8
KONTUR
  6
CONTINUOUS
 62
           3
100
AcDbLine
 10
169.855690099526
 20
-140.869104963122
 11
169.855690099526
 21
-142.844207902032
  0
LINE
  5
10B
100
AcDbEntity
  8
KONTUR
  6
CONTINUOUS
 62
           3
100
AcDbLine
 10
169.179089351967
 20
-142.844207902032
 11
169.179089351967
 21
-137.844947519857
  0
LINE
  5
10A
100
AcDbEntity
  8
KONTUR
  6
CONTINUOUS
 62
           3
100
AcDbLine
 10
169.855690099526
 20
-142.844207902032
 11
169.179089351967
 21
-142.844207902032
  0
LINE
  5
109
100
AcDbEntity
  8
KONTUR
  6
CONTINUOUS
 62
           3
100
AcDbLine
 10
174.786037442597
 20
-142.844207902032
 11
174.150393809188
 21
-142.844207902032
  0
LINE
  5
108
100
AcDbEntity
  8
KONTUR
  6
CONTINUOUS
 62
           3
100
AcDbLine
 10
178.165942532663
 20
-142.844207595914
 11
177.489341766772
 21
-142.844207595914
  0
LINE
  5
107
100
AcDbEntity
  8
KONTUR
  6
CONTINUOUS
 62
           3
100
AcDbLine
 10
169.179089351967
 20
-137.844947519857
 11
172.767933005622
 21
-137.844947519857
  0
LINE
  5
106
100
AcDbEntity
  8
KONTUR
  6
CONTINUOUS
 62
           3
100
AcDbLine
 10
169.855690099526
 20
-140.317127013551
 11
169.855690099526
 21
-138.397262287802
  0
LINE
  5
105
100
AcDbEntity
  8
KONTUR
  6
CONTINUOUS
 62
           3
100
AcDbLine
 10
173.929979865937
 20
-140.614066091133
 11
173.929979865937
 21
-140.627673553399
  0
LINE
  5
104
100
AcDbEntity
  8
KONTUR
  6
CONTINUOUS
 62
           3
100
AcDbLine
 10
177.489341766772
 20
-137.844947434904
 11
178.165942532663
 21
-137.844947434904
  0
LINE
  5
103
100
AcDbEntity
  8
KONTUR
  6
CONTINUOUS
 62
           3
100
AcDbLine
 10
181.621564150413
 20
-138.397262244094
 11
181.621564150413
 21
-139.992029670224
  0
LINE
  5
102
100
AcDbEntity
  8
KONTUR
  6
CONTINUOUS
 62
           3
100
AcDbLine
 10
189.019443018046
 20
-142.291421588366
 11
189.019443018046
 21
-140.544816233657
  0
LINE
  5
101
100
AcDbEntity
  8
KONTUR
  6
CONTINUOUS
 62
           3
100
AcDbLine
 10
189.019443018046
 20
-142.291421588366
 11
189.019443018046
 21
-140.544816233657
  0
LINE
  5
100
100
AcDbEntity
  8
KONTUR
  6
CONTINUOUS
 62
           3
100
AcDbLine
 10
188.345719670782
 20
-142.844207900807
 11
188.345719670782
 21
-137.844947571204
  0
LINE
  5
FF
100
AcDbEntity
  8
KONTUR
  6
CONTINUOUS
 62
           3
100
AcDbLine
 10
185.881642959852
 20
-142.291421547374
 11
185.881642959852
 21
-142.844207595914
  0
LINE
  5
FE
100
AcDbEntity
  8
KONTUR
  6
CONTINUOUS
 62
           3
100
AcDbLine
 10
185.688578740113
 20
-139.992029670224
 11
185.688578740113
 21
-140.544816109834
  0
LINE
  5
FD
100
AcDbEntity
  8
KONTUR
  6
CONTINUOUS
 62
           3
100
AcDbLine
 10
185.854293479402
 20
-137.844947434904
 11
185.854293479402
 21
-138.397262244094
  0
LINE
  5
FC
100
AcDbEntity
  8
KONTUR
  6
CONTINUOUS
 62
           3
100
AcDbLine
 10
189.019443018046
 20
-139.99202991999
 11
189.019443018046
 21
-138.397262287802
  0
LINE
  5
FB
100
AcDbEntity
  8
KONTUR
  6
CONTINUOUS
 62
           3
100
AcDbLine
 10
193.128222985847
 20
-140.172295113187
 11
193.128222985847
 21
-140.199644765069
  0
LINE
  5
FA
100
AcDbEntity
  8
KONTUR
  6
CONTINUOUS
 62
           1
100
AcDbLine
 10
147.860826712262
 20
-130.630570236869
 11
148.524669652167
 21
-130.859170372628
  0
LINE
  5
F9
100
AcDbEntity
  8
KONTUR
  6
CONTINUOUS
 62
           3
100
AcDbLine
 10
197.441518860412
 20
-140.544816109834
 11
197.441518860412
 21
-142.291421547374
  0
LINE
  5
F8
100
AcDbEntity
  8
KONTUR
  6
CONTINUOUS
 62
           3
100
AcDbLine
 10
196.763975224752
 20
-142.844207595914
 11
196.763975224752
 21
-137.844947434904
  0
LINE
  5
F7
100
AcDbEntity
  8
KONTUR
  6
CONTINUOUS
 62
           3
100
AcDbLine
 10
197.441518860412
 20
-142.291421547374
 11
201.701597669852
 21
-142.291421547374
  0
LINE
  5
F6
100
AcDbEntity
  8
KONTUR
  6
CONTINUOUS
 62
           3
100
AcDbLine
 10
201.701597669852
 20
-142.844207595914
 11
196.763975224752
 21
-142.844207595914
  0
LINE
  5
F5
100
AcDbEntity
  8
KONTUR
  6
CONTINUOUS
 62
           3
100
AcDbLine
 10
201.701597669852
 20
-142.291421547374
 11
201.701597669852
 21
-142.844207595914
  0
LINE
  5
F4
100
AcDbEntity
  8
KONTUR
  6
CONTINUOUS
 62
           3
100
AcDbLine
 10
201.674248189403
 20
-138.397262244094
 11
197.441518860412
 21
-138.397262244094
  0
LINE
  5
F3
100
AcDbEntity
  8
KONTUR
  6
CONTINUOUS
 62
           3
100
AcDbLine
 10
197.441518860412
 20
-139.992029670224
 11
201.508533450113
 21
-139.992029670224
  0
LINE
  5
F2
100
AcDbEntity
  8
KONTUR
  6
CONTINUOUS
 62
           3
100
AcDbLine
 10
201.508533450113
 20
-140.544816109834
 11
197.441518860412
 21
-140.544816109834
  0
LINE
  5
F1
100
AcDbEntity
  8
KONTUR
  6
CONTINUOUS
 62
           3
100
AcDbLine
 10
196.763975224752
 20
-137.844947434904
 11
201.674248189403
 21
-137.844947434904
  0
LINE
  5
F0
100
AcDbEntity
  8
KONTUR
  6
CONTINUOUS
 62
           3
100
AcDbLine
 10
197.441518860412
 20
-138.397262244094
 11
197.441518860412
 21
-139.992029670224
  0
LINE
  5
EF
100
AcDbEntity
  8
KONTUR
  6
CONTINUOUS
 62
           3
100
AcDbLine
 10
201.508533450113
 20
-139.992029670224
 11
201.508533450113
 21
-140.544816109834
  0
LINE
  5
EE
100
AcDbEntity
  8
KONTUR
  6
CONTINUOUS
 62
           3
100
AcDbLine
 10
201.674248189403
 20
-137.844947434904
 11
201.674248189403
 21
-138.397262244094
  0
LINE
  5
ED
100
AcDbEntity
  8
KONTUR
  6
CONTINUOUS
 62
           3
100
AcDbLine
 10
173.92997971709
 20
-140.627675276483
 11
174.039579537131
 21
-140.652357333482
  0
LINE
  5
EC
100
AcDbEntity
  8
KONTUR
  6
CONTINUOUS
 62
           3
100
AcDbLine
 10
174.039579537131
 20
-140.652357333482
 11
174.147874020221
 21
-140.680750276959
  0
LINE
  5
EB
100
AcDbEntity
  8
KONTUR
  6
CONTINUOUS
 62
           3
100
AcDbLine
 10
174.147874020221
 20
-140.680750276959
 11
174.253550370338
 21
-140.716572452462
  0
LINE
  5
EA
100
AcDbEntity
  8
KONTUR
  6
CONTINUOUS
 62
           3
100
AcDbLine
 10
174.253550370338
 20
-140.716572452462
 11
174.355392759349
 21
-140.76284478265
  0
LINE
  5
E9
100
AcDbEntity
  8
KONTUR
  6
CONTINUOUS
 62
           3
100
AcDbLine
 10
174.355392759349
 20
-140.76284478265
 11
174.451741544559
 21
-140.820163992989
  0
LINE
  5
E8
100
AcDbEntity
  8
KONTUR
  6
CONTINUOUS
 62
           3
100
AcDbLine
 10
174.451741544559
 20
-140.820163992989
 11
174.53977719815
 21
-140.889723534406
  0
LINE
  5
E7
100
AcDbEntity
  8
KONTUR
  6
CONTINUOUS
 62
           3
100
AcDbLine
 10
174.53977719815
 20
-140.889723534406
 11
174.616325886562
 21
-140.971907548917
  0
LINE
  5
E6
100
AcDbEntity
  8
KONTUR
  6
CONTINUOUS
 62
           3
100
AcDbLine
 10
174.616325886562
 20
-140.971907548917
 11
174.677672993781
 21
-141.065026557553
  0
LINE
  5
E5
100
AcDbEntity
  8
KONTUR
  6
CONTINUOUS
 62
           3
100
AcDbLine
 10
174.677672993781
 20
-141.065026557553
 11
174.72260642121
 21
-141.166939807713
  0
LINE
  5
E4
100
AcDbEntity
  8
KONTUR
  6
CONTINUOUS
 62
           3
100
AcDbLine
 10
174.72260642121
 20
-141.166939807713
 11
174.753483234432
 21
-141.275264127077
  0
LINE
  5
E3
100
AcDbEntity
  8
KONTUR
  6
CONTINUOUS
 62
           3
100
AcDbLine
 10
174.753483234432
 20
-141.275264127077
 11
174.772925295951
 21
-141.387605154718
  0
LINE
  5
E2
100
AcDbEntity
  8
KONTUR
  6
CONTINUOUS
 62
           3
100
AcDbLine
 10
174.772925295951
 20
-141.387605154718
 11
174.783535820605
 21
-141.501561070646
  0
LINE
  5
E1
100
AcDbEntity
  8
KONTUR
  6
CONTINUOUS
 62
           3
100
AcDbLine
 10
174.783535820605
 20
-141.501561070646
 11
174.787918023231
 21
-141.614838211358
  0
LINE
  5
E0
100
AcDbEntity
  8
KONTUR
  6
CONTINUOUS
 62
           3
100
AcDbLine
 10
174.787918023231
 20
-141.614838211358
 11
174.78833946059
 21
-141.726795096982
  0
LINE
  5
DF
100
AcDbEntity
  8
KONTUR
  6
CONTINUOUS
 62
           3
100
AcDbLine
 10
174.78833946059
 20
-141.726795096982
 11
174.786825269725
 21
-141.838084395993
  0
LINE
  5
DE
100
AcDbEntity
  8
KONTUR
  6
CONTINUOUS
 62
           3
100
AcDbLine
 10
174.786825269725
 20
-141.838084395993
 11
174.785329726531
 21
-141.949384883607
  0
LINE
  5
DD
100
AcDbEntity
  8
KONTUR
  6
CONTINUOUS
 62
           3
100
AcDbLine
 10
174.785329726531
 20
-141.949384883607
 11
174.784665869453
 21
-142.060976274884
  0
LINE
  5
DC
100
AcDbEntity
  8
KONTUR
  6
CONTINUOUS
 62
           3
100
AcDbLine
 10
174.784665869453
 20
-142.060976274884
 11
174.784639762714
 21
-142.172791438211
  0
LINE
  5
DB
100
AcDbEntity
  8
KONTUR
  6
CONTINUOUS
 62
           3
100
AcDbLine
 10
174.784639762714
 20
-142.172791438211
 11
174.785008986595
 21
-142.284740864767
  0
LINE
  5
DA
100
AcDbEntity
  8
KONTUR
  6
CONTINUOUS
 62
           3
100
AcDbLine
 10
174.785008986595
 20
-142.284740864767
 11
174.785546039512
 21
-142.396749963868
  0
LINE
  5
D9
100
AcDbEntity
  8
KONTUR
  6
CONTINUOUS
 62
           3
100
AcDbLine
 10
174.785546039512
 20
-142.396749963868
 11
174.786008501746
 21
-142.508732956232
  0
LINE
  5
D8
100
AcDbEntity
  8
KONTUR
  6
CONTINUOUS
 62
           3
100
AcDbLine
 10
174.786008501746
 20
-142.508732956232
 11
174.786206167056
 21
-142.620622710241
  0
LINE
  5
D7
100
AcDbEntity
  8
KONTUR
  6
CONTINUOUS
 62
           3
100
AcDbLine
 10
174.786206167056
 20
-142.620622710241
 11
174.786180060317
 21
-142.732434144033
  0
LINE
  5
D6
100
AcDbEntity
  8
KONTUR
  6
CONTINUOUS
 62
           3
100
AcDbLine
 10
174.786180060317
 20
-142.732434144033
 11
174.78603833802
 21
-142.844208282483
  0
LINE
  5
D5
100
AcDbEntity
  8
KONTUR
  6
CONTINUOUS
 62
           3
100
AcDbLine
 10
174.150395185306
 20
-142.844208282483
 11
174.150100552108
 21
-142.596026432527
  0
LINE
  5
D4
100
AcDbEntity
  8
KONTUR
  6
CONTINUOUS
 62
           3
100
AcDbLine
 10
174.150100552108
 20
-142.596026432527
 11
174.149917804935
 21
-142.347859500707
  0
LINE
  5
D3
100
AcDbEntity
  8
KONTUR
  6
CONTINUOUS
 62
           3
100
AcDbLine
 10
174.149917804935
 20
-142.347859500707
 11
174.151294003036
 21
-142.099890234197
  0
LINE
  5
D2
100
AcDbEntity
  8
KONTUR
  6
CONTINUOUS
 62
           3
100
AcDbLine
 10
174.151294003036
 20
-142.099890234197
 11
174.151901917102
 21
-141.851823999799
  0
LINE
  5
D1
100
AcDbEntity
  8
KONTUR
  6
CONTINUOUS
 62
           3
100
AcDbLine
 10
174.151901917102
 20
-141.851823999799
 11
174.144532357623
 21
-141.603138662732
  0
LINE
  5
D0
100
AcDbEntity
  8
KONTUR
  6
CONTINUOUS
 62
           3
100
AcDbLine
 10
174.144532357623
 20
-141.603138662732
 11
174.106767094829
 21
-141.357929251493
  0
LINE
  5
CF
100
AcDbEntity
  8
KONTUR
  6
CONTINUOUS
 62
           3
100
AcDbLine
 10
174.106767094829
 20
-141.357929251493
 11
174.002593746975
 21
-141.13306817857
  0
LINE
  5
CE
100
AcDbEntity
  8
KONTUR
  6
CONTINUOUS
 62
           3
100
AcDbLine
 10
174.002593746975
 20
-141.13306817857
 11
173.813834564617
 21
-140.972668373883
  0
LINE
  5
CD
100
AcDbEntity
  8
KONTUR
  6
CONTINUOUS
 62
           3
100
AcDbLine
 10
173.813834564617
 20
-140.972668373883
 11
173.576412420681
 21
-140.897495883573
  0
LINE
  5
CC
100
AcDbEntity
  8
KONTUR
  6
CONTINUOUS
 62
           3
100
AcDbLine
 10
173.576412420681
 20
-140.897495883573
 11
173.329714925315
 21
-140.872619890798
  0
LINE
  5
CB
100
AcDbEntity
  8
KONTUR
  6
CONTINUOUS
 62
           3
100
AcDbLine
 10
173.329714925315
 20
-140.872619890798
 11
173.081510698154
 21
-140.866816735662
  0
LINE
  5
CA
100
AcDbEntity
  8
KONTUR
  6
CONTINUOUS
 62
           3
100
AcDbLine
 10
173.081510698154
 20
-140.866816735662
 11
172.833381061676
 21
-140.867185959542
  0
LINE
  5
C9
100
AcDbEntity
  8
KONTUR
  6
CONTINUOUS
 62
           3
100
AcDbLine
 10
172.833381061676
 20
-140.867185959542
 11
172.585273802402
 21
-140.869237203324
  0
LINE
  5
C8
100
AcDbEntity
  8
KONTUR
  6
CONTINUOUS
 62
           3
100
AcDbLine
 10
172.585273802402
 20
-140.869237203324
 11
172.337140436389
 21
-140.869751879037
  0
LINE
  5
C7
100
AcDbEntity
  8
KONTUR
  6
CONTINUOUS
 62
           3
100
AcDbLine
 10
172.337140436389
 20
-140.869751879037
 11
172.088988422706
 21
-140.869255850996
  0
LINE
  5
C6
100
AcDbEntity
  8
KONTUR
  6
CONTINUOUS
 62
           3
100
AcDbLine
 10
172.088988422706
 20
-140.869255850996
 11
171.840836409022
 21
-140.868912733853
  0
LINE
  5
C5
100
AcDbEntity
  8
KONTUR
  6
CONTINUOUS
 62
           3
100
AcDbLine
 10
171.840836409022
 20
-140.868912733853
 11
171.592695583942
 21
-140.868957488263
  0
LINE
  5
C4
100
AcDbEntity
  8
KONTUR
  6
CONTINUOUS
 62
           3
100
AcDbLine
 10
171.592695583942
 20
-140.868957488263
 11
171.344554758861
 21
-140.869117858232
  0
LINE
  5
C3
100
AcDbEntity
  8
KONTUR
  6
CONTINUOUS
 62
           3
100
AcDbLine
 10
171.344554758861
 20
-140.869117858232
 11
171.096410204246
 21
-140.869177530778
  0
LINE
  5
C2
100
AcDbEntity
  8
KONTUR
  6
CONTINUOUS
 62
           3
100
AcDbLine
 10
171.096410204246
 20
-140.869177530778
 11
170.848265649631
 21
-140.869155153573
  0
LINE
  5
C1
100
AcDbEntity
  8
KONTUR
  6
CONTINUOUS
 62
           3
100
AcDbLine
 10
170.848265649631
 20
-140.869155153573
 11
170.600121095016
 21
-140.869110399163
  0
LINE
  5
C0
100
AcDbEntity
  8
KONTUR
  6
CONTINUOUS
 62
           3
100
AcDbLine
 10
170.600121095016
 20
-140.869110399163
 11
170.351976540401
 21
-140.869099210561
  0
LINE
  5
BF
100
AcDbEntity
  8
KONTUR
  6
CONTINUOUS
 62
           3
100
AcDbLine
 10
170.351976540401
 20
-140.869099210561
 11
170.10383571532
 21
-140.869106669629
  0
LINE
  5
BE
100
AcDbEntity
  8
KONTUR
  6
CONTINUOUS
 62
           3
100
AcDbLine
 10
170.10383571532
 20
-140.869106669629
 11
169.855691160705
 21
-140.869106669629
  0
LINE
  5
BD
100
AcDbEntity
  8
KONTUR
  6
CONTINUOUS
 62
           3
100
AcDbLine
 10
169.855691160705
 20
-138.397260944379
 11
170.269132398345
 21
-138.397264673913
  0
LINE
  5
BC
100
AcDbEntity
  8
KONTUR
  6
CONTINUOUS
 62
           3
100
AcDbLine
 10
170.269132398345
 20
-138.397264673913
 11
170.682562447383
 21
-138.397272132982
  0
LINE
  5
BB
100
AcDbEntity
  8
KONTUR
  6
CONTINUOUS
 62
           3
100
AcDbLine
 10
170.682562447383
 20
-138.397272132982
 11
171.096014873626
 21
-138.397268403447
  0
LINE
  5
BA
100
AcDbEntity
  8
KONTUR
  6
CONTINUOUS
 62
           3
100
AcDbLine
 10
171.096014873626
 20
-138.397268403447
 11
171.509512054279
 21
-138.397253485311
  0
LINE
  5
B9
100
AcDbEntity
  8
KONTUR
  6
CONTINUOUS
 62
           3
100
AcDbLine
 10
171.509512054279
 20
-138.397253485311
 11
171.922964480522
 21
-138.397249755777
  0
LINE
  5
B8
100
AcDbEntity
  8
KONTUR
  6
CONTINUOUS
 62
           3
100
AcDbLine
 10
171.922964480522
 20
-138.397249755777
 11
172.336219241454
 21
-138.397324346459
  0
LINE
  5
B7
100
AcDbEntity
  8
KONTUR
  6
CONTINUOUS
 62
           3
100
AcDbLine
 10
172.336219241454
 20
-138.397324346459
 11
172.749686585834
 21
-138.397316887391
  0
LINE
  5
B6
100
AcDbEntity
  8
KONTUR
  6
CONTINUOUS
 62
           3
100
AcDbLine
 10
172.749686585834
 20
-138.397316887391
 11
173.162725033786
 21
-138.401087446416
  0
LINE
  5
B5
100
AcDbEntity
  8
KONTUR
  6
CONTINUOUS
 62
           3
100
AcDbLine
 10
173.162725033786
 20
-138.401087446416
 11
173.578310753562
 21
-138.43655158664
  0
LINE
  5
B4
100
AcDbEntity
  8
KONTUR
  6
CONTINUOUS
 62
           3
100
AcDbLine
 10
173.578310753562
 20
-138.43655158664
 11
173.963187489154
 21
-138.583014122213
  0
LINE
  5
B3
100
AcDbEntity
  8
KONTUR
  6
CONTINUOUS
 62
           3
100
AcDbLine
 10
173.963187489154
 20
-138.583014122213
 11
174.160162835243
 21
-138.937815894425
  0
LINE
  5
B2
100
AcDbEntity
  8
KONTUR
  6
CONTINUOUS
 62
           3
100
AcDbLine
 10
174.160162835243
 20
-138.937815894425
 11
174.171004591014
 21
-139.354557769788
  0
LINE
  5
B1
100
AcDbEntity
  8
KONTUR
  6
CONTINUOUS
 62
           3
100
AcDbLine
 10
174.171004591014
 20
-139.354557769788
 11
174.157328389289
 21
-139.767741669572
  0
LINE
  5
B0
100
AcDbEntity
  8
KONTUR
  6
CONTINUOUS
 62
           3
100
AcDbLine
 10
174.157328389289
 20
-139.767741669572
 11
173.956202071693
 21
-140.121074005331
  0
LINE
  5
AF
100
AcDbEntity
  8
KONTUR
  6
CONTINUOUS
 62
           3
100
AcDbLine
 10
173.956202071693
 20
-140.121074005331
 11
173.57476769612
 21
-140.279896217073
  0
LINE
  5
AE
100
AcDbEntity
  8
KONTUR
  6
CONTINUOUS
 62
           3
100
AcDbLine
 10
173.57476769612
 20
-140.279896217073
 11
173.16332175925
 21
-140.316251715958
  0
LINE
  5
AD
100
AcDbEntity
  8
KONTUR
  6
CONTINUOUS
 62
           3
100
AcDbLine
 10
173.16332175925
 20
-140.316251715958
 11
172.749820849063
 21
-140.317277337849
  0
LINE
  5
AC
100
AcDbEntity
  8
KONTUR
  6
CONTINUOUS
 62
           3
100
AcDbLine
 10
172.749820849063
 20
-140.317277337849
 11
172.336401988628
 21
-140.316777580275
  0
LINE
  5
AB
100
AcDbEntity
  8
KONTUR
  6
CONTINUOUS
 62
           3
100
AcDbLine
 10
172.336401988628
 20
-140.316777580275
 11
171.922930914714
 21
-140.317180369962
  0
LINE
  5
AA
100
AcDbEntity
  8
KONTUR
  6
CONTINUOUS
 62
           3
100
AcDbLine
 10
171.922930914714
 20
-140.317180369962
 11
171.50948594754
 21
-140.317116967882
  0
LINE
  5
A9
100
AcDbEntity
  8
KONTUR
  6
CONTINUOUS
 62
           3
100
AcDbLine
 10
171.50948594754
 20
-140.317116967882
 11
171.096037250831
 21
-140.317094590677
  0
LINE
  5
A8
100
AcDbEntity
  8
KONTUR
  6
CONTINUOUS
 62
           3
100
AcDbLine
 10
171.096037250831
 20
-140.317094590677
 11
170.682588554122
 21
-140.317124426949
  0
LINE
  5
A7
100
AcDbEntity
  8
KONTUR
  6
CONTINUOUS
 62
           3
100
AcDbLine
 10
170.682588554122
 20
-140.317124426949
 11
170.269139857414
 21
-140.317128156484
  0
LINE
  5
A6
100
AcDbEntity
  8
KONTUR
  6
CONTINUOUS
 62
           3
100
AcDbLine
 10
170.269139857414
 20
-140.317128156484
 11
169.855691160705
 21
-140.317128156484
  0
LINE
  5
A5
100
AcDbEntity
  8
KONTUR
  6
CONTINUOUS
 62
           3
100
AcDbLine
 10
172.767931466892
 20
-137.84494677316
 11
172.970926281097
 21
-137.844488040459
  0
LINE
  5
A4
100
AcDbEntity
  8
KONTUR
  6
CONTINUOUS
 62
           3
100
AcDbLine
 10
172.970926281097
 20
-137.844488040459
 11
173.173421337726
 21
-137.845487555612
  0
LINE
  5
A3
100
AcDbEntity
  8
KONTUR
  6
CONTINUOUS
 62
           3
100
AcDbLine
 10
173.173421337726
 20
-137.845487555612
 11
173.375442743518
 21
-137.849948078454
  0
LINE
  5
A2
100
AcDbEntity
  8
KONTUR
  6
CONTINUOUS
 62
           3
100
AcDbLine
 10
173.375442743518
 20
-137.849948078454
 11
173.577893045738
 21
-137.860793563759
  0
LINE
  5
A1
100
AcDbEntity
  8
KONTUR
  6
CONTINUOUS
 62
           3
100
AcDbLine
 10
173.577893045738
 20
-137.860793563759
 11
173.781749382331
 21
-137.881063581861
  0
LINE
  5
A0
100
AcDbEntity
  8
KONTUR
  6
CONTINUOUS
 62
           3
100
AcDbLine
 10
173.781749382331
 20
-137.881063581861
 11
173.985527398708
 21
-137.915360377897
  0
LINE
  5
9F
100
AcDbEntity
  8
KONTUR
  6
CONTINUOUS
 62
           3
100
AcDbLine
 10
173.985527398708
 20
-137.915360377897
 11
174.182678032901
 21
-137.971530891717
  0
LINE
  5
9E
100
AcDbEntity
  8
KONTUR
  6
CONTINUOUS
 62
           3
100
AcDbLine
 10
174.182678032901
 20
-137.971530891717
 11
174.366007013538
 21
-138.057836041463
  0
LINE
  5
9D
100
AcDbEntity
  8
KONTUR
  6
CONTINUOUS
 62
           3
100
AcDbLine
 10
174.366007013538
 20
-138.057836041463
 11
174.528189535549
 21
-138.181365671552
  0
LINE
  5
9C
100
AcDbEntity
  8
KONTUR
  6
CONTINUOUS
 62
           3
100
AcDbLine
 10
174.528189535549
 20
-138.181365671552
 11
174.660532054832
 21
-138.338476027119
  0
LINE
  5
9B
100
AcDbEntity
  8
KONTUR
  6
CONTINUOUS
 62
           3
100
AcDbLine
 10
174.660532054832
 20
-138.338476027119
 11
174.753777867629
 21
-138.519735116303
  0
LINE
  5
9A
100
AcDbEntity
  8
KONTUR
  6
CONTINUOUS
 62
           3
100
AcDbLine
 10
174.753777867629
 20
-138.519735116303
 11
174.807453323104
 21
-138.715897423947
  0
LINE
  5
99
100
AcDbEntity
  8
KONTUR
  6
CONTINUOUS
 62
           3
100
AcDbLine
 10
174.807453323104
 20
-138.715897423947
 11
174.834007606246
 21
-138.918135142721
  0
LINE
  5
98
100
AcDbEntity
  8
KONTUR
  6
CONTINUOUS
 62
           3
100
AcDbLine
 10
174.834007606246
 20
-138.918135142721
 11
174.84495005944
 21
-139.120443722642
  0
LINE
  5
97
100
AcDbEntity
  8
KONTUR
  6
CONTINUOUS
 62
           3
100
AcDbLine
 10
174.84495005944
 20
-139.120443722642
 11
174.847497331264
 21
-139.322976074613
  0
LINE
  5
96
100
AcDbEntity
  8
KONTUR
  6
CONTINUOUS
 62
           3
100
AcDbLine
 10
174.847497331264
 20
-139.322976074613
 11
174.848280533435
 21
-139.526679500307
  0
LINE
  5
95
100
AcDbEntity
  8
KONTUR
  6
CONTINUOUS
 62
           3
100
AcDbLine
 10
174.848280533435
 20
-139.526679500307
 11
174.847023680427
 21
-139.731222071183
  0
LINE
  5
94
100
AcDbEntity
  8
KONTUR
  6
CONTINUOUS
 62
           3
100
AcDbLine
 10
174.847023680427
 20
-139.731222071183
 11
174.826313577296
 21
-139.93306818887
  0
LINE
  5
93
100
AcDbEntity
  8
KONTUR
  6
CONTINUOUS
 62
           3
100
AcDbLine
 10
174.826313577296
 20
-139.93306818887
 11
174.766525415351
 21
-140.1279400777
  0
LINE
  5
92
100
AcDbEntity
  8
KONTUR
  6
CONTINUOUS
 62
           3
100
AcDbLine
 10
174.766525415351
 20
-140.1279400777
 11
174.659469137599
 21
-140.304335854352
  0
LINE
  5
91
100
AcDbEntity
  8
KONTUR
  6
CONTINUOUS
 62
           3
100
AcDbLine
 10
174.659469137599
 20
-140.304335854352
 11
174.509840227535
 21
-140.442664275944
  0
LINE
  5
90
100
AcDbEntity
  8
KONTUR
  6
CONTINUOUS
 62
           3
100
AcDbLine
 10
174.509840227535
 20
-140.442664275944
 11
174.327335473945
 21
-140.532769820989
  0
LINE
  5
8F
100
AcDbEntity
  8
KONTUR
  6
CONTINUOUS
 62
           3
100
AcDbLine
 10
174.327335473945
 20
-140.532769820989
 11
174.130721892669
 21
-140.586079782117
  0
LINE
  5
8E
100
AcDbEntity
  8
KONTUR
  6
CONTINUOUS
 62
           3
100
AcDbLine
 10
174.130721892669
 20
-140.586079782117
 11
173.92997971709
 21
-140.614066206372
  0
LINE
  5
8D
100
AcDbEntity
  8
KONTUR
  6
CONTINUOUS
 62
           3
100
AcDbLine
 10
189.019443653514
 20
-140.544816216291
 11
189.438150993374
 21
-140.544805027688
  0
LINE
  5
8C
100
AcDbEntity
  8
KONTUR
  6
CONTINUOUS
 62
           3
100
AcDbLine
 10
189.438150993374
 20
-140.544805027688
 11
189.856873251369
 21
-140.544808757221
  0
LINE
  5
8B
100
AcDbEntity
  8
KONTUR
  6
CONTINUOUS
 62
           3
100
AcDbLine
 10
189.856873251369
 20
-140.544808757221
 11
190.275632804706
 21
-140.544946749985
  0
LINE
  5
8A
100
AcDbEntity
  8
KONTUR
  6
CONTINUOUS
 62
           3
100
AcDbLine
 10
190.275632804706
 20
-140.544946749985
 11
190.69418350413
 21
-140.544461910547
  0
LINE
  5
89
100
AcDbEntity
  8
KONTUR
  6
CONTINUOUS
 62
           3
100
AcDbLine
 10
190.69418350413
 20
-140.544461910547
 11
191.112749121692
 21
-140.544021825517
  0
LINE
  5
88
100
AcDbEntity
  8
KONTUR
  6
CONTINUOUS
 62
           3
100
AcDbLine
 10
191.112749121692
 20
-140.544021825517
 11
191.53212031863
 21
-140.545946265138
  0
LINE
  5
87
100
AcDbEntity
  8
KONTUR
  6
CONTINUOUS
 62
           3
100
AcDbLine
 10
191.53212031863
 20
-140.545946265138
 11
191.951312497927
 21
-140.547356029046
  0
LINE
  5
86
100
AcDbEntity
  8
KONTUR
  6
CONTINUOUS
 62
           3
100
AcDbLine
 10
191.951312497927
 20
-140.547356029046
 11
192.367356950405
 21
-140.540020035375
  0
LINE
  5
85
100
AcDbEntity
  8
KONTUR
  6
CONTINUOUS
 62
           3
100
AcDbLine
 10
192.367356950405
 20
-140.540020035375
 11
192.786071749331
 21
-140.553886443342
  0
LINE
  5
84
100
AcDbEntity
  8
KONTUR
  6
CONTINUOUS
 62
           3
100
AcDbLine
 10
192.786071749331
 20
-140.553886443342
 11
193.197513956668
 21
-140.668498757279
  0
LINE
  5
83
100
AcDbEntity
  8
KONTUR
  6
CONTINUOUS
 62
           3
100
AcDbLine
 10
193.197513956668
 20
-140.668498757279
 11
193.426402926471
 21
-141.004104617227
  0
LINE
  5
82
100
AcDbEntity
  8
KONTUR
  6
CONTINUOUS
 62
           3
100
AcDbLine
 10
193.426402926471
 20
-141.004104617227
 11
193.45262155154
 21
-141.422080968393
  0
LINE
  5
81
100
AcDbEntity
  8
KONTUR
  6
CONTINUOUS
 62
           3
100
AcDbLine
 10
193.45262155154
 20
-141.422080968393
 11
193.429752048137
 21
-141.839777604497
  0
LINE
  5
80
100
AcDbEntity
  8
KONTUR
  6
CONTINUOUS
 62
           3
100
AcDbLine
 10
193.429752048137
 20
-141.839777604497
 11
193.189025536945
 21
-142.172176065075
  0
LINE
  5
7F
100
AcDbEntity
  8
KONTUR
  6
CONTINUOUS
 62
           3
100
AcDbLine
 10
193.189025536945
 20
-142.172176065075
 11
192.78778733504
 21
-142.282943229306
  0
LINE
  5
7E
100
AcDbEntity
  8
KONTUR
  6
CONTINUOUS
 62
           3
100
AcDbLine
 10
192.78778733504
 20
-142.282943229306
 11
192.369109831455
 21
-142.292718338312
  0
LINE
  5
7D
100
AcDbEntity
  8
KONTUR
  6
CONTINUOUS
 62
           3
100
AcDbLine
 10
192.369109831455
 20
-142.292718338312
 11
191.950462164143
 21
-142.291013941206
  0
LINE
  5
7C
100
AcDbEntity
  8
KONTUR
  6
CONTINUOUS
 62
           3
100
AcDbLine
 10
191.950462164143
 20
-142.291013941206
 11
191.531732447078
 21
-142.291524887383
  0
LINE
  5
7B
100
AcDbEntity
  8
KONTUR
  6
CONTINUOUS
 62
           3
100
AcDbLine
 10
191.531732447078
 20
-142.291524887383
 11
191.113017648151
 21
-142.291420460427
  0
LINE
  5
7A
100
AcDbEntity
  8
KONTUR
  6
CONTINUOUS
 62
           3
100
AcDbLine
 10
191.113017648151
 20
-142.291420460427
 11
190.694302849224
 21
-142.291409271824
  0
LINE
  5
79
100
AcDbEntity
  8
KONTUR
  6
CONTINUOUS
 62
           3
100
AcDbLine
 10
190.694302849224
 20
-142.291409271824
 11
190.275588050296
 21
-142.291427919496
  0
LINE
  5
78
100
AcDbEntity
  8
KONTUR
  6
CONTINUOUS
 62
           3
100
AcDbLine
 10
190.275588050296
 20
-142.291427919496
 11
189.856873251369
 21
-142.291420460427
  0
LINE
  5
77
100
AcDbEntity
  8
KONTUR
  6
CONTINUOUS
 62
           3
100
AcDbLine
 10
189.856873251369
 20
-142.291420460427
 11
189.438158452441
 21
-142.291420460427
  0
LINE
  5
76
100
AcDbEntity
  8
KONTUR
  6
CONTINUOUS
 62
           3
100
AcDbLine
 10
189.438158452441
 20
-142.291420460427
 11
189.019443653514
 21
-142.291420460427
  0
LINE
  5
75
100
AcDbEntity
  8
KONTUR
  6
CONTINUOUS
 62
           3
100
AcDbLine
 10
193.128226671245
 20
-140.199644101251
 11
193.481570195605
 21
-140.252596027101
  0
LINE
  5
74
100
AcDbEntity
  8
KONTUR
  6
CONTINUOUS
 62
           3
100
AcDbLine
 10
193.481570195605
 20
-140.252596027101
 11
193.803973504665
 21
-140.3999461918
  0
LINE
  5
73
100
AcDbEntity
  8
KONTUR
  6
CONTINUOUS
 62
           3
100
AcDbLine
 10
193.803973504665
 20
-140.3999461918
 11
194.028916627337
 21
-140.673089813817
  0
LINE
  5
72
100
AcDbEntity
  8
KONTUR
  6
CONTINUOUS
 62
           3
100
AcDbLine
 10
194.028916627337
 20
-140.673089813817
 11
194.12122259753
 21
-141.016210685074
  0
LINE
  5
71
100
AcDbEntity
  8
KONTUR
  6
CONTINUOUS
 62
           3
100
AcDbLine
 10
194.12122259753
 20
-141.016210685074
 11
194.130434546878
 21
-141.371691232503
  0
LINE
  5
70
100
AcDbEntity
  8
KONTUR
  6
CONTINUOUS
 62
           3
100
AcDbLine
 10
194.130434546878
 20
-141.371691232503
 11
194.131583243396
 21
-141.726884605802
  0
LINE
  5
6F
100
AcDbEntity
  8
KONTUR
  6
CONTINUOUS
 62
           3
100
AcDbLine
 10
194.131583243396
 20
-141.726884605802
 11
194.084568735911
 21
-142.081022520936
  0
LINE
  5
6E
100
AcDbEntity
  8
KONTUR
  6
CONTINUOUS
 62
           3
100
AcDbLine
 10
194.084568735911
 20
-142.081022520936
 11
193.916575599696
 21
-142.392860059751
  0
LINE
  5
6D
100
AcDbEntity
  8
KONTUR
  6
CONTINUOUS
 62
           3
100
AcDbLine
 10
193.916575599696
 20
-142.392860059751
 11
193.642484676005
 21
-142.620432503999
  0
LINE
  5
6C
100
AcDbEntity
  8
KONTUR
  6
CONTINUOUS
 62
           3
100
AcDbLine
 10
193.642484676005
 20
-142.620432503999
 11
193.315441826465
 21
-142.759540398229
  0
LINE
  5
6B
100
AcDbEntity
  8
KONTUR
  6
CONTINUOUS
 62
           3
100
AcDbLine
 10
193.315441826465
 20
-142.759540398229
 11
192.96667817004
 21
-142.828674772752
  0
LINE
  5
6A
100
AcDbEntity
  8
KONTUR
  6
CONTINUOUS
 62
           3
100
AcDbLine
 10
192.96667817004
 20
-142.828674772752
 11
192.611611600901
 21
-142.844715499128
  0
LINE
  5
69
100
AcDbEntity
  8
KONTUR
  6
CONTINUOUS
 62
           3
100
AcDbLine
 10
192.611611600901
 20
-142.844715499128
 11
192.256067651394
 21
-142.843477293791
  0
LINE
  5
68
100
AcDbEntity
  8
KONTUR
  6
CONTINUOUS
 62
           3
100
AcDbLine
 10
192.256067651394
 20
-142.843477293791
 11
191.900598292568
 21
-142.843995699037
  0
LINE
  5
67
100
AcDbEntity
  8
KONTUR
  6
CONTINUOUS
 62
           3
100
AcDbLine
 10
191.900598292568
 20
-142.843995699037
 11
191.545128933741
 21
-142.844428324998
  0
LINE
  5
66
100
AcDbEntity
  8
KONTUR
  6
CONTINUOUS
 62
           3
100
AcDbLine
 10
191.545128933741
 20
-142.844428324998
 11
191.189637197711
 21
-142.844320168508
  0
LINE
  5
65
100
AcDbEntity
  8
KONTUR
  6
CONTINUOUS
 62
           3
100
AcDbLine
 10
191.189637197711
 20
-142.844320168508
 11
190.834138002613
 21
-142.844156069005
  0
LINE
  5
64
100
AcDbEntity
  8
KONTUR
  6
CONTINUOUS
 62
           3
100
AcDbLine
 10
190.834138002613
 20
-142.844156069005
 11
190.47865372565
 21
-142.844156069005
  0
LINE
  5
63
100
AcDbEntity
  8
KONTUR
  6
CONTINUOUS
 62
           3
100
AcDbLine
 10
190.47865372565
 20
-142.844156069005
 11
190.12316198962
 21
-142.844208282483
  0
LINE
  5
62
100
AcDbEntity
  8
KONTUR
  6
CONTINUOUS
 62
           3
100
AcDbLine
 10
190.12316198962
 20
-142.844208282483
 11
189.767677712657
 21
-142.844219471086
  0
LINE
  5
61
100
AcDbEntity
  8
KONTUR
  6
CONTINUOUS
 62
           3
100
AcDbLine
 10
189.767677712657
 20
-142.844219471086
 11
189.412185976626
 21
-142.844204552949
  0
LINE
  5
60
100
AcDbEntity
  8
KONTUR
  6
CONTINUOUS
 62
           3
100
AcDbLine
 10
189.412185976626
 20
-142.844204552949
 11
189.056694240596
 21
-142.844204552949
  0
LINE
  5
5F
100
AcDbEntity
  8
KONTUR
  6
CONTINUOUS
 62
           3
100
AcDbLine
 10
189.056694240596
 20
-142.844204552949
 11
188.701209963634
 21
-142.844208282483
  0
LINE
  5
5E
100
AcDbEntity
  8
KONTUR
  6
CONTINUOUS
 62
           3
100
AcDbLine
 10
188.701209963634
 20
-142.844208282483
 11
188.345718227604
 21
-142.844208282483
  0
LINE
  5
5D
100
AcDbEntity
  8
KONTUR
  6
CONTINUOUS
 62
           3
100
AcDbLine
 10
189.019443653514
 20
-138.397260944379
 11
189.417541587665
 21
-138.397260944379
  0
LINE
  5
5C
100
AcDbEntity
  8
KONTUR
  6
CONTINUOUS
 62
           3
100
AcDbLine
 10
189.417541587665
 20
-138.397260944379
 11
189.815639521815
 21
-138.397365371336
  0
LINE
  5
5B
100
AcDbEntity
  8
KONTUR
  6
CONTINUOUS
 62
           3
100
AcDbLine
 10
189.815639521815
 20
-138.397365371336
 11
190.213737455966
 21
-138.397410125744
  0
LINE
  5
5A
100
AcDbEntity
  8
KONTUR
  6
CONTINUOUS
 62
           3
100
AcDbLine
 10
190.213737455966
 20
-138.397410125744
 11
190.61182047198
 21
-138.397137869752
  0
LINE
  5
59
100
AcDbEntity
  8
KONTUR
  6
CONTINUOUS
 62
           3
100
AcDbLine
 10
190.61182047198
 20
-138.397137869752
 11
191.009896028926
 21
-138.396746268667
  0
LINE
  5
58
100
AcDbEntity
  8
KONTUR
  6
CONTINUOUS
 62
           3
100
AcDbLine
 10
191.009896028926
 20
-138.396746268667
 11
191.408008881214
 21
-138.397205001367
  0
LINE
  5
57
100
AcDbEntity
  8
KONTUR
  6
CONTINUOUS
 62
           3
100
AcDbLine
 10
191.408008881214
 20
-138.397205001367
 11
191.80616648791
 21
-138.398816160119
  0
LINE
  5
56
100
AcDbEntity
  8
KONTUR
  6
CONTINUOUS
 62
           3
100
AcDbLine
 10
191.80616648791
 20
-138.398816160119
 11
192.204249503925
 21
-138.39846558391
  0
LINE
  5
55
100
AcDbEntity
  8
KONTUR
  6
CONTINUOUS
 62
           3
100
AcDbLine
 10
192.204249503925
 20
-138.39846558391
 11
192.602123666026
 21
-138.399618009962
  0
LINE
  5
54
100
AcDbEntity
  8
KONTUR
  6
CONTINUOUS
 62
           3
100
AcDbLine
 10
192.602123666026
 20
-138.399618009962
 11
192.990241366794
 21
-138.490838685716
  0
LINE
  5
53
100
AcDbEntity
  8
KONTUR
  6
CONTINUOUS
 62
           3
100
AcDbLine
 10
192.990241366794
 20
-138.490838685716
 11
193.243842229869
 21
-138.78955199386
  0
LINE
  5
52
100
AcDbEntity
  8
KONTUR
  6
CONTINUOUS
 62
           3
100
AcDbLine
 10
193.243842229869
 20
-138.78955199386
 11
193.259715127207
 21
-139.18933940698
  0
LINE
  5
51
100
AcDbEntity
  8
KONTUR
  6
CONTINUOUS
 62
           3
100
AcDbLine
 10
193.259715127207
 20
-139.18933940698
 11
193.231922638729
 21
-139.584964659989
  0
LINE
  5
50
100
AcDbEntity
  8
KONTUR
  6
CONTINUOUS
 62
           3
100
AcDbLine
 10
193.231922638729
 20
-139.584964659989
 11
192.987988728168
 21
-139.893464265741
  0
LINE
  5
4F
100
AcDbEntity
  8
KONTUR
  6
CONTINUOUS
 62
           3
100
AcDbLine
 10
192.987988728168
 20
-139.893464265741
 11
192.602511537577
 21
-139.987847586453
  0
LINE
  5
4E
100
AcDbEntity
  8
KONTUR
  6
CONTINUOUS
 62
           3
100
AcDbLine
 10
192.602511537577
 20
-139.987847586453
 11
192.203898927715
 21
-139.996007807172
  0
LINE
  5
4D
100
AcDbEntity
  8
KONTUR
  6
CONTINUOUS
 62
           3
100
AcDbLine
 10
192.203898927715
 20
-139.996007807172
 11
191.806129192569
 21
-139.991789704049
  0
LINE
  5
4C
100
AcDbEntity
  8
KONTUR
  6
CONTINUOUS
 62
           3
100
AcDbLine
 10
191.806129192569
 20
-139.991789704049
 11
191.408090930965
 21
-139.991036338151
  0
LINE
  5
4B
100
AcDbEntity
  8
KONTUR
  6
CONTINUOUS
 62
           3
100
AcDbLine
 10
191.408090930965
 20
-139.991036338151
 11
191.009903487995
 21
-139.992214870942
  0
LINE
  5
4A
100
AcDbEntity
  8
KONTUR
  6
CONTINUOUS
 62
           3
100
AcDbLine
 10
191.009903487995
 20
-139.992214870942
 11
190.611805553844
 21
-139.992237248147
  0
LINE
  5
49
100
AcDbEntity
  8
KONTUR
  6
CONTINUOUS
 62
           3
100
AcDbLine
 10
190.611805553844
 20
-139.992237248147
 11
190.213729996898
 21
-139.991991098893
  0
LINE
  5
48
100
AcDbEntity
  8
KONTUR
  6
CONTINUOUS
 62
           3
100
AcDbLine
 10
190.213729996898
 20
-139.991991098893
 11
189.815632062748
 21
-139.992039582837
  0
LINE
  5
47
100
AcDbEntity
  8
KONTUR
  6
CONTINUOUS
 62
           3
100
AcDbLine
 10
189.815632062748
 20
-139.992039582837
 11
189.417541587665
 21
-139.992032123769
  0
LINE
  5
46
100
AcDbEntity
  8
KONTUR
  6
CONTINUOUS
 62
           3
100
AcDbLine
 10
189.417541587665
 20
-139.992032123769
 11
189.019443653514
 21
-139.992028394235
  0
LINE
  5
45
100
AcDbEntity
  8
KONTUR
  6
CONTINUOUS
 62
           3
100
AcDbLine
 10
188.345718227604
 20
-137.84494677316
 11
188.674327481486
 21
-137.84494677316
  0
LINE
  5
44
100
AcDbEntity
  8
KONTUR
  6
CONTINUOUS
 62
           3
100
AcDbLine
 10
188.674327481486
 20
-137.84494677316
 11
189.00293673537
 21
-137.844931855023
  0
LINE
  5
43
100
AcDbEntity
  8
KONTUR
  6
CONTINUOUS
 62
           3
100
AcDbLine
 10
189.00293673537
 20
-137.844931855023
 11
189.331545989254
 21
-137.844935584558
  0
LINE
  5
42
100
AcDbEntity
  8
KONTUR
  6
CONTINUOUS
 62
           3
100
AcDbLine
 10
189.331545989254
 20
-137.844935584558
 11
189.660155243136
 21
-137.845006445707
  0
LINE
  5
41
100
AcDbEntity
  8
KONTUR
  6
CONTINUOUS
 62
           3
100
AcDbLine
 10
189.660155243136
 20
-137.845006445707
 11
189.988771956089
 21
-137.845047470582
  0
LINE
  5
40
100
AcDbEntity
  8
KONTUR
  6
CONTINUOUS
 62
           3
100
AcDbLine
 10
189.988771956089
 20
-137.845047470582
 11
190.317366291835
 21
-137.844905748284
  0
LINE
  5
3F
100
AcDbEntity
  8
KONTUR
  6
CONTINUOUS
 62
           3
100
AcDbLine
 10
190.317366291835
 20
-137.844905748284
 11
190.645960627582
 21
-137.844596196951
  0
LINE
  5
3E
100
AcDbEntity
  8
KONTUR
  6
CONTINUOUS
 62
           3
100
AcDbLine
 10
190.645960627582
 20
-137.844596196951
 11
190.974562422398
 21
-137.844592467416
  0
LINE
  5
3D
100
AcDbEntity
  8
KONTUR
  6
CONTINUOUS
 62
           3
100
AcDbLine
 10
190.974562422398
 20
-137.844592467416
 11
191.303231348826
 21
-137.845394317258
  0
LINE
  5
3C
100
AcDbEntity
  8
KONTUR
  6
CONTINUOUS
 62
           3
100
AcDbLine
 10
191.303231348826
 20
-137.845394317258
 11
191.631922652461
 21
-137.846669817937
  0
LINE
  5
3B
100
AcDbEntity
  8
KONTUR
  6
CONTINUOUS
 62
           3
100
AcDbLine
 10
191.631922652461
 20
-137.846669817937
 11
191.96055428355
 21
-137.847001746477
  0
LINE
  5
3A
100
AcDbEntity
  8
KONTUR
  6
CONTINUOUS
 62
           3
100
AcDbLine
 10
191.96055428355
 20
-137.847001746477
 11
192.289021815135
 21
-137.844913207353
  0
LINE
  5
39
100
AcDbEntity
  8
KONTUR
  6
CONTINUOUS
 62
           3
100
AcDbLine
 10
192.289021815135
 20
-137.844913207353
 11
192.617295410945
 21
-137.843891314995
  0
LINE
  5
38
100
AcDbEntity
  8
KONTUR
  6
CONTINUOUS
 62
           3
100
AcDbLine
 10
192.617295410945
 20
-137.843891314995
 11
192.94559138396
 21
-137.866805572808
  0
LINE
  5
37
100
AcDbEntity
  8
KONTUR
  6
CONTINUOUS
 62
           3
100
AcDbLine
 10
192.94559138396
 20
-137.866805572808
 11
193.270336840465
 21
-137.941418632997
  0
LINE
  5
36
100
AcDbEntity
  8
KONTUR
  6
CONTINUOUS
 62
           3
100
AcDbLine
 10
193.270336840465
 20
-137.941418632997
 11
193.559972462489
 21
-138.096884264005
  0
LINE
  5
35
100
AcDbEntity
  8
KONTUR
  6
CONTINUOUS
 62
           3
100
AcDbLine
 10
193.559972462489
 20
-138.096884264005
 11
193.776628560282
 21
-138.348784459508
  0
LINE
  5
34
100
AcDbEntity
  8
KONTUR
  6
CONTINUOUS
 62
           3
100
AcDbLine
 10
193.776628560282
 20
-138.348784459508
 11
193.904775353649
 21
-138.659562810624
  0
LINE
  5
33
100
AcDbEntity
  8
KONTUR
  6
CONTINUOUS
 62
           3
100
AcDbLine
 10
193.904775353649
 20
-138.659562810624
 11
193.941578396632
 21
-138.984878885854
  0
LINE
  5
32
100
AcDbEntity
  8
KONTUR
  6
CONTINUOUS
 62
           3
100
AcDbLine
 10
193.941578396632
 20
-138.984878885854
 11
193.933254076411
 21
-139.317724890531
  0
LINE
  5
31
100
AcDbEntity
  8
KONTUR
  6
CONTINUOUS
 62
           3
100
AcDbLine
 10
193.933254076411
 20
-139.317724890531
 11
193.891490753009
 21
-139.647646940434
  0
LINE
  5
30
100
AcDbEntity
  8
KONTUR
  6
CONTINUOUS
 62
           3
100
AcDbLine
 10
193.891490753009
 20
-139.647646940434
 11
193.725824846103
 21
-139.925776949609
  0
LINE
  5
2F
100
AcDbEntity
  8
KONTUR
  6
CONTINUOUS
 62
           3
100
AcDbLine
 10
193.725824846103
 20
-139.925776949609
 11
193.448384800746
 21
-140.099964842045
  0
LINE
  5
2E
100
AcDbEntity
  8
KONTUR
  6
CONTINUOUS
 62
           3
100
AcDbLine
 10
193.448384800746
 20
-140.099964842045
 11
193.128226671245
 21
-140.172295427334
  0
ENDBLK
  5
197
100
AcDbEntity
  8
0
100
AcDbBlockEnd
  0
BLOCK
  5
29
100
AcDbEntity
  8
0
100
AcDbBlockBegin
  2
GETRIEBE
 70
           0
 10
-212.906694427027
 20
-202.120293757354
 30
0.0
  3
GETRIEBE
  1

  0
HATCH
  5
29F
100
AcDbEntity
  8
0
  6
CONTINUOUS
 62
           3
100
AcDbHatch
 10
0.0
 20
0.0
 30
0.0
210
0.0
220
0.0
230
1.0
  2
USER
 70
           0
 71
           1
 91
        1
 92
        1
 93
        4
 72
           1
 10
-161.354744390381
 20
-161.90444101850011
 11
-134.7785445003949
 21
-161.90444101850011
 72
           1
 10
-165.08266645173899
 20
-170.90444101850011
 11
-161.354744390381
 21
-161.90444101850011
 72
           1
 10
-131.05062243903691
 20
-170.90444101850011
 11
-165.08266645173899
 21
-170.90444101850011
 72
           1
 10
-134.7785445003949
 20
-161.90444101850011
 11
-131.05062243903691
 21
-170.90444101850011
 97
        4
330
19C
330
19D
330
19A
330
19B
 75
           1
 76
           0
 52
0.0
 41
0.25
 77
           0
 78
           1
 53
0.0
 43
0.0
 44
0.0
 45
0.0
 46
0.25
 79
           0
 98
        1
 10
0.0
 20
0.0
  0
HATCH
  5
29E
100
AcDbEntity
  8
0
  6
CONTINUOUS
 62
           3
100
AcDbHatch
 10
0.0
 20
0.0
 30
0.0
210
0.0
220
0.0
230
1.0
  2
USER
 70
           0
 71
           1
 91
        1
 92
        1
 93
        4
 72
           1
 10
-157.7062547521771
 20
-106.5520519744871
 11
-157.7062547521771
 21
-145.2568300625131
 72
           1
 10
-157.7062547521771
 20
-145.2568300625131
 11
-166.7062547521771
 21
-166.98475212387109
 72
           1
 10
-166.7062547521771
 20
-84.824129913129099
 11
-166.7062547521771
 21
-166.98475212387109
 72
           1
 10
-166.7062547521771
 20
-84.824129913129099
 11
-157.7062547521771
 21
-106.5520519744871
 97
        4
330
19F
330
19E
330
198
330
199
 75
           1
 76
           0
 52
0.0
 41
0.25
 77
           0
 78
           1
 53
0.0
 43
0.0
 44
0.0
 45
0.0
 46
0.25
 79
           0
 98
        1
 10
0.0
 20
0.0
  0
ARC
  5
29D
100
AcDbEntity
  8
1
  6
CONTINUOUS
 62
           2
100
AcDbCircle
 10
235.011484101911
 20
126.502199840101
 40
0.6
100
AcDbArc
 50
0.0
 51
90.0
  0
ARC
  5
29C
100
AcDbEntity
  8
1
  6
CONTINUOUS
 62
           2
100
AcDbCircle
 10
235.011484101911
 20
117.702199840101
 40
0.6
100
AcDbArc
 50
-90.0
 51
0.0
  0
ARC
  5
29B
100
AcDbEntity
  8
1
  6
CONTINUOUS
 62
           2
100
AcDbCircle
 10
235.011484101911
 20
63.569696314498
 40
0.6
100
AcDbArc
 50
0.0
 51
90.0
  0
ARC
  5
29A
100
AcDbEntity
  8
1
  6
CONTINUOUS
 62
           2
100
AcDbCircle
 10
235.011484101911
 20
54.769696314498
 40
0.6
100
AcDbArc
 50
-90.0
 51
0.0
  0
ARC
  5
299
100
AcDbEntity
  8
1
  6
CONTINUOUS
 62
           2
100
AcDbCircle
 10
-183.932896208189
 20
-194.3044410185
 40
0.6
100
AcDbArc
 50
180.0
 51
-90.0
  0
ARC
  5
298
100
AcDbEntity
  8
1
  6
CONTINUOUS
 62
           2
100
AcDbCircle
 10
-175.132896208189
 20
-194.3044410185
 40
0.6
100
AcDbArc
 50
-90.0
 51
0.0
  0
ARC
  5
297
100
AcDbEntity
  8
1
  6
CONTINUOUS
 62
           2
100
AcDbCircle
 10
-121.000392682587
 20
-194.3044410185
 40
0.6
100
AcDbArc
 50
180.0
 51
-90.0
  0
ARC
  5
296
100
AcDbEntity
  8
1
  6
CONTINUOUS
 62
           2
100
AcDbCircle
 10
-112.200392682587
 20
-194.3044410185
 40
0.6
100
AcDbArc
 50
-90.0
 51
0.0
  0
CIRCLE
  5
295
100
AcDbEntity
  8
1
  6
CONTINUOUS
 62
           2
100
AcDbCircle
 10
-148.066644445388
 20
90.6359480773
 40
6.0
  0
CIRCLE
  5
294
100
AcDbEntity
  8
1
  6
CONTINUOUS
 62
           2
100
AcDbCircle
 10
-148.066644445388
 20
90.6359480773
 40
17.5
  0
CIRCLE
  5
293
100
AcDbEntity
  8
1
  6
CONTINUOUS
 62
           2
100
AcDbCircle
 10
-148.066644445388
 20
90.6359480773
 40
30.0
  0
CIRCLE
  5
292
100
AcDbEntity
  8
1
  6
CONTINUOUS
 62
           2
100
AcDbCircle
 10
-179.532896208189
 20
122.102199840101
 40
5.0
  0
CIRCLE
  5
291
100
AcDbEntity
  8
1
  6
CONTINUOUS
 62
           2
100
AcDbCircle
 10
-179.532896208189
 20
59.169696314498
 40
5.0
  0
CIRCLE
  5
290
100
AcDbEntity
  8
1
  6
CONTINUOUS
 62
           2
100
AcDbCircle
 10
-116.600392682587
 20
59.169696314498
 40
5.0
  0
CIRCLE
  5
28F
100
AcDbEntity
  8
1
  6
CONTINUOUS
 62
           2
100
AcDbCircle
 10
-116.600392682587
 20
122.102199840101
 40
5.0
  0
CIRCLE
  5
28E
100
AcDbEntity
  8
1
  6
CONTINUOUS
 62
           2
100
AcDbCircle
 10
-189.066644445388
 20
131.635948077299
 40
3.2
  0
CIRCLE
  5
28D
100
AcDbEntity
  8
1
  6
CONTINUOUS
 62
           2
100
AcDbCircle
 10
-107.066644445388
 20
131.635948077299
 40
3.2
  0
CIRCLE
  5
28C
100
AcDbEntity
  8
1
  6
CONTINUOUS
 62
           2
100
AcDbCircle
 10
-107.066644445388
 20
49.6359480773
 40
3.2
  0
CIRCLE
  5
28B
100
AcDbEntity
  8
1
  6
CONTINUOUS
 62
           2
100
AcDbCircle
 10
-189.066644445388
 20
49.6359480773
 40
3.2
  0
CIRCLE
  5
28A
100
AcDbEntity
  8
1
  6
CONTINUOUS
 62
           2
100
AcDbCircle
 10
-189.066644445388
 20
-84.9044410185
 40
3.2
  0
CIRCLE
  5
289
100
AcDbEntity
  8
1
  6
CONTINUOUS
 62
           2
100
AcDbCircle
 10
-107.066644445388
 20
-84.9044410185
 40
3.2
  0
CIRCLE
  5
288
100
AcDbEntity
  8
1
  6
CONTINUOUS
 62
           2
100
AcDbCircle
 10
-107.066644445388
 20
-166.9044410185
 40
3.2
  0
CIRCLE
  5
287
100
AcDbEntity
  8
1
  6
CONTINUOUS
 62
           2
100
AcDbCircle
 10
-189.066644445388
 20
-166.9044410185
 40
3.2
  0
CIRCLE
  5
286
100
AcDbEntity
  8
1
  6
CONTINUOUS
 62
           2
100
AcDbCircle
 10
125.611484101911
 20
49.6359480773
 40
3.2
  0
CIRCLE
  5
285
100
AcDbEntity
  8
1
  6
CONTINUOUS
 62
           2
100
AcDbCircle
 10
207.611484101911
 20
49.6359480773
 40
3.2
  0
CIRCLE
  5
284
100
AcDbEntity
  8
1
  6
CONTINUOUS
 62
           2
100
AcDbCircle
 10
125.611484101911
 20
131.635948077299
 40
3.2
  0
CIRCLE
  5
283
100
AcDbEntity
  8
1
  6
CONTINUOUS
 62
           2
100
AcDbCircle
 10
207.611484101911
 20
131.635948077299
 40
3.2
  0
CIRCLE
  5
282
100
AcDbEntity
  8
1
  6
CONTINUOUS
 62
           2
100
AcDbCircle
 10
166.611484101911
 20
90.6359480773
 40
51.0
  0
CIRCLE
  5
281
100
AcDbEntity
  8
1
  6
CONTINUOUS
 62
           2
100
AcDbCircle
 10
166.611484101911
 20
90.6359480773
 40
23.5
  0
CIRCLE
  5
280
100
AcDbEntity
  8
1
  6
CONTINUOUS
 62
           2
100
AcDbCircle
 10
166.611484101911
 20
90.6359480773
 40
11.0
  0
CIRCLE
  5
27F
100
AcDbEntity
  8
1
  6
CONTINUOUS
 62
           2
100
AcDbCircle
 10
166.611484101911
 20
90.6359480773
 40
16.0
  0
CIRCLE
  5
27E
100
AcDbEntity
  8
1
  6
CONTINUOUS
 62
           2
100
AcDbCircle
 10
-148.066644445388
 20
90.6359480773
 40
39.0
  0
CIRCLE
  5
27D
100
AcDbEntity
  8
1
  6
CONTINUOUS
 62
           2
100
AcDbCircle
 10
-148.066644445388
 20
90.6359480773
 40
51.0
  0
ARC
  5
27C
100
AcDbEntity
  8
1
  6
CONTINUOUS
 62
           2
100
AcDbCircle
 10
-148.066644445388
 20
-229.9044410185
 40
2.0
100
AcDbArc
 50
0.0
 51
180.0
  0
ARC
  5
27B
100
AcDbEntity
  8
1
  6
CONTINUOUS
 62
           2
100
AcDbCircle
 10
-148.066644445388
 20
-243.9044410185
 40
2.0
100
AcDbArc
 50
180.0
 51
0.0
  0
ARC
  5
27A
100
AcDbEntity
  8
1
  6
CONTINUOUS
 62
           2
100
AcDbCircle
 10
-148.066644445388
 20
90.6359480773
 40
7.5
100
AcDbArc
 50
105.46600995342
 51
0.0
  0
ARC
  5
279
100
AcDbEntity
  8
1
  6
CONTINUOUS
 62
           2
100
AcDbCircle
 10
-148.066644445388
 20
90.6359480773
 40
7.5
100
AcDbArc
 50
0.0
 51
74.533990046579
  0
ARC
  5
278
100
AcDbEntity
  8
1
  6
CONTINUOUS
 62
           3
100
AcDbCircle
 10
-189.066644445388
 20
131.635948077299
 40
4.0
100
AcDbArc
 50
-100.0
 51
-170.000000000001
  0
ARC
  5
277
100
AcDbEntity
  8
1
  6
CONTINUOUS
 62
           3
100
AcDbCircle
 10
-107.066644445388
 20
131.635948077299
 40
4.0
100
AcDbArc
 50
-9.999999999999
 51
-80.000000000001
  0
ARC
  5
276
100
AcDbEntity
  8
1
  6
CONTINUOUS
 62
           3
100
AcDbCircle
 10
-107.066644445388
 20
49.6359480773
 40
4.0
100
AcDbArc
 50
80.000000000001
 51
9.999999999999
  0
ARC
  5
275
100
AcDbEntity
  8
1
  6
CONTINUOUS
 62
           3
100
AcDbCircle
 10
-189.066644445388
 20
49.6359480773
 40
4.0
100
AcDbArc
 50
170.000000000001
 51
100.0
  0
ARC
  5
274
100
AcDbEntity
  8
1
  6
CONTINUOUS
 62
           3
100
AcDbCircle
 10
-189.066644445388
 20
-84.9044410185
 40
4.0
100
AcDbArc
 50
-100.0
 51
-170.000000000001
  0
ARC
  5
273
100
AcDbEntity
  8
1
  6
CONTINUOUS
 62
           3
100
AcDbCircle
 10
-107.066644445388
 20
-84.9044410185
 40
4.0
100
AcDbArc
 50
-9.999999999999
 51
-80.000000000001
  0
ARC
  5
272
100
AcDbEntity
  8
1
  6
CONTINUOUS
 62
           3
100
AcDbCircle
 10
-107.066644445388
 20
-166.9044410185
 40
4.0
100
AcDbArc
 50
80.000000000001
 51
9.999999999999
  0
ARC
  5
271
100
AcDbEntity
  8
1
  6
CONTINUOUS
 62
           3
100
AcDbCircle
 10
-189.066644445388
 20
-166.9044410185
 40
4.0
100
AcDbArc
 50
170.000000000001
 51
100.0
  0
ARC
  5
270
100
AcDbEntity
  8
1
  6
CONTINUOUS
 62
           3
100
AcDbCircle
 10
125.611484101911
 20
49.6359480773
 40
4.0
100
AcDbArc
 50
170.000000000001
 51
100.0
  0
ARC
  5
26F
100
AcDbEntity
  8
1
  6
CONTINUOUS
 62
           3
100
AcDbCircle
 10
207.611484101911
 20
49.6359480773
 40
4.0
100
AcDbArc
 50
80.000000000001
 51
9.999999999999
  0
ARC
  5
26E
100
AcDbEntity
  8
1
  6
CONTINUOUS
 62
           3
100
AcDbCircle
 10
125.611484101911
 20
131.635948077299
 40
4.0
100
AcDbArc
 50
-100.0
 51
-170.000000000001
  0
ARC
  5
26D
100
AcDbEntity
  8
1
  6
CONTINUOUS
 62
           3
100
AcDbCircle
 10
207.611484101911
 20
131.635948077299
 40
4.0
100
AcDbArc
 50
-9.999999999998
 51
-80.000000000001
  0
ARC
  5
26C
100
AcDbEntity
  8
1
  6
CONTINUOUS
 62
           2
100
AcDbCircle
 10
-254.066644445388
 20
-125.9044410185
 40
3.0
100
AcDbArc
 50
90.0
 51
-90.0
  0
ARC
  5
26B
100
AcDbEntity
  8
1
  6
CONTINUOUS
 62
           2
100
AcDbCircle
 10
-228.066644445388
 20
-125.9044410185
 40
3.0
100
AcDbArc
 50
-90.0
 51
90.0
  0
ARC
  5
26A
100
AcDbEntity
  8
1
  6
CONTINUOUS
 62
           2
100
AcDbCircle
 10
-42.066644445388
 20
-125.9044410185
 40
3.0
100
AcDbArc
 50
-90.0
 51
90.0
  0
ARC
  5
269
100
AcDbEntity
  8
1
  6
CONTINUOUS
 62
           2
100
AcDbCircle
 10
-68.066644445388
 20
-125.9044410185
 40
3.0
100
AcDbArc
 50
90.0
 51
-90.0
  0
LINE
  5
268
100
AcDbEntity
  8
1
  6
CONTINUOUS
 62
           2
100
AcDbLine
 10
-178.066644445388
 20
-194.9044410185
 11
-183.932896208189
 21
-194.9044410185
  0
LINE
  5
267
100
AcDbEntity
  8
1
  6
CONTINUOUS
 62
           2
100
AcDbLine
 10
-118.066644445388
 20
-194.9044410185
 11
-121.000392682587
 21
-194.9044410185
  0
LINE
  5
266
100
AcDbEntity
  8
1
  6
CONTINUOUS
 62
           2
100
AcDbLine
 10
235.611484101911
 20
60.6359480773
 11
235.611484101911
 21
54.769696314498
  0
LINE
  5
265
100
AcDbEntity
  8
1
  6
CONTINUOUS
 62
           2
100
AcDbLine
 10
235.611484101911
 20
120.6359480773
 11
235.611484101911
 21
117.702199840101
  0
LINE
  5
264
100
AcDbEntity
  8
1
  6
CONTINUOUS
 62
           2
100
AcDbLine
 10
232.611484101911
 20
64.6359480773
 11
232.611484101911
 21
64.169696314498
  0
LINE
  5
263
100
AcDbEntity
  8
1
  6
CONTINUOUS
 62
           2
100
AcDbLine
 10
232.611484101911
 20
116.6359480773
 11
232.611484101911
 21
64.6359480773
  0
LINE
  5
262
100
AcDbEntity
  8
1
  6
CONTINUOUS
 62
           2
100
AcDbLine
 10
266.611484101911
 20
98.1359480773
 11
266.611484101911
 21
83.1359480773
  0
LINE
  5
261
100
AcDbEntity
  8
1
  6
CONTINUOUS
 62
           2
100
AcDbLine
 10
266.611484101911
 20
84.6359480773
 11
288.611484101911
 21
84.6359480773
  0
LINE
  5
260
100
AcDbEntity
  8
1
  6
CONTINUOUS
 62
           2
100
AcDbLine
 10
288.611484101911
 20
84.6359480773
 11
288.611484101911
 21
96.6359480773
  0
LINE
  5
25F
100
AcDbEntity
  8
1
  6
CONTINUOUS
 62
           2
100
AcDbLine
 10
266.611484101911
 20
96.6359480773
 11
288.611484101911
 21
96.6359480773
  0
LINE
  5
25E
100
AcDbEntity
  8
1
  6
CONTINUOUS
 62
           2
100
AcDbLine
 10
266.611484101911
 20
83.1359480773
 11
265.611484101911
 21
83.1359480773
  0
LINE
  5
25D
100
AcDbEntity
  8
1
  6
CONTINUOUS
 62
           2
100
AcDbLine
 10
266.611484101911
 20
98.1359480773
 11
265.611484101911
 21
98.1359480773
  0
LINE
  5
25C
100
AcDbEntity
  8
1
  6
CONTINUOUS
 62
           2
100
AcDbLine
 10
268.611484101911
 20
96.6359480773
 11
268.611484101911
 21
98.1359480773
  0
LINE
  5
25B
100
AcDbEntity
  8
1
  6
CONTINUOUS
 62
           2
100
AcDbLine
 10
268.611484101911
 20
98.1359480773
 11
286.611484101911
 21
98.1359480773
  0
LINE
  5
25A
100
AcDbEntity
  8
1
  6
CONTINUOUS
 62
           2
100
AcDbLine
 10
286.611484101911
 20
98.1359480773
 11
286.611484101911
 21
96.6359480773
  0
LINE
  5
259
100
AcDbEntity
  8
1
  6
CONTINUOUS
 62
           2
100
AcDbLine
 10
-150.066644445388
 20
-229.9044410185
 11
-150.066644445388
 21
-243.9044410185
  0
LINE
  5
258
100
AcDbEntity
  8
1
  6
CONTINUOUS
 62
           2
100
AcDbLine
 10
-146.066644445388
 20
-229.9044410185
 11
-146.066644445388
 21
-243.9044410185
  0
LINE
  5
257
100
AcDbEntity
  8
1
  6
CONTINUOUS
 62
           2
100
AcDbLine
 10
-174.066644445388
 20
-191.9044410185
 11
-174.532896208189
 21
-191.9044410185
  0
LINE
  5
256
100
AcDbEntity
  8
1
  6
CONTINUOUS
 62
           2
100
AcDbLine
 10
-122.066644445388
 20
-191.9044410185
 11
-174.066644445388
 21
-191.9044410185
  0
LINE
  5
255
100
AcDbEntity
  8
1
  6
CONTINUOUS
 62
           2
100
AcDbLine
 10
-150.066644445388
 20
98.1359480773
 11
-150.066644445388
 21
96.292802326792
  0
LINE
  5
254
100
AcDbEntity
  8
1
  6
CONTINUOUS
 62
           2
100
AcDbLine
 10
-146.066644445388
 20
98.1359480773
 11
-150.066644445388
 21
98.1359480773
  0
LINE
  5
253
100
AcDbEntity
  8
1
  6
CONTINUOUS
 62
           2
100
AcDbLine
 10
-146.066644445388
 20
96.292802326792
 11
-146.066644445388
 21
98.1359480773
  0
LINE
  5
252
100
AcDbEntity
  8
1
  6
DOT_CENTER
 62
           3
100
AcDbLine
 10
-185.532896208189
 20
122.102199840101
 11
-173.532896208189
 21
122.102199840101
  0
LINE
  5
251
100
AcDbEntity
  8
1
  6
DOT_CENTER
 62
           3
100
AcDbLine
 10
-179.532896208189
 20
128.102199840101
 11
-179.532896208189
 21
116.102199840101
  0
LINE
  5
250
100
AcDbEntity
  8
1
  6
CONTINUOUS
 62
           2
100
AcDbLine
 10
-177.032896208189
 20
123.545575513075
 11
-179.532896208189
 21
124.988951186049
  0
LINE
  5
24F
100
AcDbEntity
  8
1
  6
CONTINUOUS
 62
           2
100
AcDbLine
 10
-177.032896208189
 20
120.658824167127
 11
-177.032896208189
 21
123.545575513075
  0
LINE
  5
24E
100
AcDbEntity
  8
1
  6
CONTINUOUS
 62
           2
100
AcDbLine
 10
-179.532896208189
 20
119.215448494153
 11
-177.032896208189
 21
120.658824167127
  0
LINE
  5
24D
100
AcDbEntity
  8
1
  6
CONTINUOUS
 62
           2
100
AcDbLine
 10
-182.032896208189
 20
120.658824167127
 11
-179.532896208189
 21
119.215448494153
  0
LINE
  5
24C
100
AcDbEntity
  8
1
  6
CONTINUOUS
 62
           2
100
AcDbLine
 10
-182.032896208189
 20
123.545575513075
 11
-182.032896208189
 21
120.658824167127
  0
LINE
  5
24B
100
AcDbEntity
  8
1
  6
CONTINUOUS
 62
           2
100
AcDbLine
 10
-179.532896208189
 20
124.988951186049
 11
-182.032896208189
 21
123.545575513075
  0
LINE
  5
24A
100
AcDbEntity
  8
1
  6
DOT_CENTER
 62
           3
100
AcDbLine
 10
-185.532896208189
 20
59.169696314498
 11
-173.532896208189
 21
59.169696314498
  0
LINE
  5
249
100
AcDbEntity
  8
1
  6
DOT_CENTER
 62
           3
100
AcDbLine
 10
-179.532896208189
 20
65.169696314498
 11
-179.532896208189
 21
53.169696314498
  0
LINE
  5
248
100
AcDbEntity
  8
1
  6
CONTINUOUS
 62
           2
100
AcDbLine
 10
-177.032896208189
 20
60.613071987472
 11
-179.532896208189
 21
62.056447660446
  0
LINE
  5
247
100
AcDbEntity
  8
1
  6
CONTINUOUS
 62
           2
100
AcDbLine
 10
-177.032896208189
 20
57.726320641524
 11
-177.032896208189
 21
60.613071987472
  0
LINE
  5
246
100
AcDbEntity
  8
1
  6
CONTINUOUS
 62
           2
100
AcDbLine
 10
-179.532896208189
 20
56.28294496855
 11
-177.032896208189
 21
57.726320641524
  0
LINE
  5
245
100
AcDbEntity
  8
1
  6
CONTINUOUS
 62
           2
100
AcDbLine
 10
-182.032896208189
 20
57.726320641524
 11
-179.532896208189
 21
56.28294496855
  0
LINE
  5
244
100
AcDbEntity
  8
1
  6
CONTINUOUS
 62
           2
100
AcDbLine
 10
-182.032896208189
 20
60.613071987472
 11
-182.032896208189
 21
57.726320641524
  0
LINE
  5
243
100
AcDbEntity
  8
1
  6
CONTINUOUS
 62
           2
100
AcDbLine
 10
-179.532896208189
 20
62.056447660446
 11
-182.032896208189
 21
60.613071987472
  0
LINE
  5
242
100
AcDbEntity
  8
1
  6
DOT_CENTER
 62
           3
100
AcDbLine
 10
-122.600392682587
 20
59.169696314498
 11
-110.600392682587
 21
59.169696314498
  0
LINE
  5
241
100
AcDbEntity
  8
1
  6
DOT_CENTER
 62
           3
100
AcDbLine
 10
-116.600392682587
 20
65.169696314498
 11
-116.600392682587
 21
53.169696314498
  0
LINE
  5
240
100
AcDbEntity
  8
1
  6
CONTINUOUS
 62
           2
100
AcDbLine
 10
-114.100392682587
 20
60.613071987472
 11
-116.600392682587
 21
62.056447660446
  0
LINE
  5
23F
100
AcDbEntity
  8
1
  6
CONTINUOUS
 62
           2
100
AcDbLine
 10
-114.100392682587
 20
57.726320641524
 11
-114.100392682587
 21
60.613071987472
  0
LINE
  5
23E
100
AcDbEntity
  8
1
  6
CONTINUOUS
 62
           2
100
AcDbLine
 10
-116.600392682587
 20
56.28294496855
 11
-114.100392682587
 21
57.726320641524
  0
LINE
  5
23D
100
AcDbEntity
  8
1
  6
CONTINUOUS
 62
           2
100
AcDbLine
 10
-119.100392682587
 20
57.726320641524
 11
-116.600392682587
 21
56.28294496855
  0
LINE
  5
23C
100
AcDbEntity
  8
1
  6
CONTINUOUS
 62
           2
100
AcDbLine
 10
-119.100392682587
 20
60.613071987472
 11
-119.100392682587
 21
57.726320641524
  0
LINE
  5
23B
100
AcDbEntity
  8
1
  6
CONTINUOUS
 62
           2
100
AcDbLine
 10
-116.600392682587
 20
62.056447660446
 11
-119.100392682587
 21
60.613071987472
  0
LINE
  5
23A
100
AcDbEntity
  8
1
  6
DOT_CENTER
 62
           3
100
AcDbLine
 10
-122.600392682587
 20
122.102199840101
 11
-110.600392682587
 21
122.102199840101
  0
LINE
  5
239
100
AcDbEntity
  8
1
  6
DOT_CENTER
 62
           3
100
AcDbLine
 10
-116.600392682587
 20
128.102199840101
 11
-116.600392682587
 21
116.102199840101
  0
LINE
  5
238
100
AcDbEntity
  8
1
  6
CONTINUOUS
 62
           2
100
AcDbLine
 10
-114.100392682587
 20
123.545575513075
 11
-116.600392682587
 21
124.988951186049
  0
LINE
  5
237
100
AcDbEntity
  8
1
  6
CONTINUOUS
 62
           2
100
AcDbLine
 10
-114.100392682587
 20
120.658824167127
 11
-114.100392682587
 21
123.545575513075
  0
LINE
  5
236
100
AcDbEntity
  8
1
  6
CONTINUOUS
 62
           2
100
AcDbLine
 10
-116.600392682587
 20
119.215448494153
 11
-114.100392682587
 21
120.658824167127
  0
LINE
  5
235
100
AcDbEntity
  8
1
  6
CONTINUOUS
 62
           2
100
AcDbLine
 10
-119.100392682587
 20
120.658824167127
 11
-116.600392682587
 21
119.215448494153
  0
LINE
  5
234
100
AcDbEntity
  8
1
  6
CONTINUOUS
 62
           2
100
AcDbLine
 10
-119.100392682587
 20
123.545575513075
 11
-119.100392682587
 21
120.658824167127
  0
LINE
  5
233
100
AcDbEntity
  8
1
  6
CONTINUOUS
 62
           2
100
AcDbLine
 10
-116.600392682587
 20
124.988951186049
 11
-119.100392682587
 21
123.545575513075
  0
LINE
  5
232
100
AcDbEntity
  8
1
  6
CONTINUOUS
 62
           2
100
AcDbLine
 10
229.611484101911
 20
127.102199840101
 11
235.011484101911
 21
127.102199840101
  0
LINE
  5
231
100
AcDbEntity
  8
1
  6
CONTINUOUS
 62
           2
100
AcDbLine
 10
235.611484101911
 20
126.502199840101
 11
235.611484101911
 21
120.6359480773
  0
LINE
  5
230
100
AcDbEntity
  8
1
  6
CONTINUOUS
 62
           2
100
AcDbLine
 10
235.011484101911
 20
117.102199840101
 11
229.611484101911
 21
117.102199840101
  0
LINE
  5
22F
100
AcDbEntity
  8
1
  6
DOT_CENTER
 62
           3
100
AcDbLine
 10
218.611484101911
 20
122.102199840101
 11
236.211484101911
 21
122.102199840101
  0
LINE
  5
22E
100
AcDbEntity
  8
1
  6
DOT_CENTER
 62
           3
100
AcDbLine
 10
236.211484101911
 20
59.169696314498
 11
218.611484101911
 21
59.169696314498
  0
LINE
  5
22D
100
AcDbEntity
  8
1
  6
CONTINUOUS
 62
           2
100
AcDbLine
 10
229.611484101911
 20
64.169696314498
 11
235.011484101911
 21
64.169696314498
  0
LINE
  5
22C
100
AcDbEntity
  8
1
  6
CONTINUOUS
 62
           2
100
AcDbLine
 10
235.611484101911
 20
63.569696314498
 11
235.611484101911
 21
60.6359480773
  0
LINE
  5
22B
100
AcDbEntity
  8
1
  6
CONTINUOUS
 62
           2
100
AcDbLine
 10
235.011484101911
 20
54.169696314498
 11
229.611484101911
 21
54.169696314498
  0
LINE
  5
22A
100
AcDbEntity
  8
1
  6
CONTINUOUS
 62
           2
100
AcDbLine
 10
-184.532896208189
 20
-194.3044410185
 11
-184.532896208189
 21
-188.9044410185
  0
LINE
  5
229
100
AcDbEntity
  8
1
  6
CONTINUOUS
 62
           2
100
AcDbLine
 10
-175.132896208189
 20
-194.9044410185
 11
-178.066644445388
 21
-194.9044410185
  0
LINE
  5
228
100
AcDbEntity
  8
1
  6
CONTINUOUS
 62
           2
100
AcDbLine
 10
-174.532896208189
 20
-188.9044410185
 11
-174.532896208189
 21
-194.3044410185
  0
LINE
  5
227
100
AcDbEntity
  8
1
  6
DOT_CENTER
 62
           3
100
AcDbLine
 10
-179.532896208189
 20
-195.5044410185
 11
-179.532896208189
 21
-177.9044410185
  0
LINE
  5
226
100
AcDbEntity
  8
1
  6
DOT_CENTER
 62
           3
100
AcDbLine
 10
-116.600392682587
 20
-177.9044410185
 11
-116.600392682587
 21
-195.5044410185
  0
LINE
  5
225
100
AcDbEntity
  8
1
  6
CONTINUOUS
 62
           2
100
AcDbLine
 10
-121.600392682587
 20
-194.3044410185
 11
-121.600392682587
 21
-188.9044410185
  0
LINE
  5
224
100
AcDbEntity
  8
1
  6
CONTINUOUS
 62
           2
100
AcDbLine
 10
-112.200392682587
 20
-194.9044410185
 11
-118.066644445388
 21
-194.9044410185
  0
LINE
  5
223
100
AcDbEntity
  8
1
  6
CONTINUOUS
 62
           2
100
AcDbLine
 10
-111.600392682587
 20
-188.9044410185
 11
-111.600392682587
 21
-194.3044410185
  0
LINE
  5
222
100
AcDbEntity
  8
1
  6
DOT_CENTER
 62
           3
100
AcDbLine
 10
-184.117631985531
 20
131.635948077299
 11
-193.466644445388
 21
131.6359480773
  0
LINE
  5
221
100
AcDbEntity
  8
1
  6
DOT_CENTER
 62
           3
100
AcDbLine
 10
-189.066644445388
 20
131.635948077299
 11
-189.066644445388
 21
136.035948077299
  0
LINE
  5
220
100
AcDbEntity
  8
1
  6
DOT_CENTER
 62
           3
100
AcDbLine
 10
-189.066644445388
 20
127.235948077299
 11
-189.066644445388
 21
131.635948077299
  0
LINE
  5
21F
100
AcDbEntity
  8
1
  6
DOT_CENTER
 62
           3
100
AcDbLine
 10
-102.666644445388
 20
131.6359480773
 11
-112.015656905245
 21
131.635948077299
  0
LINE
  5
21E
100
AcDbEntity
  8
1
  6
DOT_CENTER
 62
           3
100
AcDbLine
 10
-107.066644445388
 20
136.035948077299
 11
-107.066644445388
 21
131.635948077299
  0
LINE
  5
21D
100
AcDbEntity
  8
1
  6
DOT_CENTER
 62
           3
100
AcDbLine
 10
-107.066644445388
 20
131.635948077299
 11
-107.066644445388
 21
127.235948077299
  0
LINE
  5
21C
100
AcDbEntity
  8
1
  6
DOT_CENTER
 62
           3
100
AcDbLine
 10
-112.015656905245
 20
49.6359480773
 11
-102.666644445388
 21
49.6359480773
  0
LINE
  5
21B
100
AcDbEntity
  8
1
  6
DOT_CENTER
 62
           3
100
AcDbLine
 10
-107.066644445388
 20
49.6359480773
 11
-107.066644445388
 21
45.235948077299
  0
LINE
  5
21A
100
AcDbEntity
  8
1
  6
DOT_CENTER
 62
           3
100
AcDbLine
 10
-107.066644445388
 20
54.035948077299
 11
-107.066644445388
 21
49.6359480773
  0
LINE
  5
219
100
AcDbEntity
  8
1
  6
DOT_CENTER
 62
           3
100
AcDbLine
 10
-193.466644445388
 20
49.635948077299
 11
-184.117631985531
 21
49.6359480773
  0
LINE
  5
218
100
AcDbEntity
  8
1
  6
DOT_CENTER
 62
           3
100
AcDbLine
 10
-189.066644445388
 20
45.235948077299
 11
-189.066644445388
 21
49.6359480773
  0
LINE
  5
217
100
AcDbEntity
  8
1
  6
DOT_CENTER
 62
           3
100
AcDbLine
 10
-189.066644445388
 20
49.6359480773
 11
-189.066644445388
 21
54.035948077299
  0
LINE
  5
216
100
AcDbEntity
  8
1
  6
DOT_CENTER
 62
           3
100
AcDbLine
 10
-184.117631985531
 20
-84.904441018501
 11
-193.466644445388
 21
-84.9044410185
  0
LINE
  5
215
100
AcDbEntity
  8
1
  6
DOT_CENTER
 62
           3
100
AcDbLine
 10
-189.066644445388
 20
-84.9044410185
 11
-189.066644445388
 21
-80.5044410185
  0
LINE
  5
214
100
AcDbEntity
  8
1
  6
DOT_CENTER
 62
           3
100
AcDbLine
 10
-189.066644445388
 20
-89.3044410185
 11
-189.066644445388
 21
-84.9044410185
  0
LINE
  5
213
100
AcDbEntity
  8
1
  6
DOT_CENTER
 62
           3
100
AcDbLine
 10
-102.666644445388
 20
-84.9044410185
 11
-112.015656905245
 21
-84.904441018501
  0
LINE
  5
212
100
AcDbEntity
  8
1
  6
DOT_CENTER
 62
           3
100
AcDbLine
 10
-107.066644445388
 20
-80.5044410185
 11
-107.066644445388
 21
-84.9044410185
  0
LINE
  5
211
100
AcDbEntity
  8
1
  6
DOT_CENTER
 62
           3
100
AcDbLine
 10
-107.066644445388
 20
-84.9044410185
 11
-107.066644445388
 21
-89.3044410185
  0
LINE
  5
210
100
AcDbEntity
  8
1
  6
DOT_CENTER
 62
           3
100
AcDbLine
 10
-112.015656905245
 20
-166.9044410185
 11
-102.666644445388
 21
-166.9044410185
  0
LINE
  5
20F
100
AcDbEntity
  8
1
  6
DOT_CENTER
 62
           3
100
AcDbLine
 10
-107.066644445388
 20
-166.9044410185
 11
-107.066644445388
 21
-171.3044410185
  0
LINE
  5
20E
100
AcDbEntity
  8
1
  6
DOT_CENTER
 62
           3
100
AcDbLine
 10
-107.066644445388
 20
-162.5044410185
 11
-107.066644445388
 21
-166.9044410185
  0
LINE
  5
20D
100
AcDbEntity
  8
1
  6
DOT_CENTER
 62
           3
100
AcDbLine
 10
-193.466644445388
 20
-166.9044410185
 11
-184.117631985531
 21
-166.9044410185
  0
LINE
  5
20C
100
AcDbEntity
  8
1
  6
DOT_CENTER
 62
           3
100
AcDbLine
 10
-189.066644445388
 20
-171.3044410185
 11
-189.066644445388
 21
-166.9044410185
  0
LINE
  5
20B
100
AcDbEntity
  8
1
  6
DOT_CENTER
 62
           3
100
AcDbLine
 10
-189.066644445388
 20
-166.9044410185
 11
-189.066644445388
 21
-162.5044410185
  0
LINE
  5
20A
100
AcDbEntity
  8
1
  6
DOT_CENTER
 62
           3
100
AcDbLine
 10
121.211484101911
 20
49.635948077299
 11
130.560496561768
 21
49.6359480773
  0
LINE
  5
209
100
AcDbEntity
  8
1
  6
DOT_CENTER
 62
           3
100
AcDbLine
 10
125.611484101911
 20
45.235948077299
 11
125.611484101911
 21
49.6359480773
  0
LINE
  5
208
100
AcDbEntity
  8
1
  6
DOT_CENTER
 62
           3
100
AcDbLine
 10
125.611484101911
 20
49.6359480773
 11
125.611484101911
 21
54.0359480773
  0
LINE
  5
207
100
AcDbEntity
  8
1
  6
DOT_CENTER
 62
           3
100
AcDbLine
 10
202.662471642054
 20
49.6359480773
 11
212.011484101911
 21
49.635948077299
  0
LINE
  5
206
100
AcDbEntity
  8
1
  6
DOT_CENTER
 62
           3
100
AcDbLine
 10
207.611484101911
 20
49.6359480773
 11
207.611484101911
 21
45.235948077299
  0
LINE
  5
205
100
AcDbEntity
  8
1
  6
DOT_CENTER
 62
           3
100
AcDbLine
 10
207.611484101911
 20
54.0359480773
 11
207.611484101911
 21
49.6359480773
  0
LINE
  5
204
100
AcDbEntity
  8
1
  6
DOT_CENTER
 62
           3
100
AcDbLine
 10
130.560496561768
 20
131.635948077299
 11
121.211484101911
 21
131.6359480773
  0
LINE
  5
203
100
AcDbEntity
  8
1
  6
DOT_CENTER
 62
           3
100
AcDbLine
 10
125.611484101911
 20
131.635948077299
 11
125.611484101911
 21
136.0359480773
  0
LINE
  5
202
100
AcDbEntity
  8
1
  6
DOT_CENTER
 62
           3
100
AcDbLine
 10
125.611484101911
 20
127.2359480773
 11
125.611484101911
 21
131.635948077299
  0
LINE
  5
201
100
AcDbEntity
  8
1
  6
DOT_CENTER
 62
           3
100
AcDbLine
 10
212.011484101911
 20
131.6359480773
 11
202.662471642054
 21
131.635948077299
  0
LINE
  5
200
100
AcDbEntity
  8
1
  6
DOT_CENTER
 62
           3
100
AcDbLine
 10
207.611484101911
 20
136.0359480773
 11
207.611484101911
 21
131.635948077299
  0
LINE
  5
1FF
100
AcDbEntity
  8
1
  6
DOT_CENTER
 62
           3
100
AcDbLine
 10
207.611484101911
 20
131.635948077299
 11
207.611484101911
 21
127.2359480773
  0
LINE
  5
1FE
100
AcDbEntity
  8
1
  6
CONTINUOUS
 62
           2
100
AcDbLine
 10
-83.066644445388
 20
-180.9044410185
 11
-83.066644445388
 21
-70.9044410185
  0
LINE
  5
1FD
100
AcDbEntity
  8
1
  6
CONTINUOUS
 62
           2
100
AcDbLine
 10
-83.066644445388
 20
-70.9044410185
 11
-213.066644445388
 21
-70.9044410185
  0
LINE
  5
1FC
100
AcDbEntity
  8
1
  6
CONTINUOUS
 62
           2
100
AcDbLine
 10
-83.066644445388
 20
-180.9044410185
 11
-213.066644445388
 21
-180.9044410185
  0
LINE
  5
1FB
100
AcDbEntity
  8
1
  6
CONTINUOUS
 62
           2
100
AcDbLine
 10
-213.066644445388
 20
35.6359480773
 11
-83.066644445388
 21
35.6359480773
  0
LINE
  5
1FA
100
AcDbEntity
  8
1
  6
CONTINUOUS
 62
           2
100
AcDbLine
 10
-83.066644445388
 20
35.6359480773
 11
-83.066644445388
 21
145.635948077299
  0
LINE
  5
1F9
100
AcDbEntity
  8
1
  6
CONTINUOUS
 62
           2
100
AcDbLine
 10
-83.066644445388
 20
145.635948077299
 11
-213.066644445388
 21
145.635948077299
  0
LINE
  5
1F8
100
AcDbEntity
  8
1
  6
CONTINUOUS
 62
           2
100
AcDbLine
 10
-213.066644445388
 20
145.635948077299
 11
-213.066644445388
 21
35.6359480773
  0
LINE
  5
1F7
100
AcDbEntity
  8
1
  6
CONTINUOUS
 62
           2
100
AcDbLine
 10
221.611484101911
 20
35.6359480773
 11
221.611484101911
 21
145.635948077299
  0
LINE
  5
1F6
100
AcDbEntity
  8
1
  6
CONTINUOUS
 62
           2
100
AcDbLine
 10
221.611484101911
 20
145.635948077299
 11
111.611484101911
 21
145.635948077299
  0
LINE
  5
1F5
100
AcDbEntity
  8
1
  6
DOT_CENTER
 62
           3
100
AcDbLine
 10
166.611484101911
 20
150.635948077299
 11
166.611484101911
 21
30.635948077299
  0
LINE
  5
1F4
100
AcDbEntity
  8
1
  6
CONTINUOUS
 62
           2
100
AcDbLine
 10
111.611484101911
 20
145.635948077299
 11
111.611484101911
 21
35.6359480773
  0
LINE
  5
1F3
100
AcDbEntity
  8
1
  6
CONTINUOUS
 62
           2
100
AcDbLine
 10
221.611484101911
 20
35.6359480773
 11
111.611484101911
 21
35.6359480773
  0
LINE
  5
1F2
100
AcDbEntity
  8
1
  6
CONTINUOUS
 62
           2
100
AcDbLine
 10
-213.066644445388
 20
-70.9044410185
 11
-213.066644445388
 21
-180.9044410185
  0
LINE
  5
1F1
100
AcDbEntity
  8
1
  6
CONTINUOUS
 62
           2
100
AcDbLine
 10
-222.066644445388
 20
141.6359480773
 11
-213.066644445388
 21
141.6359480773
  0
LINE
  5
1F0
100
AcDbEntity
  8
1
  6
CONTINUOUS
 62
           2
100
AcDbLine
 10
-222.066644445388
 20
39.6359480773
 11
-213.066644445388
 21
39.6359480773
  0
LINE
  5
1EF
100
AcDbEntity
  8
1
  6
CONTINUOUS
 62
           2
100
AcDbLine
 10
-74.066644445388
 20
39.6359480773
 11
-83.066644445388
 21
39.6359480773
  0
LINE
  5
1EE
100
AcDbEntity
  8
1
  6
CONTINUOUS
 62
           2
100
AcDbLine
 10
-74.066644445388
 20
141.6359480773
 11
-83.066644445388
 21
141.6359480773
  0
LINE
  5
1ED
100
AcDbEntity
  8
1
  6
CONTINUOUS
 62
           2
100
AcDbLine
 10
-74.066644445388
 20
-176.9044410185
 11
-83.066644445388
 21
-176.9044410185
  0
LINE
  5
1EC
100
AcDbEntity
  8
1
  6
CONTINUOUS
 62
           2
100
AcDbLine
 10
-74.066644445388
 20
-74.9044410185
 11
-83.066644445388
 21
-74.9044410185
  0
LINE
  5
1EB
100
AcDbEntity
  8
1
  6
CONTINUOUS
 62
           2
100
AcDbLine
 10
-222.066644445388
 20
-176.9044410185
 11
-213.066644445388
 21
-176.9044410185
  0
LINE
  5
1EA
100
AcDbEntity
  8
1
  6
CONTINUOUS
 62
           2
100
AcDbLine
 10
-222.066644445388
 20
-74.9044410185
 11
-213.066644445388
 21
-74.9044410185
  0
LINE
  5
1E9
100
AcDbEntity
  8
1
  6
CONTINUOUS
 62
           2
100
AcDbLine
 10
-74.066644445388
 20
141.6359480773
 11
-74.066644445388
 21
39.6359480773
  0
LINE
  5
1E8
100
AcDbEntity
  8
1
  6
CONTINUOUS
 62
           2
100
AcDbLine
 10
-222.066644445388
 20
39.6359480773
 11
-222.066644445388
 21
141.6359480773
  0
LINE
  5
1E7
100
AcDbEntity
  8
1
  6
CONTINUOUS
 62
           2
100
AcDbLine
 10
-222.066644445388
 20
-176.9044410185
 11
-222.066644445388
 21
-74.9044410185
  0
LINE
  5
1E6
100
AcDbEntity
  8
1
  6
CONTINUOUS
 62
           2
100
AcDbLine
 10
-74.066644445388
 20
-176.9044410185
 11
-74.066644445388
 21
-74.9044410185
  0
LINE
  5
1E5
100
AcDbEntity
  8
1
  6
DOT_CENTER
 62
           3
100
AcDbLine
 10
-148.066644445388
 20
150.635948077299
 11
-148.066644445388
 21
33.208703745531
  0
LINE
  5
1E4
100
AcDbEntity
  8
1
  6
CONTINUOUS
 62
           2
100
AcDbLine
 10
-224.066644445388
 20
-110.440339403364
 11
-222.066644445388
 21
-109.9044410185
  0
LINE
  5
1E3
100
AcDbEntity
  8
1
  6
CONTINUOUS
 62
           2
100
AcDbLine
 10
-224.066644445388
 20
-141.36854263364
 11
-222.066644445388
 21
-141.9044410185
  0
LINE
  5
1E2
100
AcDbEntity
  8
1
  6
CONTINUOUS
 62
           2
100
AcDbLine
 10
-224.066644445388
 20
-141.36854263364
 11
-224.066644445388
 21
-110.440339403364
  0
LINE
  5
1E1
100
AcDbEntity
  8
1
  6
CONTINUOUS
 62
           2
100
AcDbLine
 10
-254.066644445388
 20
-128.9044410185
 11
-228.066644445388
 21
-128.9044410185
  0
LINE
  5
1E0
100
AcDbEntity
  8
1
  6
CONTINUOUS
 62
           2
100
AcDbLine
 10
-254.066644445388
 20
-122.9044410185
 11
-228.066644445388
 21
-122.9044410185
  0
LINE
  5
1DF
100
AcDbEntity
  8
1
  6
CONTINUOUS
 62
           2
100
AcDbLine
 10
-224.066644445388
 20
-136.9044410185
 11
-259.066644445388
 21
-136.9044410185
  0
LINE
  5
1DE
100
AcDbEntity
  8
1
  6
CONTINUOUS
 62
           2
100
AcDbLine
 10
-259.066644445388
 20
-136.9044410185
 11
-259.066644445388
 21
-114.9044410185
  0
LINE
  5
1DD
100
AcDbEntity
  8
1
  6
CONTINUOUS
 62
           2
100
AcDbLine
 10
-224.066644445388
 20
-114.9044410185
 11
-259.066644445388
 21
-114.9044410185
  0
LINE
  5
1DC
100
AcDbEntity
  8
1
  6
CONTINUOUS
 62
           2
100
AcDbLine
 10
-74.066644445388
 20
-109.9044410185
 11
-72.066644445388
 21
-110.440339403364
  0
LINE
  5
1DB
100
AcDbEntity
  8
1
  6
CONTINUOUS
 62
           2
100
AcDbLine
 10
-74.066644445388
 20
-141.9044410185
 11
-72.066644445388
 21
-141.36854263364
  0
LINE
  5
1DA
100
AcDbEntity
  8
1
  6
CONTINUOUS
 62
           2
100
AcDbLine
 10
-72.066644445388
 20
-110.440339403364
 11
-72.066644445388
 21
-141.36854263364
  0
LINE
  5
1D9
100
AcDbEntity
  8
1
  6
CONTINUOUS
 62
           2
100
AcDbLine
 10
-68.066644445388
 20
-128.9044410185
 11
-42.066644445388
 21
-128.9044410185
  0
LINE
  5
1D8
100
AcDbEntity
  8
1
  6
CONTINUOUS
 62
           2
100
AcDbLine
 10
-68.066644445388
 20
-122.9044410185
 11
-42.066644445388
 21
-122.9044410185
  0
LINE
  5
1D7
100
AcDbEntity
  8
1
  6
CONTINUOUS
 62
           2
100
AcDbLine
 10
-37.066644445388
 20
-136.9044410185
 11
-72.066644445388
 21
-136.9044410185
  0
LINE
  5
1D6
100
AcDbEntity
  8
1
  6
CONTINUOUS
 62
           2
100
AcDbLine
 10
-37.066644445388
 20
-114.9044410185
 11
-37.066644445388
 21
-136.9044410185
  0
LINE
  5
1D5
100
AcDbEntity
  8
1
  6
CONTINUOUS
 62
           2
100
AcDbLine
 10
-37.066644445388
 20
-114.9044410185
 11
-72.066644445388
 21
-114.9044410185
  0
LINE
  5
1D4
100
AcDbEntity
  8
1
  6
CONTINUOUS
 62
           2
100
AcDbLine
 10
-257.066644445388
 20
104.1359480773
 11
-257.066644445388
 21
101.6359480773
  0
LINE
  5
1D3
100
AcDbEntity
  8
1
  6
CONTINUOUS
 62
           2
100
AcDbLine
 10
-225.066644445388
 20
104.1359480773
 11
-257.066644445388
 21
104.1359480773
  0
LINE
  5
1D2
100
AcDbEntity
  8
1
  6
CONTINUOUS
 62
           2
100
AcDbLine
 10
-225.066644445388
 20
101.6359480773
 11
-225.066644445388
 21
104.1359480773
  0
LINE
  5
1D1
100
AcDbEntity
  8
1
  6
CONTINUOUS
 62
           2
100
AcDbLine
 10
-224.066644445388
 20
106.100049692436
 11
-222.066644445388
 21
106.6359480773
  0
LINE
  5
1D0
100
AcDbEntity
  8
1
  6
CONTINUOUS
 62
           2
100
AcDbLine
 10
-224.066644445388
 20
75.17184646216
 11
-222.066644445388
 21
74.6359480773
  0
LINE
  5
1CF
100
AcDbEntity
  8
1
  6
CONTINUOUS
 62
           2
100
AcDbLine
 10
-224.066644445388
 20
75.17184646216
 11
-224.066644445388
 21
106.100049692436
  0
LINE
  5
1CE
100
AcDbEntity
  8
1
  6
CONTINUOUS
 62
           2
100
AcDbLine
 10
-224.066644445388
 20
101.6359480773
 11
-259.066644445388
 21
101.6359480773
  0
LINE
  5
1CD
100
AcDbEntity
  8
1
  6
CONTINUOUS
 62
           2
100
AcDbLine
 10
-259.066644445388
 20
101.6359480773
 11
-259.066644445388
 21
79.6359480773
  0
LINE
  5
1CC
100
AcDbEntity
  8
1
  6
CONTINUOUS
 62
           2
100
AcDbLine
 10
-224.066644445388
 20
79.6359480773
 11
-259.066644445388
 21
79.6359480773
  0
LINE
  5
1CB
100
AcDbEntity
  8
1
  6
CONTINUOUS
 62
           2
100
AcDbLine
 10
-39.066644445388
 20
101.6359480773
 11
-39.066644445388
 21
104.1359480773
  0
LINE
  5
1CA
100
AcDbEntity
  8
1
  6
CONTINUOUS
 62
           2
100
AcDbLine
 10
-39.066644445388
 20
104.1359480773
 11
-71.066644445388
 21
104.1359480773
  0
LINE
  5
1C9
100
AcDbEntity
  8
1
  6
CONTINUOUS
 62
           2
100
AcDbLine
 10
-71.066644445388
 20
104.1359480773
 11
-71.066644445388
 21
101.6359480773
  0
LINE
  5
1C8
100
AcDbEntity
  8
1
  6
CONTINUOUS
 62
           2
100
AcDbLine
 10
-74.066644445388
 20
106.6359480773
 11
-72.066644445388
 21
106.100049692436
  0
LINE
  5
1C7
100
AcDbEntity
  8
1
  6
CONTINUOUS
 62
           2
100
AcDbLine
 10
-74.066644445388
 20
74.6359480773
 11
-72.066644445388
 21
75.17184646216
  0
LINE
  5
1C6
100
AcDbEntity
  8
1
  6
CONTINUOUS
 62
           2
100
AcDbLine
 10
-72.066644445388
 20
106.100049692436
 11
-72.066644445388
 21
75.17184646216
  0
LINE
  5
1C5
100
AcDbEntity
  8
1
  6
CONTINUOUS
 62
           2
100
AcDbLine
 10
-37.066644445388
 20
101.6359480773
 11
-72.066644445388
 21
101.6359480773
  0
LINE
  5
1C4
100
AcDbEntity
  8
1
  6
CONTINUOUS
 62
           2
100
AcDbLine
 10
-37.066644445388
 20
79.6359480773
 11
-37.066644445388
 21
101.6359480773
  0
LINE
  5
1C3
100
AcDbEntity
  8
1
  6
CONTINUOUS
 62
           2
100
AcDbLine
 10
-37.066644445388
 20
79.6359480773
 11
-72.066644445388
 21
79.6359480773
  0
LINE
  5
1C2
100
AcDbEntity
  8
1
  6
CONTINUOUS
 62
           2
100
AcDbLine
 10
163.611484101911
 20
104.1359480773
 11
163.611484101911
 21
101.218953321558
  0
LINE
  5
1C1
100
AcDbEntity
  8
1
  6
CONTINUOUS
 62
           2
100
AcDbLine
 10
169.611484101911
 20
104.1359480773
 11
163.611484101911
 21
104.1359480773
  0
LINE
  5
1C0
100
AcDbEntity
  8
1
  6
CONTINUOUS
 62
           2
100
AcDbLine
 10
169.611484101911
 20
101.218953321558
 11
169.611484101911
 21
104.1359480773
  0
LINE
  5
1BF
100
AcDbEntity
  8
1
  6
CONTINUOUS
 62
           2
100
AcDbLine
 10
-97.066644445388
 20
-188.9044410185
 11
-97.066644445388
 21
-180.9044410185
  0
LINE
  5
1BE
100
AcDbEntity
  8
1
  6
CONTINUOUS
 62
           2
100
AcDbLine
 10
-109.066644445388
 20
-188.9044410185
 11
-109.066644445388
 21
-191.9044410185
  0
LINE
  5
1BD
100
AcDbEntity
  8
1
  6
CONTINUOUS
 62
           2
100
AcDbLine
 10
-118.066644445388
 20
-224.9044410185
 11
-118.066644445388
 21
-194.9044410185
  0
LINE
  5
1BC
100
AcDbEntity
  8
1
  6
CONTINUOUS
 62
           2
100
AcDbLine
 10
-97.066644445388
 20
-188.9044410185
 11
-199.066644445388
 21
-188.9044410185
  0
LINE
  5
1BB
100
AcDbEntity
  8
1
  6
CONTINUOUS
 62
           2
100
AcDbLine
 10
-199.066644445388
 20
-180.9044410185
 11
-199.066644445388
 21
-188.9044410185
  0
LINE
  5
1BA
100
AcDbEntity
  8
1
  6
CONTINUOUS
 62
           2
100
AcDbLine
 10
-187.066644445388
 20
-191.9044410185
 11
-187.066644445388
 21
-188.9044410185
  0
LINE
  5
1B9
100
AcDbEntity
  8
1
  6
CONTINUOUS
 62
           2
100
AcDbLine
 10
-109.066644445388
 20
-191.9044410185
 11
-111.600392682587
 21
-191.9044410185
  0
LINE
  5
1B8
100
AcDbEntity
  8
1
  6
CONTINUOUS
 62
           2
100
AcDbLine
 10
-178.066644445388
 20
-224.9044410185
 11
-118.066644445388
 21
-224.9044410185
  0
LINE
  5
1B7
100
AcDbEntity
  8
1
  6
DOT_CENTER
 62
           3
100
AcDbLine
 10
-260.572599613505
 20
-125.9044410185
 11
-36.078238315555
 21
-125.9044410185
  0
LINE
  5
1B6
100
AcDbEntity
  8
1
  6
DOT_CENTER
 62
           3
100
AcDbLine
 10
-148.066644445388
 20
-68.841621865391
 11
-148.066644445388
 21
-249.199601834901
  0
LINE
  5
1B5
100
AcDbEntity
  8
1
  6
CONTINUOUS
 62
           2
100
AcDbLine
 10
-140.566644445388
 20
-225.9044410185
 11
-155.566644445388
 21
-225.9044410185
  0
LINE
  5
1B4
100
AcDbEntity
  8
1
  6
CONTINUOUS
 62
           2
100
AcDbLine
 10
-155.566644445388
 20
-225.9044410185
 11
-155.566644445388
 21
-224.9044410185
  0
LINE
  5
1B3
100
AcDbEntity
  8
1
  6
CONTINUOUS
 62
           2
100
AcDbLine
 10
-140.566644445388
 20
-225.9044410185
 11
-140.566644445388
 21
-224.9044410185
  0
LINE
  5
1B2
100
AcDbEntity
  8
1
  6
CONTINUOUS
 62
           2
100
AcDbLine
 10
-154.066644445388
 20
-225.9044410185
 11
-154.066644445388
 21
-247.9044410185
  0
LINE
  5
1B1
100
AcDbEntity
  8
1
  6
CONTINUOUS
 62
           2
100
AcDbLine
 10
-154.066644445388
 20
-247.9044410185
 11
-142.066644445388
 21
-247.9044410185
  0
LINE
  5
1B0
100
AcDbEntity
  8
1
  6
CONTINUOUS
 62
           2
100
AcDbLine
 10
-142.066644445388
 20
-225.9044410185
 11
-142.066644445388
 21
-247.9044410185
  0
LINE
  5
1AF
100
AcDbEntity
  8
1
  6
DOT_CENTER
 62
           3
100
AcDbLine
 10
-260.020257557662
 20
90.6359480773
 11
-35.515666669783
 21
90.6359480773
  0
LINE
  5
1AE
100
AcDbEntity
  8
1
  6
CONTINUOUS
 62
           2
100
AcDbLine
 10
229.611484101911
 20
141.6359480773
 11
221.611484101911
 21
141.6359480773
  0
LINE
  5
1AD
100
AcDbEntity
  8
1
  6
CONTINUOUS
 62
           2
100
AcDbLine
 10
229.611484101911
 20
129.635948077299
 11
232.611484101911
 21
129.635948077299
  0
LINE
  5
1AC
100
AcDbEntity
  8
1
  6
CONTINUOUS
 62
           2
100
AcDbLine
 10
265.611484101911
 20
120.6359480773
 11
235.611484101911
 21
120.6359480773
  0
LINE
  5
1AB
100
AcDbEntity
  8
1
  6
CONTINUOUS
 62
           2
100
AcDbLine
 10
229.611484101911
 20
141.6359480773
 11
229.611484101911
 21
39.6359480773
  0
LINE
  5
1AA
100
AcDbEntity
  8
1
  6
CONTINUOUS
 62
           2
100
AcDbLine
 10
221.611484101911
 20
39.6359480773
 11
229.611484101911
 21
39.6359480773
  0
LINE
  5
1A9
100
AcDbEntity
  8
1
  6
CONTINUOUS
 62
           2
100
AcDbLine
 10
232.611484101911
 20
51.6359480773
 11
229.611484101911
 21
51.6359480773
  0
LINE
  5
1A8
100
AcDbEntity
  8
1
  6
CONTINUOUS
 62
           2
100
AcDbLine
 10
232.611484101911
 20
129.635948077299
 11
232.611484101911
 21
127.102199840101
  0
LINE
  5
1A7
100
AcDbEntity
  8
1
  6
CONTINUOUS
 62
           2
100
AcDbLine
 10
265.611484101911
 20
60.6359480773
 11
265.611484101911
 21
120.6359480773
  0
LINE
  5
1A6
100
AcDbEntity
  8
1
  6
DOT_CENTER
 62
           3
100
AcDbLine
 10
108.958708809382
 20
90.6359480773
 11
290.482729480191
 21
90.6359480773
  0
LINE
  5
1A5
100
AcDbEntity
  8
1
  6
CONTINUOUS
 62
           2
100
AcDbLine
 10
-184.532896208189
 20
-191.9044410185
 11
-187.066644445388
 21
-191.9044410185
  0
LINE
  5
1A4
100
AcDbEntity
  8
1
  6
CONTINUOUS
 62
           2
100
AcDbLine
 10
-121.600392682587
 20
-191.9044410185
 11
-122.066644445388
 21
-191.9044410185
  0
LINE
  5
1A3
100
AcDbEntity
  8
1
  6
CONTINUOUS
 62
           2
100
AcDbLine
 10
232.611484101911
 20
54.169696314498
 11
232.611484101911
 21
51.6359480773
  0
LINE
  5
1A2
100
AcDbEntity
  8
1
  6
CONTINUOUS
 62
           2
100
AcDbLine
 10
232.611484101911
 20
117.102199840101
 11
232.611484101911
 21
116.6359480773
  0
LINE
  5
1A1
100
AcDbEntity
  8
1
  6
CONTINUOUS
 62
           2
100
AcDbLine
 10
235.611484101911
 20
60.6359480773
 11
265.611484101911
 21
60.6359480773
  0
LINE
  5
1A0
100
AcDbEntity
  8
1
  6
CONTINUOUS
 62
           2
100
AcDbLine
 10
-178.066644445388
 20
-194.9044410185
 11
-178.066644445388
 21
-224.9044410185
  0
LINE
  5
19F
100
AcDbEntity
  8
1
  6
CONTINUOUS
 62
           3
100
AcDbLine
 10
-157.706254752177
 20
-106.552051974487
 11
-157.706254752177
 21
-145.256830062513
  0
LINE
  5
19E
100
AcDbEntity
  8
1
  6
CONTINUOUS
 62
           3
100
AcDbLine
 10
-157.706254752177
 20
-145.256830062513
 11
-166.706254752177
 21
-166.984752123871
  0
LINE
  5
19D
100
AcDbEntity
  8
1
  6
CONTINUOUS
 62
           3
100
AcDbLine
 10
-165.082666451739
 20
-170.9044410185
 11
-161.354744390381
 21
-161.9044410185
  0
LINE
  5
19C
100
AcDbEntity
  8
1
  6
CONTINUOUS
 62
           3
100
AcDbLine
 10
-161.354744390381
 20
-161.9044410185
 11
-134.778544500395
 21
-161.9044410185
  0
LINE
  5
19B
100
AcDbEntity
  8
1
  6
CONTINUOUS
 62
           3
100
AcDbLine
 10
-134.778544500395
 20
-161.9044410185
 11
-131.050622439037
 21
-170.9044410185
  0
LINE
  5
19A
100
AcDbEntity
  8
1
  6
CONTINUOUS
 62
           3
100
AcDbLine
 10
-131.050622439037
 20
-170.9044410185
 11
-165.082666451739
 21
-170.9044410185
  0
LINE
  5
199
100
AcDbEntity
  8
1
  6
CONTINUOUS
 62
           3
100
AcDbLine
 10
-166.706254752177
 20
-84.824129913129
 11
-157.706254752177
 21
-106.552051974487
  0
LINE
  5
198
100
AcDbEntity
  8
1
  6
CONTINUOUS
 62
           3
100
AcDbLine
 10
-166.706254752177
 20
-84.824129913129
 11
-166.706254752177
 21
-166.984752123871
  0
ENDBLK
  5
2A0
100
AcDbEntity
  8
0
100
AcDbBlockEnd
  0
BLOCK
  5
2AC
100
AcDbEntity
  8
0
100
AcDbBlockBegin
  2
*D2
 70
           1
 10
0.0
 20
0.0
 30
0.0
  3
*D2
  1

  0
LINE
  5
2AD
100
AcDbEntity
  8
0
  6
CONTINUOUS
 62
           3
100
AcDbLine
 10
-189.066644445388
 20
157.056296663532
 11
-107.066644445388
 21
157.056296663532
  0
LINE
  5
2AE
100
AcDbEntity
  8
0
  6
CONTINUOUS
 62
           3
100
AcDbLine
 10
-189.066644445388
 20
136.035948077299
 11
-189.066644445388
 21
161.056296663532
  0
LINE
  5
2AF
100
AcDbEntity
  8
0
  6
CONTINUOUS
 62
           3
100
AcDbLine
 10
-107.066644445388
 20
136.035948077299
 11
-107.066644445388
 21
161.056296663532
  0
LINE
  5
2B0
100
AcDbEntity
  8
0
 62
           3
100
AcDbLine
 10
-189.066644445388
 20
157.056296663532
 11
-183.066644445388
 21
157.846211649056
  0
LINE
  5
2B1
100
AcDbEntity
  8
0
 62
           3
100
AcDbLine
 10
-189.066644445388
 20
157.056296663532
 11
-183.066644445388
 21
156.266381678008
  0
LINE
  5
2B2
100
AcDbEntity
  8
0
 62
           3
100
AcDbLine
 10
-183.066644445388
 20
157.846211649056
 11
-183.066644445388
 21
156.266381678008
  0
LINE
  5
2B3
100
AcDbEntity
  8
0
 62
           3
100
AcDbLine
 10
-107.066644445388
 20
157.056296663532
 11
-113.066644445388
 21
156.266381678008
  0
LINE
  5
2B4
100
AcDbEntity
  8
0
 62
           3
100
AcDbLine
 10
-107.066644445388
 20
157.056296663532
 11
-113.066644445388
 21
157.846211649056
  0
LINE
  5
2B5
100
AcDbEntity
  8
0
 62
           3
100
AcDbLine
 10
-113.066644445388
 20
156.266381678008
 11
-113.066644445388
 21
157.846211649056
  0
TEXT
  5
2B6
100
AcDbEntity
  8
0
 62
           2
100
AcDbText
 10
-152.454441279254
 20
161.056296663532
 40
6.0
  1
82
 41
0.9
  7
CONVERTER_2
100
AcDbText
  0
ENDBLK
  5
2B7
100
AcDbEntity
  8
0
100
AcDbBlockEnd
  0
BLOCK
  5
2BD
100
AcDbEntity
  8
0
100
AcDbBlockBegin
  2
*D5
 70
           1
 10
0.0
 20
0.0
 30
0.0
  3
*D5
  1

  0
LINE
  5
2BE
100
AcDbEntity
  8
0
  6
CONTINUOUS
 62
           3
100
AcDbLine
 10
-18.569575003977
 20
49.6359480773
 11
-18.569575003977
 21
131.6359480773
  0
LINE
  5
2BF
100
AcDbEntity
  8
0
  6
CONTINUOUS
 62
           3
100
AcDbLine
 10
-102.666644445388
 20
49.6359480773
 11
-14.569575003977
 21
49.6359480773
  0
LINE
  5
2C0
100
AcDbEntity
  8
0
  6
CONTINUOUS
 62
           3
100
AcDbLine
 10
-102.666644445388
 20
131.6359480773
 11
-14.569575003977
 21
131.6359480773
  0
LINE
  5
2C1
100
AcDbEntity
  8
0
 62
           3
100
AcDbLine
 10
-18.569575003977
 20
49.6359480773
 11
-19.359489989501
 21
55.6359480773
  0
LINE
  5
2C2
100
AcDbEntity
  8
0
 62
           3
100
AcDbLine
 10
-18.569575003977
 20
49.6359480773
 11
-17.779660018452
 21
55.6359480773
  0
LINE
  5
2C3
100
AcDbEntity
  8
0
 62
           3
100
AcDbLine
 10
-19.359489989501
 20
55.6359480773
 11
-17.779660018452
 21
55.6359480773
  0
LINE
  5
2C4
100
AcDbEntity
  8
0
 62
           3
100
AcDbLine
 10
-18.569575003977
 20
131.6359480773
 11
-17.779660018452
 21
125.6359480773
  0
LINE
  5
2C5
100
AcDbEntity
  8
0
 62
           3
100
AcDbLine
 10
-18.569575003977
 20
131.6359480773
 11
-19.359489989501
 21
125.6359480773
  0
LINE
  5
2C6
100
AcDbEntity
  8
0
 62
           3
100
AcDbLine
 10
-17.779660018452
 20
125.6359480773
 11
-19.359489989501
 21
125.6359480773
  0
MTEXT
  5
2C7
100
AcDbEntity
  8
0
 62
           2
100
AcDbMText
 10
-22.569575003977
 20
86.125376898365
 30
0.0
 40
6.0
 41
0.0
 71
           7
 72
           1
  1
82
  7
CONVERTER_2
 11
0.0
 21
1.0
 31
0.0
  0
ENDBLK
  5
2C8
100
AcDbEntity
  8
0
100
AcDbBlockEnd
  0
BLOCK
  5
2CE
100
AcDbEntity
  8
0
100
AcDbBlockBegin
  2
*D8
 70
           1
 10
0.0
 20
0.0
 30
0.0
  3
*D8
  1

  0
LINE
  5
2CF
100
AcDbEntity
  8
0
  6
CONTINUOUS
 62
           3
100
AcDbLine
 10
-0.996363436245
 20
35.635948077299
 11
-0.996363436245
 21
145.635948077299
  0
LINE
  5
2D0
100
AcDbEntity
  8
0
  6
CONTINUOUS
 62
           3
100
AcDbLine
 10
-83.066644445388
 20
35.635948077299
 11
3.003636563755
 21
35.635948077299
  0
LINE
  5
2D1
100
AcDbEntity
  8
0
  6
CONTINUOUS
 62
           3
100
AcDbLine
 10
-83.066644445388
 20
145.635948077299
 11
3.003636563755
 21
145.635948077299
  0
LINE
  5
2D2
100
AcDbEntity
  8
0
 62
           3
100
AcDbLine
 10
-0.996363436245
 20
35.635948077299
 11
-1.786278421769
 21
41.635948077299
  0
LINE
  5
2D3
100
AcDbEntity
  8
0
 62
           3
100
AcDbLine
 10
-0.996363436245
 20
35.635948077299
 11
-0.20644845072
 21
41.635948077299
  0
LINE
  5
2D4
100
AcDbEntity
  8
0
 62
           3
100
AcDbLine
 10
-1.786278421769
 20
41.635948077299
 11
-0.20644845072
 21
41.635948077299
  0
LINE
  5
2D5
100
AcDbEntity
  8
0
 62
           3
100
AcDbLine
 10
-0.996363436245
 20
145.635948077299
 11
-0.20644845072
 21
139.635948077299
  0
LINE
  5
2D6
100
AcDbEntity
  8
0
 62
           3
100
AcDbLine
 10
-0.996363436245
 20
145.635948077299
 11
-1.786278421769
 21
139.635948077299
  0
LINE
  5
2D7
100
AcDbEntity
  8
0
 62
           3
100
AcDbLine
 10
-0.20644845072
 20
139.635948077299
 11
-1.786278421769
 21
139.635948077299
  0
MTEXT
  5
2D8
100
AcDbEntity
  8
0
 62
           2
100
AcDbMText
 10
-4.996363436245
 20
84.283954850094
 30
0.0
 40
6.0
 41
0.0
 71
           7
 72
           1
  1
110
  7
CONVERTER_2
 11
0.0
 21
1.0
 31
0.0
  0
ENDBLK
  5
2D9
100
AcDbEntity
  8
0
100
AcDbBlockEnd
  0
BLOCK
  5
2DF
100
AcDbEntity
  8
0
100
AcDbBlockBegin
  2
*D11
 70
           1
 10
0.0
 20
0.0
 30
0.0
  3
*D11
  1

  0
LINE
  5
2E0
100
AcDbEntity
  8
0
  6
CONTINUOUS
 62
           3
100
AcDbLine
 10
98.091710057993
 20
49.635948077299
 11
98.091710057993
 21
131.6359480773
  0
LINE
  5
2E1
100
AcDbEntity
  8
0
  6
CONTINUOUS
 62
           3
100
AcDbLine
 10
121.211484101911
 20
49.635948077299
 11
94.091710057993
 21
49.635948077299
  0
LINE
  5
2E2
100
AcDbEntity
  8
0
  6
CONTINUOUS
 62
           3
100
AcDbLine
 10
121.211484101911
 20
131.6359480773
 11
94.091710057993
 21
131.6359480773
  0
LINE
  5
2E3
100
AcDbEntity
  8
0
 62
           3
100
AcDbLine
 10
98.091710057993
 20
131.6359480773
 11
98.881625043517
 21
125.6359480773
  0
LINE
  5
2E4
100
AcDbEntity
  8
0
 62
           3
100
AcDbLine
 10
98.091710057993
 20
131.6359480773
 11
97.301795072469
 21
125.6359480773
  0
LINE
  5
2E5
100
AcDbEntity
  8
0
 62
           3
100
AcDbLine
 10
98.881625043517
 20
125.6359480773
 11
97.301795072469
 21
125.6359480773
  0
LINE
  5
2E6
100
AcDbEntity
  8
0
 62
           3
100
AcDbLine
 10
98.091710057993
 20
49.635948077299
 11
97.301795072469
 21
55.635948077299
  0
LINE
  5
2E7
100
AcDbEntity
  8
0
 62
           3
100
AcDbLine
 10
98.091710057993
 20
49.635948077299
 11
98.881625043517
 21
55.635948077299
  0
LINE
  5
2E8
100
AcDbEntity
  8
0
 62
           3
100
AcDbLine
 10
97.301795072469
 20
55.635948077299
 11
98.881625043517
 21
55.635948077299
  0
MTEXT
  5
2E9
100
AcDbEntity
  8
0
 62
           2
100
AcDbMText
 10
94.091710057993
 20
87.498284052094
 30
0.0
 40
6.0
 41
0.0
 71
           7
 72
           1
  1
82
  7
CONVERTER_2
 11
0.0
 21
1.0
 31
0.0
  0
ENDBLK
  5
2EA
100
AcDbEntity
  8
0
100
AcDbBlockEnd
  0
BLOCK
  5
2F0
100
AcDbEntity
  8
0
100
AcDbBlockBegin
  2
*D14
 70
           1
 10
0.0
 20
0.0
 30
0.0
  3
*D14
  1

  0
LINE
  5
2F1
100
AcDbEntity
  8
0
  6
CONTINUOUS
 62
           3
100
AcDbLine
 10
125.611484101911
 20
157.056296663532
 11
207.611484101911
 21
157.056296663532
  0
LINE
  5
2F2
100
AcDbEntity
  8
0
  6
CONTINUOUS
 62
           3
100
AcDbLine
 10
125.611484101911
 20
136.035948077299
 11
125.611484101911
 21
161.056296663532
  0
LINE
  5
2F3
100
AcDbEntity
  8
0
  6
CONTINUOUS
 62
           3
100
AcDbLine
 10
207.611484101911
 20
136.035948077299
 11
207.611484101911
 21
161.056296663532
  0
LINE
  5
2F4
100
AcDbEntity
  8
0
 62
           3
100
AcDbLine
 10
125.611484101911
 20
157.056296663532
 11
131.611484101911
 21
157.846211649056
  0
LINE
  5
2F5
100
AcDbEntity
  8
0
 62
           3
100
AcDbLine
 10
125.611484101911
 20
157.056296663532
 11
131.611484101911
 21
156.266381678008
  0
LINE
  5
2F6
100
AcDbEntity
  8
0
 62
           3
100
AcDbLine
 10
131.611484101911
 20
157.846211649056
 11
131.611484101911
 21
156.266381678008
  0
LINE
  5
2F7
100
AcDbEntity
  8
0
 62
           3
100
AcDbLine
 10
207.611484101911
 20
157.056296663532
 11
201.611484101911
 21
156.266381678008
  0
LINE
  5
2F8
100
AcDbEntity
  8
0
 62
           3
100
AcDbLine
 10
207.611484101911
 20
157.056296663532
 11
201.611484101911
 21
157.846211649056
  0
LINE
  5
2F9
100
AcDbEntity
  8
0
 62
           3
100
AcDbLine
 10
201.611484101911
 20
156.266381678008
 11
201.611484101911
 21
157.846211649056
  0
TEXT
  5
2FA
100
AcDbEntity
  8
0
 62
           2
100
AcDbText
 10
162.1180962289
 20
161.056296663532
 40
6.0
  1
82
 41
0.9
  7
CONVERTER_2
100
AcDbText
  0
ENDBLK
  5
2FB
100
AcDbEntity
  8
0
100
AcDbBlockEnd
  0
BLOCK
  5
301
100
AcDbEntity
  8
0
100
AcDbBlockBegin
  2
*D17
 70
           1
 10
0.0
 20
0.0
 30
0.0
  3
*D17
  1

  0
LINE
  5
302
100
AcDbEntity
  8
0
  6
CONTINUOUS
 62
           3
100
AcDbLine
 10
-189.066644445388
 20
-61.424938387567
 11
-107.066644445388
 21
-61.424938387567
  0
LINE
  5
303
100
AcDbEntity
  8
0
  6
CONTINUOUS
 62
           3
100
AcDbLine
 10
-189.066644445388
 20
-80.5044410185
 11
-189.066644445388
 21
-57.424938387567
  0
LINE
  5
304
100
AcDbEntity
  8
0
  6
CONTINUOUS
 62
           3
100
AcDbLine
 10
-107.066644445388
 20
-80.5044410185
 11
-107.066644445388
 21
-57.424938387567
  0
LINE
  5
305
100
AcDbEntity
  8
0
 62
           3
100
AcDbLine
 10
-189.066644445388
 20
-61.424938387567
 11
-183.066644445388
 21
-60.635023402042
  0
LINE
  5
306
100
AcDbEntity
  8
0
 62
           3
100
AcDbLine
 10
-189.066644445388
 20
-61.424938387567
 11
-183.066644445388
 21
-62.214853373091
  0
LINE
  5
307
100
AcDbEntity
  8
0
 62
           3
100
AcDbLine
 10
-183.066644445388
 20
-60.635023402042
 11
-183.066644445388
 21
-62.214853373091
  0
LINE
  5
308
100
AcDbEntity
  8
0
 62
           3
100
AcDbLine
 10
-107.066644445388
 20
-61.424938387567
 11
-113.066644445388
 21
-62.214853373091
  0
LINE
  5
309
100
AcDbEntity
  8
0
 62
           3
100
AcDbLine
 10
-107.066644445388
 20
-61.424938387567
 11
-113.066644445388
 21
-60.635023402042
  0
LINE
  5
30A
100
AcDbEntity
  8
0
 62
           3
100
AcDbLine
 10
-113.066644445388
 20
-62.214853373091
 11
-113.066644445388
 21
-60.635023402042
  0
TEXT
  5
30B
100
AcDbEntity
  8
0
 62
           2
100
AcDbText
 10
-152.290851368404
 20
-57.424938387567
 40
6.0
  1
82
 41
0.9
  7
CONVERTER_2
100
AcDbText
  0
ENDBLK
  5
30C
100
AcDbEntity
  8
0
100
AcDbBlockEnd
  0
BLOCK
  5
312
100
AcDbEntity
  8
0
100
AcDbBlockBegin
  2
*D20
 70
           1
 10
0.0
 20
0.0
 30
0.0
  3
*D20
  1

  0
LINE
  5
313
100
AcDbEntity
  8
0
  6
CONTINUOUS
 62
           3
100
AcDbLine
 10
-213.066644445388
 20
-43.845486332772
 11
-83.066644445388
 21
-43.845486332772
  0
LINE
  5
314
100
AcDbEntity
  8
0
  6
CONTINUOUS
 62
           3
100
AcDbLine
 10
-213.066644445388
 20
-70.9044410185
 11
-213.066644445388
 21
-39.845486332772
  0
LINE
  5
315
100
AcDbEntity
  8
0
  6
CONTINUOUS
 62
           3
100
AcDbLine
 10
-83.066644445388
 20
-70.9044410185
 11
-83.066644445388
 21
-39.845486332772
  0
LINE
  5
316
100
AcDbEntity
  8
0
 62
           3
100
AcDbLine
 10
-213.066644445388
 20
-43.845486332772
 11
-207.066644445388
 21
-43.055571347248
  0
LINE
  5
317
100
AcDbEntity
  8
0
 62
           3
100
AcDbLine
 10
-213.066644445388
 20
-43.845486332772
 11
-207.066644445388
 21
-44.635401318297
  0
LINE
  5
318
100
AcDbEntity
  8
0
 62
           3
100
AcDbLine
 10
-207.066644445388
 20
-43.055571347248
 11
-207.066644445388
 21
-44.635401318297
  0
LINE
  5
319
100
AcDbEntity
  8
0
 62
           3
100
AcDbLine
 10
-83.066644445388
 20
-43.845486332772
 11
-89.066644445388
 21
-44.635401318297
  0
LINE
  5
31A
100
AcDbEntity
  8
0
 62
           3
100
AcDbLine
 10
-83.066644445388
 20
-43.845486332772
 11
-89.066644445388
 21
-43.055571347248
  0
LINE
  5
31B
100
AcDbEntity
  8
0
 62
           3
100
AcDbLine
 10
-89.066644445388
 20
-44.635401318297
 11
-89.066644445388
 21
-43.055571347248
  0
TEXT
  5
31C
100
AcDbEntity
  8
0
 62
           2
100
AcDbText
 10
-153.532773525395
 20
-39.845486332772
 40
6.0
  1
130
 41
0.9
  7
CONVERTER_2
100
AcDbText
  0
ENDBLK
  5
31D
100
AcDbEntity
  8
0
100
AcDbBlockEnd
  0
BLOCK
  5
323
100
AcDbEntity
  8
0
100
AcDbBlockBegin
  2
*D23
 70
           1
 10
0.0
 20
0.0
 30
0.0
  3
*D23
  1

  0
LINE
  5
324
100
AcDbEntity
  8
0
  6
CONTINUOUS
 62
           3
100
AcDbLine
 10
-201.066644445388
 20
-43.845486332772
 11
-213.066644445388
 21
-43.845486332772
  0
LINE
  5
325
100
AcDbEntity
  8
0
  6
CONTINUOUS
 62
           3
100
AcDbLine
 10
-222.066644445388
 20
-43.845486332772
 11
-213.066644445388
 21
-43.845486332772
  0
LINE
  5
326
100
AcDbEntity
  8
0
  6
CONTINUOUS
 62
           3
100
AcDbLine
 10
-222.066644445388
 20
-43.845486332772
 11
-235.813878113349
 21
-43.845486332772
  0
LINE
  5
327
100
AcDbEntity
  8
0
  6
CONTINUOUS
 62
           3
100
AcDbLine
 10
-222.066644445388
 20
-74.9044410185
 11
-222.066644445388
 21
-39.845486332772
  0
LINE
  5
328
100
AcDbEntity
  8
0
  6
CONTINUOUS
 62
           3
100
AcDbLine
 10
-213.066644445388
 20
-70.9044410185
 11
-213.066644445388
 21
-39.845486332772
  0
LINE
  5
329
100
AcDbEntity
  8
0
 62
           3
100
AcDbLine
 10
-213.066644445388
 20
-43.845486332772
 11
-207.066644445388
 21
-43.055571347248
  0
LINE
  5
32A
100
AcDbEntity
  8
0
 62
           3
100
AcDbLine
 10
-213.066644445388
 20
-43.845486332772
 11
-207.066644445388
 21
-44.635401318297
  0
LINE
  5
32B
100
AcDbEntity
  8
0
 62
           3
100
AcDbLine
 10
-207.066644445388
 20
-43.055571347248
 11
-207.066644445388
 21
-44.635401318297
  0
LINE
  5
32C
100
AcDbEntity
  8
0
 62
           3
100
AcDbLine
 10
-222.066644445388
 20
-43.845486332772
 11
-228.066644445388
 21
-44.635401318297
  0
LINE
  5
32D
100
AcDbEntity
  8
0
 62
           3
100
AcDbLine
 10
-222.066644445388
 20
-43.845486332772
 11
-228.066644445388
 21
-43.055571347248
  0
LINE
  5
32E
100
AcDbEntity
  8
0
 62
           3
100
AcDbLine
 10
-228.066644445388
 20
-44.635401318297
 11
-228.066644445388
 21
-43.055571347248
  0
TEXT
  5
32F
100
AcDbEntity
  8
0
 62
           2
100
AcDbText
 10
-235.813878113349
 20
-39.845486332772
 40
6.0
  1
9
 41
0.9
  7
CONVERTER_2
100
AcDbText
  0
ENDBLK
  5
330
100
AcDbEntity
  8
0
100
AcDbBlockEnd
  0
BLOCK
  5
336
100
AcDbEntity
  8
0
100
AcDbBlockBegin
  2
*D26
 70
           1
 10
0.0
 20
0.0
 30
0.0
  3
*D26
  1

  0
LINE
  5
337
100
AcDbEntity
  8
0
  6
CONTINUOUS
 62
           3
100
AcDbLine
 10
-222.066644445388
 20
-25.91562340379
 11
-148.066644445388
 21
-25.91562340379
  0
LINE
  5
338
100
AcDbEntity
  8
0
  6
CONTINUOUS
 62
           3
100
AcDbLine
 10
-222.066644445388
 20
-74.9044410185
 11
-222.066644445388
 21
-21.91562340379
  0
LINE
  5
339
100
AcDbEntity
  8
0
  6
CONTINUOUS
 62
           3
100
AcDbLine
 10
-148.066644445388
 20
-68.841621865391
 11
-148.066644445388
 21
-64.112688641951
  0
LINE
  5
33A
100
AcDbEntity
  8
0
  6
CONTINUOUS
 62
           3
100
AcDbLine
 10
-148.066644445388
 20
-30.053471623194
 11
-148.066644445388
 21
-21.91562340379
  0
LINE
  5
33B
100
AcDbEntity
  8
0
 62
           3
100
AcDbLine
 10
-148.066644445388
 20
-25.91562340379
 11
-154.066644445388
 21
-26.705538389314
  0
LINE
  5
33C
100
AcDbEntity
  8
0
 62
           3
100
AcDbLine
 10
-148.066644445388
 20
-25.91562340379
 11
-154.066644445388
 21
-25.125708418266
  0
LINE
  5
33D
100
AcDbEntity
  8
0
 62
           3
100
AcDbLine
 10
-154.066644445388
 20
-26.705538389314
 11
-154.066644445388
 21
-25.125708418266
  0
LINE
  5
33E
100
AcDbEntity
  8
0
 62
           3
100
AcDbLine
 10
-222.066644445388
 20
-25.91562340379
 11
-216.066644445388
 21
-25.125708418266
  0
LINE
  5
33F
100
AcDbEntity
  8
0
 62
           3
100
AcDbLine
 10
-222.066644445388
 20
-25.91562340379
 11
-216.066644445388
 21
-26.705538389314
  0
LINE
  5
340
100
AcDbEntity
  8
0
 62
           3
100
AcDbLine
 10
-216.066644445388
 20
-25.125708418266
 11
-216.066644445388
 21
-26.705538389314
  0
TEXT
  5
341
100
AcDbEntity
  8
0
 62
           2
100
AcDbText
 10
-192.013262660996
 20
-21.91562340379
 40
6.0
  1
74
 41
0.9
  7
CONVERTER_2
100
AcDbText
  0
ENDBLK
  5
342
100
AcDbEntity
  8
0
100
AcDbBlockEnd
  0
BLOCK
  5
348
100
AcDbEntity
  8
0
100
AcDbBlockBegin
  2
*D29
 70
           1
 10
0.0
 20
0.0
 30
0.0
  3
*D29
  1

  0
LINE
  5
349
100
AcDbEntity
  8
0
  6
CONTINUOUS
 62
           3
100
AcDbLine
 10
-259.066644445388
 20
-11.197932516725
 11
-148.066644445388
 21
-11.197932516725
  0
LINE
  5
34A
100
AcDbEntity
  8
0
  6
CONTINUOUS
 62
           3
100
AcDbLine
 10
-259.066644445388
 20
-114.9044410185
 11
-259.066644445388
 21
-7.197932516725
  0
LINE
  5
34B
100
AcDbEntity
  8
0
  6
CONTINUOUS
 62
           3
100
AcDbLine
 10
-148.066644445388
 20
-68.841621865391
 11
-148.066644445388
 21
-64.119483601789
  0
LINE
  5
34C
100
AcDbEntity
  8
0
  6
CONTINUOUS
 62
           3
100
AcDbLine
 10
-148.066644445388
 20
-28.669140099143
 11
-148.066644445388
 21
-7.197932516725
  0
LINE
  5
34D
100
AcDbEntity
  8
0
 62
           3
100
AcDbLine
 10
-148.066644445388
 20
-11.197932516725
 11
-154.066644445388
 21
-11.98784750225
  0
LINE
  5
34E
100
AcDbEntity
  8
0
 62
           3
100
AcDbLine
 10
-148.066644445388
 20
-11.197932516725
 11
-154.066644445388
 21
-10.408017531201
  0
LINE
  5
34F
100
AcDbEntity
  8
0
 62
           3
100
AcDbLine
 10
-154.066644445388
 20
-11.98784750225
 11
-154.066644445388
 21
-10.408017531201
  0
LINE
  5
350
100
AcDbEntity
  8
0
 62
           3
100
AcDbLine
 10
-259.066644445388
 20
-11.197932516725
 11
-253.066644445388
 21
-10.408017531201
  0
LINE
  5
351
100
AcDbEntity
  8
0
 62
           3
100
AcDbLine
 10
-259.066644445388
 20
-11.197932516725
 11
-253.066644445388
 21
-11.98784750225
  0
LINE
  5
352
100
AcDbEntity
  8
0
 62
           3
100
AcDbLine
 10
-253.066644445388
 20
-10.408017531201
 11
-253.066644445388
 21
-11.98784750225
  0
TEXT
  5
353
100
AcDbEntity
  8
0
 62
           2
100
AcDbText
 10
-214.621170459511
 20
-7.197932516725
 40
6.0
  1
111
 41
0.9
  7
CONVERTER_2
100
AcDbText
  0
ENDBLK
  5
354
100
AcDbEntity
  8
0
100
AcDbBlockEnd
  0
BLOCK
  5
35A
100
AcDbEntity
  8
0
100
AcDbBlockBegin
  2
*D32
 70
           1
 10
0.0
 20
0.0
 30
0.0
  3
*D32
  1

  0
LINE
  5
35B
100
AcDbEntity
  8
0
  6
CONTINUOUS
 62
           3
100
AcDbLine
 10
-148.066644445388
 20
-11.197932516725
 11
-37.066644445388
 21
-11.197932516725
  0
LINE
  5
35C
100
AcDbEntity
  8
0
  6
CONTINUOUS
 62
           3
100
AcDbLine
 10
-148.066644445388
 20
-68.841621865391
 11
-148.066644445388
 21
-64.119483601789
  0
LINE
  5
35D
100
AcDbEntity
  8
0
  6
CONTINUOUS
 62
           3
100
AcDbLine
 10
-37.066644445388
 20
-114.9044410185
 11
-37.066644445388
 21
-7.197932516725
  0
LINE
  5
35E
100
AcDbEntity
  8
0
  6
CONTINUOUS
 62
           3
100
AcDbLine
 10
-148.066644445388
 20
-28.669140099143
 11
-148.066644445388
 21
-7.197932516725
  0
LINE
  5
35F
100
AcDbEntity
  8
0
 62
           3
100
AcDbLine
 10
-148.066644445388
 20
-11.197932516725
 11
-142.066644445388
 21
-10.408017531201
  0
LINE
  5
360
100
AcDbEntity
  8
0
 62
           3
100
AcDbLine
 10
-148.066644445388
 20
-11.197932516725
 11
-142.066644445388
 21
-11.98784750225
  0
LINE
  5
361
100
AcDbEntity
  8
0
 62
           3
100
AcDbLine
 10
-142.066644445388
 20
-10.408017531201
 11
-142.066644445388
 21
-11.98784750225
  0
LINE
  5
362
100
AcDbEntity
  8
0
 62
           3
100
AcDbLine
 10
-37.066644445388
 20
-11.197932516725
 11
-43.066644445388
 21
-11.98784750225
  0
LINE
  5
363
100
AcDbEntity
  8
0
 62
           3
100
AcDbLine
 10
-37.066644445388
 20
-11.197932516725
 11
-43.066644445388
 21
-10.408017531201
  0
LINE
  5
364
100
AcDbEntity
  8
0
 62
           3
100
AcDbLine
 10
-43.066644445388
 20
-11.98784750225
 11
-43.066644445388
 21
-10.408017531201
  0
TEXT
  5
365
100
AcDbEntity
  8
0
 62
           2
100
AcDbText
 10
-99.517615338832
 20
-7.197932516725
 40
6.0
  1
111
 41
0.9
  7
CONVERTER_2
100
AcDbText
  0
ENDBLK
  5
366
100
AcDbEntity
  8
0
100
AcDbBlockEnd
  0
BLOCK
  5
36C
100
AcDbEntity
  8
0
100
AcDbBlockBegin
  2
*D35
 70
           1
 10
0.0
 20
0.0
 30
0.0
  3
*D35
  1

  0
LINE
  5
36D
100
AcDbEntity
  8
0
  6
CONTINUOUS
 62
           3
100
AcDbLine
 10
-259.066644445388
 20
-61.424938387567
 11
-224.066644445388
 21
-61.424938387567
  0
LINE
  5
36E
100
AcDbEntity
  8
0
  6
CONTINUOUS
 62
           3
100
AcDbLine
 10
-259.066644445388
 20
-114.9044410185
 11
-259.066644445388
 21
-57.424938387567
  0
LINE
  5
36F
100
AcDbEntity
  8
0
  6
CONTINUOUS
 62
           3
100
AcDbLine
 10
-224.066644445388
 20
-110.440339403364
 11
-224.066644445388
 21
-57.424938387567
  0
LINE
  5
370
100
AcDbEntity
  8
0
 62
           3
100
AcDbLine
 10
-224.066644445388
 20
-61.424938387567
 11
-230.066644445388
 21
-62.214853373091
  0
LINE
  5
371
100
AcDbEntity
  8
0
 62
           3
100
AcDbLine
 10
-224.066644445388
 20
-61.424938387567
 11
-230.066644445388
 21
-60.635023402042
  0
LINE
  5
372
100
AcDbEntity
  8
0
 62
           3
100
AcDbLine
 10
-230.066644445388
 20
-62.214853373091
 11
-230.066644445388
 21
-60.635023402042
  0
LINE
  5
373
100
AcDbEntity
  8
0
 62
           3
100
AcDbLine
 10
-259.066644445388
 20
-61.424938387567
 11
-253.066644445388
 21
-60.635023402042
  0
LINE
  5
374
100
AcDbEntity
  8
0
 62
           3
100
AcDbLine
 10
-259.066644445388
 20
-61.424938387567
 11
-253.066644445388
 21
-62.214853373091
  0
LINE
  5
375
100
AcDbEntity
  8
0
 62
           3
100
AcDbLine
 10
-253.066644445388
 20
-60.635023402042
 11
-253.066644445388
 21
-62.214853373091
  0
TEXT
  5
376
100
AcDbEntity
  8
0
 62
           2
100
AcDbText
 10
-245.347211446682
 20
-57.424938387567
 40
6.0
  1
35
 41
0.9
  7
CONVERTER_2
100
AcDbText
  0
ENDBLK
  5
377
100
AcDbEntity
  8
0
100
AcDbBlockEnd
  0
BLOCK
  5
37D
100
AcDbEntity
  8
0
100
AcDbBlockBegin
  2
*D38
 70
           1
 10
0.0
 20
0.0
 30
0.0
  3
*D38
  1

  0
LINE
  5
37E
100
AcDbEntity
  8
0
  6
CONTINUOUS
 62
           3
100
AcDbLine
 10
-72.066644445388
 20
-61.424938387567
 11
-37.066644445388
 21
-61.424938387567
  0
LINE
  5
37F
100
AcDbEntity
  8
0
  6
CONTINUOUS
 62
           3
100
AcDbLine
 10
-72.066644445388
 20
-110.440339403364
 11
-72.066644445388
 21
-57.424938387567
  0
LINE
  5
380
100
AcDbEntity
  8
0
  6
CONTINUOUS
 62
           3
100
AcDbLine
 10
-37.066644445388
 20
-114.9044410185
 11
-37.066644445388
 21
-57.424938387567
  0
LINE
  5
381
100
AcDbEntity
  8
0
 62
           3
100
AcDbLine
 10
-37.066644445388
 20
-61.424938387567
 11
-43.066644445388
 21
-62.214853373091
  0
LINE
  5
382
100
AcDbEntity
  8
0
 62
           3
100
AcDbLine
 10
-37.066644445388
 20
-61.424938387567
 11
-43.066644445388
 21
-60.635023402042
  0
LINE
  5
383
100
AcDbEntity
  8
0
 62
           3
100
AcDbLine
 10
-43.066644445388
 20
-62.214853373091
 11
-43.066644445388
 21
-60.635023402042
  0
LINE
  5
384
100
AcDbEntity
  8
0
 62
           3
100
AcDbLine
 10
-72.066644445388
 20
-61.424938387567
 11
-66.066644445388
 21
-60.635023402042
  0
LINE
  5
385
100
AcDbEntity
  8
0
 62
           3
100
AcDbLine
 10
-72.066644445388
 20
-61.424938387567
 11
-66.066644445388
 21
-62.214853373091
  0
LINE
  5
386
100
AcDbEntity
  8
0
 62
           3
100
AcDbLine
 10
-66.066644445388
 20
-60.635023402042
 11
-66.066644445388
 21
-62.214853373091
  0
TEXT
  5
387
100
AcDbEntity
  8
0
 62
           2
100
AcDbText
 10
-60.450494769143
 20
-57.424938387567
 40
6.0
  1
35
 41
0.9
  7
CONVERTER_2
100
AcDbText
  0
ENDBLK
  5
388
100
AcDbEntity
  8
0
100
AcDbBlockEnd
  0
BLOCK
  5
38E
100
AcDbEntity
  8
0
100
AcDbBlockBegin
  2
*D41
 70
           1
 10
0.0
 20
0.0
 30
0.0
  3
*D41
  1

  0
LINE
  5
38F
100
AcDbEntity
  8
0
  6
CONTINUOUS
 62
           3
100
AcDbLine
 10
-292.969085767186
 20
-176.9044410185
 11
-292.969085767186
 21
-74.9044410185
  0
LINE
  5
390
100
AcDbEntity
  8
0
  6
CONTINUOUS
 62
           3
100
AcDbLine
 10
-222.066644445388
 20
-176.9044410185
 11
-296.969085767186
 21
-176.9044410185
  0
LINE
  5
391
100
AcDbEntity
  8
0
  6
CONTINUOUS
 62
           3
100
AcDbLine
 10
-222.066644445388
 20
-74.9044410185
 11
-296.969085767186
 21
-74.9044410185
  0
LINE
  5
392
100
AcDbEntity
  8
0
 62
           3
100
AcDbLine
 10
-292.969085767186
 20
-176.9044410185
 11
-293.75900075271
 21
-170.9044410185
  0
LINE
  5
393
100
AcDbEntity
  8
0
 62
           3
100
AcDbLine
 10
-292.969085767186
 20
-176.9044410185
 11
-292.179170781662
 21
-170.9044410185
  0
LINE
  5
394
100
AcDbEntity
  8
0
 62
           3
100
AcDbLine
 10
-293.75900075271
 20
-170.9044410185
 11
-292.179170781662
 21
-170.9044410185
  0
LINE
  5
395
100
AcDbEntity
  8
0
 62
           3
100
AcDbLine
 10
-292.969085767186
 20
-74.9044410185
 11
-292.179170781662
 21
-80.9044410185
  0
LINE
  5
396
100
AcDbEntity
  8
0
 62
           3
100
AcDbLine
 10
-292.969085767186
 20
-74.9044410185
 11
-293.75900075271
 21
-80.9044410185
  0
LINE
  5
397
100
AcDbEntity
  8
0
 62
           3
100
AcDbLine
 10
-292.179170781662
 20
-80.9044410185
 11
-293.75900075271
 21
-80.9044410185
  0
MTEXT
  5
398
100
AcDbEntity
  8
0
 62
           2
100
AcDbMText
 10
-298.469085767186
 20
-131.089839453015
 30
0.0
 40
6.0
 41
0.0
 71
           7
 72
           1
  1
\C2;Ø\C2;\C2;102\C3;\H3.600000;\S^ h8;
  7
CONVERTER_2
 11
0.0
 21
1.0
 31
0.0
  0
ENDBLK
  5
399
100
AcDbEntity
  8
0
100
AcDbBlockEnd
  0
BLOCK
  5
39F
100
AcDbEntity
  8
0
100
AcDbBlockBegin
  2
*D44
 70
           1
 10
0.0
 20
0.0
 30
0.0
  3
*D44
  1

  0
LINE
  5
3A0
100
AcDbEntity
  8
0
  6
CONTINUOUS
 62
           3
100
AcDbLine
 10
-270.6147696115
 20
-136.9044410185
 11
-270.6147696115
 21
-114.9044410185
  0
LINE
  5
3A1
100
AcDbEntity
  8
0
  6
CONTINUOUS
 62
           3
100
AcDbLine
 10
-270.6147696115
 20
-114.9044410185
 11
-270.6147696115
 21
-84.236636582826
  0
LINE
  5
3A2
100
AcDbEntity
  8
0
  6
CONTINUOUS
 62
           3
100
AcDbLine
 10
-259.066644445388
 20
-136.9044410185
 11
-274.6147696115
 21
-136.9044410185
  0
LINE
  5
3A3
100
AcDbEntity
  8
0
  6
CONTINUOUS
 62
           3
100
AcDbLine
 10
-259.066644445388
 20
-114.9044410185
 11
-274.6147696115
 21
-114.9044410185
  0
LINE
  5
3A4
100
AcDbEntity
  8
0
 62
           3
100
AcDbLine
 10
-270.6147696115
 20
-136.9044410185
 11
-271.404684597024
 21
-130.9044410185
  0
LINE
  5
3A5
100
AcDbEntity
  8
0
 62
           3
100
AcDbLine
 10
-270.6147696115
 20
-136.9044410185
 11
-269.824854625976
 21
-130.9044410185
  0
LINE
  5
3A6
100
AcDbEntity
  8
0
 62
           3
100
AcDbLine
 10
-271.404684597024
 20
-130.9044410185
 11
-269.824854625976
 21
-130.9044410185
  0
LINE
  5
3A7
100
AcDbEntity
  8
0
 62
           3
100
AcDbLine
 10
-270.6147696115
 20
-114.9044410185
 11
-269.824854625976
 21
-120.9044410185
  0
LINE
  5
3A8
100
AcDbEntity
  8
0
 62
           3
100
AcDbLine
 10
-270.6147696115
 20
-114.9044410185
 11
-271.404684597024
 21
-120.9044410185
  0
LINE
  5
3A9
100
AcDbEntity
  8
0
 62
           3
100
AcDbLine
 10
-269.824854625976
 20
-120.9044410185
 11
-271.404684597024
 21
-120.9044410185
  0
MTEXT
  5
3AA
100
AcDbEntity
  8
0
 62
           2
100
AcDbMText
 10
-276.1147696115
 20
-106.556636582826
 30
0.0
 40
6.0
 41
0.0
 71
           7
 72
           1
  1
\C2;Ø\C2;\C2;22\C3;\H3.600000;\S^ k6;
  7
CONVERTER_2
 11
0.0
 21
1.0
 31
0.0
  0
ENDBLK
  5
3AB
100
AcDbEntity
  8
0
100
AcDbBlockEnd
  0
BLOCK
  5
3B1
100
AcDbEntity
  8
0
100
AcDbBlockBegin
  2
*D47
 70
           1
 10
0.0
 20
0.0
 30
0.0
  3
*D47
  1

  0
LINE
  5
3B2
100
AcDbEntity
  8
0
  6
CONTINUOUS
 62
           3
100
AcDbLine
 10
-178.066644445388
 20
-217.960424362778
 11
-118.066644445388
 21
-217.960424362778
  0
LINE
  5
3B3
100
AcDbEntity
  8
0
  6
CONTINUOUS
 62
           3
100
AcDbLine
 10
-178.066644445388
 20
-224.9044410185
 11
-178.066644445388
 21
-213.960424362778
  0
LINE
  5
3B4
100
AcDbEntity
  8
0
  6
CONTINUOUS
 62
           3
100
AcDbLine
 10
-118.066644445388
 20
-224.9044410185
 11
-118.066644445388
 21
-213.960424362778
  0
LINE
  5
3B5
100
AcDbEntity
  8
0
 62
           3
100
AcDbLine
 10
-178.066644445388
 20
-217.960424362778
 11
-172.066644445388
 21
-217.170509377254
  0
LINE
  5
3B6
100
AcDbEntity
  8
0
 62
           3
100
AcDbLine
 10
-178.066644445388
 20
-217.960424362778
 11
-172.066644445388
 21
-218.750339348302
  0
LINE
  5
3B7
100
AcDbEntity
  8
0
 62
           3
100
AcDbLine
 10
-172.066644445388
 20
-217.170509377254
 11
-172.066644445388
 21
-218.750339348302
  0
LINE
  5
3B8
100
AcDbEntity
  8
0
 62
           3
100
AcDbLine
 10
-118.066644445388
 20
-217.960424362778
 11
-124.066644445388
 21
-218.750339348302
  0
LINE
  5
3B9
100
AcDbEntity
  8
0
 62
           3
100
AcDbLine
 10
-118.066644445388
 20
-217.960424362778
 11
-124.066644445388
 21
-217.170509377254
  0
LINE
  5
3BA
100
AcDbEntity
  8
0
 62
           3
100
AcDbLine
 10
-124.066644445388
 20
-218.750339348302
 11
-124.066644445388
 21
-217.170509377254
  0
MTEXT
  5
3BB
100
AcDbEntity
  8
0
 62
           2
100
AcDbMText
 10
-140.586711061129
 20
-213.960424362778
 30
0.0
 40
6.0
 41
0.0
 71
           7
 72
           1
  1
\C2;Ø\C2;60
  7
CONVERTER_2
  0
ENDBLK
  5
3BC
100
AcDbEntity
  8
0
100
AcDbBlockEnd
  0
BLOCK
  5
3C2
100
AcDbEntity
  8
0
100
AcDbBlockBegin
  2
*D50
 70
           1
 10
0.0
 20
0.0
 30
0.0
  3
*D50
  1

  0
LINE
  5
3C3
100
AcDbEntity
  8
0
  6
CONTINUOUS
 62
           3
100
AcDbLine
 10
-199.066644445388
 20
-289.916740034204
 11
-97.066644445388
 21
-289.916740034204
  0
LINE
  5
3C4
100
AcDbEntity
  8
0
  6
CONTINUOUS
 62
           3
100
AcDbLine
 10
-199.066644445388
 20
-188.9044410185
 11
-199.066644445388
 21
-293.916740034204
  0
LINE
  5
3C5
100
AcDbEntity
  8
0
  6
CONTINUOUS
 62
           3
100
AcDbLine
 10
-97.066644445388
 20
-188.9044410185
 11
-97.066644445388
 21
-293.916740034204
  0
LINE
  5
3C6
100
AcDbEntity
  8
0
 62
           3
100
AcDbLine
 10
-199.066644445388
 20
-289.916740034204
 11
-193.066644445388
 21
-289.12682504868
  0
LINE
  5
3C7
100
AcDbEntity
  8
0
 62
           3
100
AcDbLine
 10
-199.066644445388
 20
-289.916740034204
 11
-193.066644445388
 21
-290.706655019728
  0
LINE
  5
3C8
100
AcDbEntity
  8
0
 62
           3
100
AcDbLine
 10
-193.066644445388
 20
-289.12682504868
 11
-193.066644445388
 21
-290.706655019728
  0
LINE
  5
3C9
100
AcDbEntity
  8
0
 62
           3
100
AcDbLine
 10
-97.066644445388
 20
-289.916740034204
 11
-103.066644445388
 21
-290.706655019728
  0
LINE
  5
3CA
100
AcDbEntity
  8
0
 62
           3
100
AcDbLine
 10
-97.066644445388
 20
-289.916740034204
 11
-103.066644445388
 21
-289.12682504868
  0
LINE
  5
3CB
100
AcDbEntity
  8
0
 62
           3
100
AcDbLine
 10
-103.066644445388
 20
-290.706655019728
 11
-103.066644445388
 21
-289.12682504868
  0
MTEXT
  5
3CC
100
AcDbEntity
  8
0
 62
           2
100
AcDbMText
 10
-160.077329612144
 20
-284.416740034204
 30
0.0
 40
6.0
 41
0.0
 71
           7
 72
           1
  1
\C2;Ø\C2;\C2;102\C3;\H3.600000;\S^ h8;
  7
CONVERTER_2
  0
ENDBLK
  5
3CD
100
AcDbEntity
  8
0
100
AcDbBlockEnd
  0
BLOCK
  5
3D3
100
AcDbEntity
  8
0
100
AcDbBlockBegin
  2
*D53
 70
           1
 10
0.0
 20
0.0
 30
0.0
  3
*D53
  1

  0
LINE
  5
3D4
100
AcDbEntity
  8
0
  6
CONTINUOUS
 62
           3
100
AcDbLine
 10
-166.066644445388
 20
-265.788734865062
 11
-154.066644445388
 21
-265.788734865062
  0
LINE
  5
3D5
100
AcDbEntity
  8
0
  6
CONTINUOUS
 62
           3
100
AcDbLine
 10
-154.066644445388
 20
-265.788734865062
 11
-142.066644445388
 21
-265.788734865062
  0
LINE
  5
3D6
100
AcDbEntity
  8
0
  6
CONTINUOUS
 62
           3
100
AcDbLine
 10
-142.066644445388
 20
-265.788734865062
 11
-112.766346041159
 21
-265.788734865062
  0
LINE
  5
3D7
100
AcDbEntity
  8
0
  6
CONTINUOUS
 62
           3
100
AcDbLine
 10
-154.066644445388
 20
-247.9044410185
 11
-154.066644445388
 21
-269.788734865062
  0
LINE
  5
3D8
100
AcDbEntity
  8
0
  6
CONTINUOUS
 62
           3
100
AcDbLine
 10
-142.066644445388
 20
-247.9044410185
 11
-142.066644445388
 21
-269.788734865062
  0
LINE
  5
3D9
100
AcDbEntity
  8
0
 62
           3
100
AcDbLine
 10
-142.066644445388
 20
-265.788734865062
 11
-136.066644445388
 21
-264.998819879538
  0
LINE
  5
3DA
100
AcDbEntity
  8
0
 62
           3
100
AcDbLine
 10
-142.066644445388
 20
-265.788734865062
 11
-136.066644445388
 21
-266.578649850586
  0
LINE
  5
3DB
100
AcDbEntity
  8
0
 62
           3
100
AcDbLine
 10
-136.066644445388
 20
-264.998819879538
 11
-136.066644445388
 21
-266.578649850586
  0
LINE
  5
3DC
100
AcDbEntity
  8
0
 62
           3
100
AcDbLine
 10
-154.066644445388
 20
-265.788734865062
 11
-160.066644445388
 21
-266.578649850586
  0
LINE
  5
3DD
100
AcDbEntity
  8
0
 62
           3
100
AcDbLine
 10
-154.066644445388
 20
-265.788734865062
 11
-160.066644445388
 21
-264.998819879538
  0
LINE
  5
3DE
100
AcDbEntity
  8
0
 62
           3
100
AcDbLine
 10
-160.066644445388
 20
-266.578649850586
 11
-160.066644445388
 21
-264.998819879538
  0
MTEXT
  5
3DF
100
AcDbEntity
  8
0
 62
           2
100
AcDbMText
 10
-133.286346041159
 20
-260.288734865062
 30
0.0
 40
6.0
 41
0.0
 71
           7
 72
           1
  1
\C2;Ø\C2;\C2;12\C3;\H3.600000;\S^ k6;
  7
CONVERTER_2
  0
ENDBLK
  5
3E0
100
AcDbEntity
  8
0
100
AcDbBlockEnd
  0
BLOCK
  5
3E6
100
AcDbEntity
  8
0
100
AcDbBlockBegin
  2
*D56
 70
           1
 10
0.0
 20
0.0
 30
0.0
  3
*D56
  1

  0
LINE
  5
3E7
100
AcDbEntity
  8
0
  6
CONTINUOUS
 62
           3
100
AcDbLine
 10
-14.543732429504
 20
-166.9044410185
 11
-14.543732429504
 21
-84.9044410185
  0
LINE
  5
3E8
100
AcDbEntity
  8
0
  6
CONTINUOUS
 62
           3
100
AcDbLine
 10
-102.666644445388
 20
-166.9044410185
 11
-10.543732429504
 21
-166.9044410185
  0
LINE
  5
3E9
100
AcDbEntity
  8
0
  6
CONTINUOUS
 62
           3
100
AcDbLine
 10
-102.666644445388
 20
-84.9044410185
 11
-10.543732429504
 21
-84.9044410185
  0
LINE
  5
3EA
100
AcDbEntity
  8
0
 62
           3
100
AcDbLine
 10
-14.543732429504
 20
-84.9044410185
 11
-13.75381744398
 21
-90.9044410185
  0
LINE
  5
3EB
100
AcDbEntity
  8
0
 62
           3
100
AcDbLine
 10
-14.543732429504
 20
-84.9044410185
 11
-15.333647415028
 21
-90.9044410185
  0
LINE
  5
3EC
100
AcDbEntity
  8
0
 62
           3
100
AcDbLine
 10
-13.75381744398
 20
-90.9044410185
 11
-15.333647415028
 21
-90.9044410185
  0
LINE
  5
3ED
100
AcDbEntity
  8
0
 62
           3
100
AcDbLine
 10
-14.543732429504
 20
-166.9044410185
 11
-15.333647415028
 21
-160.9044410185
  0
LINE
  5
3EE
100
AcDbEntity
  8
0
 62
           3
100
AcDbLine
 10
-14.543732429504
 20
-166.9044410185
 11
-13.75381744398
 21
-160.9044410185
  0
LINE
  5
3EF
100
AcDbEntity
  8
0
 62
           3
100
AcDbLine
 10
-15.333647415028
 20
-160.9044410185
 11
-13.75381744398
 21
-160.9044410185
  0
MTEXT
  5
3F0
100
AcDbEntity
  8
0
 62
           2
100
AcDbMText
 10
-18.543732429504
 20
-130.836745302113
 30
0.0
 40
6.0
 41
0.0
 71
           7
 72
           1
  1
82
  7
CONVERTER_2
 11
0.0
 21
1.0
 31
0.0
  0
ENDBLK
  5
3F1
100
AcDbEntity
  8
0
100
AcDbBlockEnd
  0
BLOCK
  5
3F7
100
AcDbEntity
  8
0
100
AcDbBlockBegin
  2
*D59
 70
           1
 10
0.0
 20
0.0
 30
0.0
  3
*D59
  1

  0
LINE
  5
3F8
100
AcDbEntity
  8
0
  6
CONTINUOUS
 62
           3
100
AcDbLine
 10
2.829783552231
 20
-180.9044410185
 11
2.829783552231
 21
-70.9044410185
  0
LINE
  5
3F9
100
AcDbEntity
  8
0
  6
CONTINUOUS
 62
           3
100
AcDbLine
 10
-83.066644445388
 20
-180.9044410185
 11
6.829783552231
 21
-180.9044410185
  0
LINE
  5
3FA
100
AcDbEntity
  8
0
  6
CONTINUOUS
 62
           3
100
AcDbLine
 10
-83.066644445388
 20
-70.9044410185
 11
6.829783552231
 21
-70.9044410185
  0
LINE
  5
3FB
100
AcDbEntity
  8
0
 62
           3
100
AcDbLine
 10
2.829783552231
 20
-70.9044410185
 11
3.619698537755
 21
-76.9044410185
  0
LINE
  5
3FC
100
AcDbEntity
  8
0
 62
           3
100
AcDbLine
 10
2.829783552231
 20
-70.9044410185
 11
2.039868566707
 21
-76.9044410185
  0
LINE
  5
3FD
100
AcDbEntity
  8
0
 62
           3
100
AcDbLine
 10
3.619698537755
 20
-76.9044410185
 11
2.039868566707
 21
-76.9044410185
  0
LINE
  5
3FE
100
AcDbEntity
  8
0
 62
           3
100
AcDbLine
 10
2.829783552231
 20
-180.9044410185
 11
2.039868566707
 21
-174.9044410185
  0
LINE
  5
3FF
100
AcDbEntity
  8
0
 62
           3
100
AcDbLine
 10
2.829783552231
 20
-180.9044410185
 11
3.619698537755
 21
-174.9044410185
  0
LINE
  5
400
100
AcDbEntity
  8
0
 62
           3
100
AcDbLine
 10
2.039868566707
 20
-174.9044410185
 11
3.619698537755
 21
-174.9044410185
  0
MTEXT
  5
401
100
AcDbEntity
  8
0
 62
           2
100
AcDbMText
 10
-1.170216447769
 20
-131.736745302113
 30
0.0
 40
6.0
 41
0.0
 71
           7
 72
           1
  1
110
  7
CONVERTER_2
 11
0.0
 21
1.0
 31
0.0
  0
ENDBLK
  5
402
100
AcDbEntity
  8
0
100
AcDbBlockEnd
  0
BLOCK
  5
408
100
AcDbEntity
  8
0
100
AcDbBlockBegin
  2
*D62
 70
           1
 10
0.0
 20
0.0
 30
0.0
  3
*D62
  1

  0
LINE
  5
409
100
AcDbEntity
  8
0
  6
CONTINUOUS
 62
           3
100
AcDbLine
 10
25.994471527878
 20
-224.9044410185
 11
25.994471527878
 21
-125.9044410185
  0
LINE
  5
40A
100
AcDbEntity
  8
0
  6
CONTINUOUS
 62
           3
100
AcDbLine
 10
-118.066644445388
 20
-224.9044410185
 11
29.994471527878
 21
-224.9044410185
  0
LINE
  5
40B
100
AcDbEntity
  8
0
  6
CONTINUOUS
 62
           3
100
AcDbLine
 10
12.891720929922
 20
-125.9044410185
 11
29.994471527878
 21
-125.9044410185
  0
LINE
  5
40C
100
AcDbEntity
  8
0
  6
CONTINUOUS
 62
           3
100
AcDbLine
 10
-36.078238315555
 20
-125.9044410185
 11
-30.112366915262
 21
-125.9044410185
  0
LINE
  5
40D
100
AcDbEntity
  8
0
 62
           3
100
AcDbLine
 10
25.994471527878
 20
-125.9044410185
 11
26.784386513402
 21
-131.9044410185
  0
LINE
  5
40E
100
AcDbEntity
  8
0
 62
           3
100
AcDbLine
 10
25.994471527878
 20
-125.9044410185
 11
25.204556542354
 21
-131.9044410185
  0
LINE
  5
40F
100
AcDbEntity
  8
0
 62
           3
100
AcDbLine
 10
26.784386513402
 20
-131.9044410185
 11
25.204556542354
 21
-131.9044410185
  0
LINE
  5
410
100
AcDbEntity
  8
0
 62
           3
100
AcDbLine
 10
25.994471527878
 20
-224.9044410185
 11
25.204556542354
 21
-218.9044410185
  0
LINE
  5
411
100
AcDbEntity
  8
0
 62
           3
100
AcDbLine
 10
25.994471527878
 20
-224.9044410185
 11
26.784386513402
 21
-218.9044410185
  0
LINE
  5
412
100
AcDbEntity
  8
0
 62
           3
100
AcDbLine
 10
25.204556542354
 20
-218.9044410185
 11
26.784386513402
 21
-218.9044410185
  0
MTEXT
  5
413
100
AcDbEntity
  8
0
 62
           2
100
AcDbMText
 10
21.994471527878
 20
-185.439224101852
 30
0.0
 40
6.0
 41
0.0
 71
           7
 72
           1
  1
99
  7
CONVERTER_2
 11
0.0
 21
1.0
 31
0.0
  0
ENDBLK
  5
414
100
AcDbEntity
  8
0
100
AcDbBlockEnd
  0
BLOCK
  5
41A
100
AcDbEntity
  8
0
100
AcDbBlockBegin
  2
*D65
 70
           1
 10
0.0
 20
0.0
 30
0.0
  3
*D65
  1

  0
LINE
  5
41B
100
AcDbEntity
  8
0
  6
CONTINUOUS
 62
           3
100
AcDbLine
 10
42.954332367191
 20
-247.9044410185
 11
42.954332367191
 21
-125.9044410185
  0
LINE
  5
41C
100
AcDbEntity
  8
0
  6
CONTINUOUS
 62
           3
100
AcDbLine
 10
-142.066644445388
 20
-247.9044410185
 11
46.954332367191
 21
-247.9044410185
  0
LINE
  5
41D
100
AcDbEntity
  8
0
  6
CONTINUOUS
 62
           3
100
AcDbLine
 10
12.891720929922
 20
-125.9044410185
 11
46.954332367191
 21
-125.9044410185
  0
LINE
  5
41E
100
AcDbEntity
  8
0
  6
CONTINUOUS
 62
           3
100
AcDbLine
 10
-36.078238315555
 20
-125.9044410185
 11
-30.112366915262
 21
-125.9044410185
  0
LINE
  5
41F
100
AcDbEntity
  8
0
 62
           3
100
AcDbLine
 10
42.954332367191
 20
-125.9044410185
 11
43.744247352715
 21
-131.9044410185
  0
LINE
  5
420
100
AcDbEntity
  8
0
 62
           3
100
AcDbLine
 10
42.954332367191
 20
-125.9044410185
 11
42.164417381667
 21
-131.9044410185
  0
LINE
  5
421
100
AcDbEntity
  8
0
 62
           3
100
AcDbLine
 10
43.744247352715
 20
-131.9044410185
 11
42.164417381667
 21
-131.9044410185
  0
LINE
  5
422
100
AcDbEntity
  8
0
 62
           3
100
AcDbLine
 10
42.954332367191
 20
-247.9044410185
 11
42.164417381667
 21
-241.9044410185
  0
LINE
  5
423
100
AcDbEntity
  8
0
 62
           3
100
AcDbLine
 10
42.954332367191
 20
-247.9044410185
 11
43.744247352715
 21
-241.9044410185
  0
LINE
  5
424
100
AcDbEntity
  8
0
 62
           3
100
AcDbLine
 10
42.164417381667
 20
-241.9044410185
 11
43.744247352715
 21
-241.9044410185
  0
MTEXT
  5
425
100
AcDbEntity
  8
0
 62
           2
100
AcDbMText
 10
38.954332367191
 20
-190.91129874577
 30
0.0
 40
6.0
 41
0.0
 71
           7
 72
           1
  1
122
  7
CONVERTER_2
 11
0.0
 21
1.0
 31
0.0
  0
ENDBLK
  5
426
100
AcDbEntity
  8
0
100
AcDbBlockEnd
  0
BLOCK
  5
42C
100
AcDbEntity
  8
0
100
AcDbBlockBegin
  2
*D68
 70
           1
 10
0.0
 20
0.0
 30
0.0
  3
*D68
  1

  0
LINE
  5
42D
100
AcDbEntity
  8
0
  6
CONTINUOUS
 62
           3
100
AcDbLine
 10
25.994471527878
 20
-247.9044410185
 11
25.994471527878
 21
-225.9044410185
  0
LINE
  5
42E
100
AcDbEntity
  8
0
  6
CONTINUOUS
 62
           3
100
AcDbLine
 10
-142.066644445388
 20
-247.9044410185
 11
29.994471527878
 21
-247.9044410185
  0
LINE
  5
42F
100
AcDbEntity
  8
0
  6
CONTINUOUS
 62
           3
100
AcDbLine
 10
-140.566644445388
 20
-225.9044410185
 11
29.994471527878
 21
-225.9044410185
  0
LINE
  5
430
100
AcDbEntity
  8
0
 62
           3
100
AcDbLine
 10
25.994471527878
 20
-225.9044410185
 11
26.784386513402
 21
-231.9044410185
  0
LINE
  5
431
100
AcDbEntity
  8
0
 62
           3
100
AcDbLine
 10
25.994471527878
 20
-225.9044410185
 11
25.204556542354
 21
-231.9044410185
  0
LINE
  5
432
100
AcDbEntity
  8
0
 62
           3
100
AcDbLine
 10
26.784386513402
 20
-231.9044410185
 11
25.204556542354
 21
-231.9044410185
  0
LINE
  5
433
100
AcDbEntity
  8
0
 62
           3
100
AcDbLine
 10
25.994471527878
 20
-247.9044410185
 11
25.204556542354
 21
-241.9044410185
  0
LINE
  5
434
100
AcDbEntity
  8
0
 62
           3
100
AcDbLine
 10
25.994471527878
 20
-247.9044410185
 11
26.784386513402
 21
-241.9044410185
  0
LINE
  5
435
100
AcDbEntity
  8
0
 62
           3
100
AcDbLine
 10
25.204556542354
 20
-241.9044410185
 11
26.784386513402
 21
-241.9044410185
  0
MTEXT
  5
436
100
AcDbEntity
  8
0
 62
           2
100
AcDbMText
 10
21.994471527878
 20
-241.294453282214
 30
0.0
 40
6.0
 41
0.0
 71
           7
 72
           1
  1
22
  7
CONVERTER_2
 11
0.0
 21
1.0
 31
0.0
  0
ENDBLK
  5
437
100
AcDbEntity
  8
0
100
AcDbBlockEnd
  0
BLOCK
  5
43D
100
AcDbEntity
  8
0
100
AcDbBlockBegin
  2
*D71
 70
           1
 10
0.0
 20
0.0
 30
0.0
  3
*D71
  1

  0
LINE
  5
43E
100
AcDbEntity
  8
0
  6
CONTINUOUS
 62
           3
100
AcDbLine
 10
2.829783552231
 20
-168.9044410185
 11
2.829783552231
 21
-180.9044410185
  0
LINE
  5
43F
100
AcDbEntity
  8
0
  6
CONTINUOUS
 62
           3
100
AcDbLine
 10
2.829783552231
 20
-188.9044410185
 11
2.829783552231
 21
-180.9044410185
  0
LINE
  5
440
100
AcDbEntity
  8
0
  6
CONTINUOUS
 62
           3
100
AcDbLine
 10
2.829783552231
 20
-188.9044410185
 11
2.829783552231
 21
-200.9044410185
  0
LINE
  5
441
100
AcDbEntity
  8
0
  6
CONTINUOUS
 62
           3
100
AcDbLine
 10
-97.066644445388
 20
-188.9044410185
 11
6.829783552231
 21
-188.9044410185
  0
LINE
  5
442
100
AcDbEntity
  8
0
  6
CONTINUOUS
 62
           3
100
AcDbLine
 10
-83.066644445388
 20
-180.9044410185
 11
6.829783552231
 21
-180.9044410185
  0
LINE
  5
443
100
AcDbEntity
  8
0
 62
           3
100
AcDbLine
 10
2.829783552231
 20
-180.9044410185
 11
2.039868566707
 21
-174.9044410185
  0
LINE
  5
444
100
AcDbEntity
  8
0
 62
           3
100
AcDbLine
 10
2.829783552231
 20
-180.9044410185
 11
3.619698537755
 21
-174.9044410185
  0
LINE
  5
445
100
AcDbEntity
  8
0
 62
           3
100
AcDbLine
 10
2.039868566707
 20
-174.9044410185
 11
3.619698537755
 21
-174.9044410185
  0
LINE
  5
446
100
AcDbEntity
  8
0
 62
           3
100
AcDbLine
 10
2.829783552231
 20
-188.9044410185
 11
3.619698537755
 21
-194.9044410185
  0
LINE
  5
447
100
AcDbEntity
  8
0
 62
           3
100
AcDbLine
 10
2.829783552231
 20
-188.9044410185
 11
2.039868566707
 21
-194.9044410185
  0
LINE
  5
448
100
AcDbEntity
  8
0
 62
           3
100
AcDbLine
 10
3.619698537755
 20
-194.9044410185
 11
2.039868566707
 21
-194.9044410185
  0
MTEXT
  5
449
100
AcDbEntity
  8
0
 62
           2
100
AcDbMText
 10
-1.170216447769
 20
-200.52639522601
 30
0.0
 40
6.0
 41
0.0
 71
           7
 72
           1
  1
8
  7
CONVERTER_2
 11
0.0
 21
1.0
 31
0.0
  0
ENDBLK
  5
44A
100
AcDbEntity
  8
0
100
AcDbBlockEnd
  0
ENDSEC
  0
SECTION
  2
ENTITIES
  0
DIMENSION
  5
44E
100
AcDbEntity
  8
0
100
AcDbDimension
  2
*D71
 10
2.829783552231
 20
-180.9044410185
 11
-4.170216447769
 21
-198.72639522601
 31
0.0
 53
90.0
  1
<>
  3
ME10_DIM_23
100
AcDbAlignedDimension
 13
-97.066644445388
 23
-188.9044410185
 14
-83.066644445388
 24
-180.9044410185
 50
90.0
100
AcDbRotatedDimension
  0
DIMENSION
  5
43B
100
AcDbEntity
  8
0
100
AcDbDimension
  2
*D68
 10
25.994471527878
 20
-225.9044410185
 11
18.994471527878
 21
-236.794453282214
 31
0.0
 53
90.0
  1
<>
  3
ME10_DIM_22
100
AcDbAlignedDimension
 13
-142.066644445388
 23
-247.9044410185
 14
-140.566644445388
 24
-225.9044410185
 50
90.0
100
AcDbRotatedDimension
  0
DIMENSION
  5
42A
100
AcDbEntity
  8
0
100
AcDbDimension
  2
*D65
 10
42.954332367191
 20
-125.9044410185
 11
35.954332367191
 21
-184.61129874577
 31
0.0
 53
90.0
  1
<>
  3
ME10_DIM_21
100
AcDbAlignedDimension
 13
-142.066644445388
 23
-247.9044410185
 14
-36.078238315555
 24
-125.9044410185
 50
90.0
100
AcDbRotatedDimension
  0
DIMENSION
  5
418
100
AcDbEntity
  8
0
100
AcDbDimension
  2
*D62
 10
25.994471527878
 20
-125.9044410185
 11
18.994471527878
 21
-180.939224101852
 31
0.0
 53
90.0
  1
<>
  3
ME10_DIM_20
100
AcDbAlignedDimension
 13
-118.066644445388
 23
-224.9044410185
 14
-36.078238315555
 24
-125.9044410185
 50
90.0
100
AcDbRotatedDimension
  0
DIMENSION
  5
406
100
AcDbEntity
  8
0
100
AcDbDimension
  2
*D59
 10
2.829783552231
 20
-70.9044410185
 11
-4.170216447769
 21
-126.336745302113
 31
0.0
 53
90.0
  1
<>
  3
ME10_DIM_19
100
AcDbAlignedDimension
 13
-83.066644445388
 23
-180.9044410185
 14
-83.066644445388
 24
-70.9044410185
 50
90.0
100
AcDbRotatedDimension
  0
DIMENSION
  5
3F5
100
AcDbEntity
  8
0
100
AcDbDimension
  2
*D56
 10
-14.543732429504
 20
-84.9044410185
 11
-21.543732429504
 21
-126.336745302113
 31
0.0
 53
90.0
  1
<>
  3
ME10_DIM_18
100
AcDbAlignedDimension
 13
-102.666644445388
 23
-166.9044410185
 14
-102.666644445388
 24
-84.9044410185
 50
90.0
100
AcDbRotatedDimension
  0
DIMENSION
  5
3E4
100
AcDbEntity
  8
0
100
AcDbDimension
  2
*D53
 10
-142.066644445388
 20
-265.788734865062
 11
-124.166346041159
 21
-257.288734865062
 31
0.0
  1
<>
  3
ME10_DIM_17
100
AcDbAlignedDimension
 13
-154.066644445388
 23
-247.9044410185
 14
-142.066644445388
 24
-247.9044410185
100
AcDbRotatedDimension
  0
DIMENSION
  5
3D1
100
AcDbEntity
  8
0
100
AcDbDimension
  2
*D50
 10
-199.066644445388
 20
-289.916740034204
 11
-148.257329612144
 21
-281.416740034204
 31
0.0
  1
<>
  3
ME10_DIM_16
100
AcDbAlignedDimension
 13
-97.066644445388
 23
-188.9044410185
 14
-199.066644445388
 24
-188.9044410185
100
AcDbRotatedDimension
  0
DIMENSION
  5
3C0
100
AcDbEntity
  8
0
100
AcDbDimension
  2
*D47
 10
-178.066644445388
 20
-217.960424362778
 11
-134.766711061129
 21
-210.960424362778
 31
0.0
  1
<>
  3
ME10_DIM_15
100
AcDbAlignedDimension
 13
-118.066644445388
 23
-224.9044410185
 14
-178.066644445388
 24
-224.9044410185
100
AcDbRotatedDimension
  0
DIMENSION
  5
3AF
100
AcDbEntity
  8
0
100
AcDbDimension
  2
*D44
 10
-270.6147696115
 20
-136.9044410185
 11
-279.1147696115
 21
-96.536636582826
 31
0.0
 53
90.0
  1
<>
  3
ME10_DIM_14
100
AcDbAlignedDimension
 13
-259.066644445388
 23
-114.9044410185
 14
-259.066644445388
 24
-136.9044410185
 50
90.0
100
AcDbRotatedDimension
  0
DIMENSION
  5
39D
100
AcDbEntity
  8
0
100
AcDbDimension
  2
*D41
 10
-292.969085767186
 20
-176.9044410185
 11
-301.469085767186
 21
-119.269839453015
 31
0.0
 53
90.0
  1
<>
  3
ME10_DIM_13
100
AcDbAlignedDimension
 13
-222.066644445388
 23
-74.9044410185
 14
-222.066644445388
 24
-176.9044410185
 50
90.0
100
AcDbRotatedDimension
  0
DIMENSION
  5
38C
100
AcDbEntity
  8
0
100
AcDbDimension
  2
*D38
 10
-37.066644445388
 20
-61.424938387567
 11
-55.950494769143
 21
-54.424938387567
 31
0.0
  1
<>
  3
ME10_DIM_12
100
AcDbAlignedDimension
 13
-72.066644445388
 23
-110.440339403364
 14
-37.066644445388
 24
-114.9044410185
100
AcDbRotatedDimension
  0
DIMENSION
  5
37B
100
AcDbEntity
  8
0
100
AcDbDimension
  2
*D35
 10
-224.066644445388
 20
-61.424938387567
 11
-240.847211446682
 21
-54.424938387567
 31
0.0
  1
<>
  3
ME10_DIM_11
100
AcDbAlignedDimension
 13
-259.066644445388
 23
-114.9044410185
 14
-224.066644445388
 24
-110.440339403364
100
AcDbRotatedDimension
  0
DIMENSION
  5
36A
100
AcDbEntity
  8
0
100
AcDbDimension
  2
*D32
 10
-148.066644445388
 20
-11.197932516725
 11
-95.017615338832
 21
-4.197932516725
 31
0.0
  1
<>
  3
ME10_DIM_10
100
AcDbAlignedDimension
 13
-37.066644445388
 23
-114.9044410185
 14
-148.066644445388
 24
-68.841621865391
100
AcDbRotatedDimension
  0
DIMENSION
  5
358
100
AcDbEntity
  8
0
100
AcDbDimension
  2
*D29
 10
-148.066644445388
 20
-11.197932516725
 11
-210.121170459511
 21
-4.197932516725
 31
0.0
  1
<>
  3
ME10_DIM_9
100
AcDbAlignedDimension
 13
-259.066644445388
 23
-114.9044410185
 14
-148.066644445388
 24
-68.841621865391
100
AcDbRotatedDimension
  0
DIMENSION
  5
346
100
AcDbEntity
  8
0
100
AcDbDimension
  2
*D26
 10
-148.066644445388
 20
-25.91562340379
 11
-187.513262660996
 21
-18.91562340379
 31
0.0
  1
<>
  3
ME10_DIM_8
100
AcDbAlignedDimension
 13
-222.066644445388
 23
-74.9044410185
 14
-148.066644445388
 24
-68.841621865391
100
AcDbRotatedDimension
  0
DIMENSION
  5
334
100
AcDbEntity
  8
0
100
AcDbDimension
  2
*D23
 10
-213.066644445388
 20
-43.845486332772
 11
-234.013878113349
 21
-36.845486332772
 31
0.0
  1
<>
  3
ME10_DIM_7
100
AcDbAlignedDimension
 13
-222.066644445388
 23
-74.9044410185
 14
-213.066644445388
 24
-70.9044410185
100
AcDbRotatedDimension
  0
DIMENSION
  5
321
100
AcDbEntity
  8
0
100
AcDbDimension
  2
*D20
 10
-213.066644445388
 20
-43.845486332772
 11
-147.232773525395
 21
-36.845486332772
 31
0.0
  1
<>
  3
ME10_DIM_6
100
AcDbAlignedDimension
 13
-83.066644445388
 23
-70.9044410185
 14
-213.066644445388
 24
-70.9044410185
100
AcDbRotatedDimension
  0
DIMENSION
  5
310
100
AcDbEntity
  8
0
100
AcDbDimension
  2
*D17
 10
-189.066644445388
 20
-61.424938387567
 11
-147.790851368404
 21
-54.424938387567
 31
0.0
  1
<>
  3
ME10_DIM_5
100
AcDbAlignedDimension
 13
-107.066644445388
 23
-80.5044410185
 14
-189.066644445388
 24
-80.5044410185
100
AcDbRotatedDimension
  0
DIMENSION
  5
2FF
100
AcDbEntity
  8
0
100
AcDbDimension
  2
*D14
 10
125.611484101911
 20
157.056296663532
 11
166.6180962289
 21
164.056296663532
 31
0.0
  1
<>
  3
ME10_DIM_4
100
AcDbAlignedDimension
 13
207.611484101911
 23
136.0359480773
 14
125.611484101911
 24
136.0359480773
100
AcDbRotatedDimension
  0
DIMENSION
  5
2EE
100
AcDbEntity
  8
0
100
AcDbDimension
  2
*D11
 10
98.091710057993
 20
131.6359480773
 11
91.091710057993
 21
91.998284052094
 31
0.0
 53
90.0
  1
<>
  3
ME10_DIM_3
100
AcDbAlignedDimension
 13
121.211484101911
 23
49.635948077299
 14
121.211484101911
 24
131.6359480773
 50
90.0
100
AcDbRotatedDimension
  0
DIMENSION
  5
2DD
100
AcDbEntity
  8
0
100
AcDbDimension
  2
*D8
 10
-0.996363436245
 20
35.635948077299
 11
-7.996363436245
 21
89.683954850094
 31
0.0
 53
90.0
  1
<>
  3
ME10_DIM_2
100
AcDbAlignedDimension
 13
-83.066644445388
 23
145.635948077299
 14
-83.066644445388
 24
35.6359480773
 50
90.0
100
AcDbRotatedDimension
  0
DIMENSION
  5
2CC
100
AcDbEntity
  8
0
100
AcDbDimension
  2
*D5
 10
-18.569575003977
 20
49.6359480773
 11
-25.569575003977
 21
90.625376898365
 31
0.0
 53
90.0
  1
<>
  3
ME10_DIM_1
100
AcDbAlignedDimension
 13
-102.666644445388
 23
131.6359480773
 14
-102.666644445388
 24
49.6359480773
 50
90.0
100
AcDbRotatedDimension
  0
DIMENSION
  5
2BB
100
AcDbEntity
  8
0
100
AcDbDimension
  2
*D2
 10
-189.066644445388
 20
157.056296663532
 11
-147.954441279254
 21
164.056296663532
 31
0.0
  1
<>
  3
ME10_DIM_0
100
AcDbAlignedDimension
 13
-107.066644445388
 23
136.035948077299
 14
-189.066644445388
 24
136.035948077299
100
AcDbRotatedDimension
  0
TEXT
  5
2AA
100
AcDbEntity
  8
1
 62
           2
100
AcDbText
 10
221.040689487685
 20
170.74019839987
 40
6.0
  1
M8x12
 41
0.9
  7
CONVERTER_2
100
AcDbText
  0
TEXT
  5
2A9
100
AcDbEntity
  8
1
 62
           2
100
AcDbText
 10
-93.637439059614
 20
170.740198399869
 40
6.0
  1
M8x12
 41
0.9
  7
CONVERTER_2
100
AcDbText
  0
TEXT
  5
2A8
100
AcDbEntity
  8
1
 62
           2
100
AcDbText
 10
-89.103056585163
 20
-26.965063494365
 40
6.0
  1
M8x12
 41
0.9
  7
CONVERTER_2
100
AcDbText
  0
LINE
  5
2A7
100
AcDbEntity
  8
1
  6
CONTINUOUS
 62
           3
100
AcDbLine
 10
219.80259527869
 20
169.292343518665
 11
247.263269092566
 21
169.292343518665
  0
LINE
  5
2A6
100
AcDbEntity
  8
1
  6
CONTINUOUS
 62
           3
100
AcDbLine
 10
219.80259527869
 20
169.292343518665
 11
207.611484101911
 21
131.635948077299
  0
LINE
  5
2A5
100
AcDbEntity
  8
1
  6
CONTINUOUS
 62
           3
100
AcDbLine
 10
-94.875533268609
 20
169.292343518665
 11
-67.414859454733
 21
169.292343518665
  0
LINE
  5
2A4
100
AcDbEntity
  8
1
  6
CONTINUOUS
 62
           3
100
AcDbLine
 10
-94.875533268609
 20
169.292343518665
 11
-107.066644445388
 21
131.635948077299
  0
LINE
  5
2A3
100
AcDbEntity
  8
1
  6
CONTINUOUS
 62
           3
100
AcDbLine
 10
-90.341150794157
 20
-28.412918375569
 11
-107.066644445388
 21
-84.9044410185
  0
LINE
  5
2A2
100
AcDbEntity
  8
1
  6
CONTINUOUS
 62
           3
100
AcDbLine
 10
-90.341150794157
 20
-28.412918375569
 11
-62.880476980282
 21
-28.412918375568
  0
INSERT
  5
2C
100
AcDbEntity
  8
0
100
AcDbBlockReference
  2
DINA3_INTERNETRAHMEN
 10
458.307626561581
 20
-350.454031668715
 41
2.0
 42
2.0
  0
INSERT
  5
2D
100
AcDbEntity
  8
0
100
AcDbBlockReference
  2
GETRIEBE
 10
-212.906694427027
 20
-202.120293757354
  0
ENDSEC
  0
SECTION
  2
OBJECTS
  0
DICTIONARY
  5
19
100
AcDbDictionary
  3
ACAD_GROUP
350
1A
  3
ACAD_MLINESTYLE
350
1B
  0
DICTIONARY
  5
1A
102
{ACAD_REACTORS
330
19
102
}
100
AcDbDictionary
  0
DICTIONARY
  5
1B
102
{ACAD_REACTORS
330
19
102
}
100
AcDbDictionary
  3
STANDARD
350
1C
  0
MLINESTYLE
  5
1C
102
{ACAD_REACTORS
330
1B
102
}
100
AcDbMlineStyle
  2
STANDARD
 70
           0
  3

 62
           0
 51
90.0
 52
90.0
 71
           2
 49
0.5
 62
         256
  6
BYLAYER
 49
-0.5
 62
         256
  6
BYLAYER
  0
ENDSEC
  0
EOF
