  0
SECTION
  2
HEADER
  9
$ACADVER
  1
AC1014
  9
$ACADMAINTVER
 70
           0
  9
$DWGCODEPAGE
  3
ANSI_1252
  9
$INSBASE
 10
0.0
 20
0.0
 30
0.0
  9
$EXTMIN
 10
1.000000000000E+20
 20
1.000000000000E+20
 30
1.000000000000E+20
  9
$EXTMAX
 10
-1.000000000000E+20
 20
-1.000000000000E+20
 30
-1.000000000000E+20
  9
$LIMMIN
 10
0.0
 20
0.0
  9
$LIMMAX
 10
0.0
 20
0.0
  9
$ORTHOMODE
 70
           0
  9
$REGENMODE
 70
           1
  9
$FILLMODE
 70
           1
  9
$QTEXTMODE
 70
           0
  9
$MIRRTEXT
 70
           1
  9
$DRAGMODE
 70
           2
  9
$LTSCALE
 40
1.0
  9
$OSMODE
 70
           0
  9
$ATTMODE
 70
           1
  9
$TEXTSIZE
 40
0.2
  9
$TRACEWID
 40
0.05
  9
$TEXTSTYLE
  7
STANDARD
  9
$CLAYER
  8
0
  9
$CELTYPE
  6
CONTINUOUS
  9
$CECOLOR
 62
         256
  9
$CELTSCALE
 40
1.0
  9
$DELOBJ
 70
           1
  9
$DISPSILH
 70
           0
  9
$DIMSCALE
 40
1.0
  9
$DIMASZ
 40
0.18
  9
$DIMEXO
 40
0.0625
  9
$DIMDLI
 40
0.38
  9
$DIMRND
 40
0.0
  9
$DIMDLE
 40
0.0
  9
$DIMEXE
 40
0.18
  9
$DIMTP
 40
0.0
  9
$DIMTM
 40
0.0
  9
$DIMTXT
 40
0.18
  9
$DIMCEN
 40
0.09
  9
$DIMTSZ
 40
0.0
  9
$DIMTOL
 70
           0
  9
$DIMLIM
 70
           0
  9
$DIMTIH
 70
           1
  9
$DIMTOH
 70
           1
  9
$DIMSE1
 70
           0
  9
$DIMSE2
 70
           0
  9
$DIMTAD
 70
           0
  9
$DIMZIN
 70
           0
  9
$DIMBLK
  1

  9
$DIMASO
 70
           1
  9
$DIMSHO
 70
           1
  9
$DIMPOST
  1

  9
$DIMAPOST
  1

  9
$DIMALT
 70
           0
  9
$DIMALTD
 70
           2
  9
$DIMALTF
 40
25.4
  9
$DIMLFAC
 40
1.0
  9
$DIMTOFL
 70
           0
  9
$DIMTVP
 40
0.0
  9
$DIMTIX
 70
           0
  9
$DIMSOXD
 70
           0
  9
$DIMSAH
 70
           0
  9
$DIMBLK1
  1

  9
$DIMBLK2
  1

  9
$DIMSTYLE
  2
STANDARD
  9
$DIMCLRD
 70
           0
  9
$DIMCLRE
 70
           0
  9
$DIMCLRT
 70
           0
  9
$DIMTFAC
 40
1.0
  9
$DIMGAP
 40
0.09
  9
$DIMJUST
 70
           0
  9
$DIMSD1
 70
           0
  9
$DIMSD2
 70
           0
  9
$DIMTOLJ
 70
           1
  9
$DIMTZIN
 70
           0
  9
$DIMALTZ
 70
           0
  9
$DIMALTTZ
 70
           0
  9
$DIMFIT
 70
           3
  9
$DIMUPT
 70
           0
  9
$DIMUNIT
 70
           2
  9
$DIMDEC
 70
           4
  9
$DIMTDEC
 70
           4
  9
$DIMALTU
 70
           2
  9
$DIMALTTD
 70
           2
  9
$DIMTXSTY
  7
STANDARD
  9
$DIMAUNIT
 70
           0
  9
$LUNITS
 70
           2
  9
$LUPREC
 70
           4
  9
$SKETCHINC
 40
0.1
  9
$FILLETRAD
 40
0.0
  9
$AUNITS
 70
           0
  9
$AUPREC
 70
           0
  9
$MENU
  1
acad
  9
$ELEVATION
 40
0.0
  9
$PELEVATION
 40
0.0
  9
$THICKNESS
 40
0.0
  9
$LIMCHECK
 70
           0
  9
$BLIPMODE
 70
           1
  9
$CHAMFERA
 40
0.0
  9
$CHAMFERB
 40
0.0
  9
$CHAMFERC
 40
0.0
  9
$CHAMFERD
 40
0.0
  9
$SKPOLY
 70
           0
  9
$TDCREATE
 40
0.000000000
  9
$TDUPDATE
 40
0.000000000
  9
$TDINDWG
 40
0.0000000000
  9
$TDUSRTIMER
 40
0.0000000000
  9
$USRTIMER
 70
           1
  9
$ANGBASE
 50
0.0
  9
$ANGDIR
 70
           0
  9
$PDMODE
 70
           0
  9
$PDSIZE
 40
0.0
  9
$PLINEWID
 40
0.0
  9
$COORDS
 70
           0
  9
$SPLFRAME
 70
           0
  9
$SPLINETYPE
 70
           6
  9
$SPLINESEGS
 70
           8
  9
$ATTDIA
 70
           0
  9
$ATTREQ
 70
           1
  9
$HANDLING
 70
           1
  9
$HANDSEED
  5
445
  9
$SURFTAB1
 70
           6
  9
$SURFTAB2
 70
           6
  9
$SURFTYPE
 70
           6
  9
$SURFU
 70
           6
  9
$SURFV
 70
           6
  9
$UCSNAME
  2

  9
$UCSORG
 10
0.0
 20
0.0
 30
0.0
  9
$UCSXDIR
 10
1.0
 20
0.0
 30
0.0
  9
$UCSYDIR
 10
0.0
 20
1.0
 30
0.0
  9
$PUCSNAME
  2

  9
$PUCSORG
 10
0.0
 20
0.0
 30
0.0
  9
$PUCSXDIR
 10
1.0
 20
0.0
 30
0.0
  9
$PUCSYDIR
 10
0.0
 20
1.0
 30
0.0
  9
$USERI1
 70
           0
  9
$USERI2
 70
           0
  9
$USERI3
 70
           0
  9
$USERI4
 70
           0
  9
$USERI5
 70
           0
  9
$USERR1
 40
0.0
  9
$USERR2
 40
0.0
  9
$USERR3
 40
0.0
  9
$USERR4
 40
0.0
  9
$USERR5
 40
0.0
  9
$WORLDVIEW
 70
           1
  9
$SHADEDGE
 70
           3
  9
$SHADEDIF
 70
          70
  9
$TILEMODE
 70
           1
  9
$MAXACTVP
 70
          16
  9
$PINSBASE
 10
0.0
 20
0.0
 30
0.0
  9
$PLIMCHECK
 70
           0
  9
$PEXTMIN
 10
1.000000000000E+20
 20
1.000000000000E+20
 30
1.000000000000E+20
  9
$PEXTMAX
 10
-1.000000000000E+20
 20
-1.000000000000E+20
 30
-1.000000000000E+20
  9
$PLIMMIN
 10
0.0
 20
0.0
  9
$PLIMMAX
 10
12.0
 20
9.0
  9
$UNITMODE
 70
           0
  9
$VISRETAIN
 70
           0
  9
$PLINEGEN
 70
           1
  9
$PSLTSCALE
 70
           0
  9
$TREEDEPTH
 70
        3020
  9
$PICKSTYLE
 70
           1
  9
$CMLSTYLE
  2
STANDARD
  9
$CMLJUST
 70
           0
  9
$CMLSCALE
 40
1.0
  9
$PROXYGRAPHICS
 70
           0
  9
$MEASUREMENT
 70
           1
  0
ENDSEC
  0
SECTION
  2
CLASSES
  0
CLASS
  1
LWPOLYLINE
  2
AcDbPolyline
  3
"AutoCAD"
 90
        0
280
           0
281
           1
  0
CLASS
  1
IMAGE
  2
AcDbRasterImage
  3
ISM
 90
      127
280
           0
281
           1
  0
CLASS
  1
OLE2FRAME
  2
AcDbOle2Frame
  3
""
 90
        0
280
           0
281
           1
  0
CLASS
  1
HATCH
  2
AcDbHatch
  3
"ACAD_SEDONA"
 90
        0
280
           0
281
           1
  0
CLASS
  1
DICTIONARYVAR
  2
AcDbDictionaryVar
  3
"AutoCAD"
 90
        0
280
           0
281
           0
  0
CLASS
  1
RASTERVARIABLES
  2
AcDbRasterVariables
  3
ISM
 90
        0
280
           0
281
           0
  0
CLASS
  1
IMAGEDEF
  2
AcDbRasterImageDef
  3
ISM
 90
        0
280
           0
281
           0
  0
CLASS
  1
IMAGEDEF_REACTOR
  2
AcDbRasterImageDefReactor
  3
ISM
 90
        1
280
           0
281
           0
  0
CLASS
  1
IDBUFFER
  2
AcDbIdBuffer
  3
"Acad"
 90
        0
280
           0
281
           0
  0
CLASS
  1
SPATIAL_FILTER
  2
AcDbSpatialFilter
  3
"Acad"
 90
        0
280
           0
281
           0
  0
CLASS
  1
XRECORD
  2
AcDbXrecord
  3
"<Built In>"
 90
        0
280
           0
281
           0
  0
CLASS
  1
SORTENTSTABLE
  2
AcDbSortentsTable
  3
"AutoCAD"
 90
        0
280
           0
281
           0
  0
CLASS
  1
LAYER_INDEX
  2
AcDbLayerIndex
  3
"Acad"
 90
        0
280
           0
281
           0
  0
CLASS
  1
SPATIAL_INDEX
  2
AcDbSpatialIndex
  3
"Acad"
 90
        0
280
           0
281
           0
  0
CLASS
  1
OBJECT_PTR
  2
CAseDLPNTableRecord
  3
"ASE-LPNTableRecord"
 90
        1
280
           0
281
           0
  0
CLASS
  1
LAYOUT
  2
AcDbLayout
  3
"AutoCAD 2000"
 90
        1
280
           0
281
           0
  0
CLASS
  1
PLOTSETTINGS
  2
AcDbPlotSettings
  3
"AutoCAD 2000"
 90
        1
280
           0
281
           0
  0
CLASS
  1
ACDBDICTIONARYWDFLT
  2
AcDbDictionaryWithDefault
  3
"AutoCAD 2000"
 90
        1
280
           0
281
           0
  0
CLASS
  1
ACDBPLACEHOLDER
  2
AcDbPlaceHolder
  3
"AutoCAD 2000"
 90
        1
280
           0
281
           0
  0
CLASS
  1
VBA_PROJECT
  2
AcDbVbaProject
  3
"acadvba"
 90
        1
280
           0
281
           0
  0
CLASS
  1
WIPEOUT
  2
AcDbWipeout
  3
WipeOut|AutoCAD Express Tool|expresstools@autodesk.com
 90
      127
280
           0
281
           1
  0
CLASS
  1
WIPEOUTVARIABLES
  2
AcDbWipeoutVariables
  3
WipeOut|AutoCAD Express Tool|expresstools@autodesk.com
 90
        0
280
           0
281
           0
  0
CLASS
  1
RTEXT
  2
RText
  3
RText|AutoCAD Express Tool|expresstools@autodesk.com
 90
        0
280
           0
281
           1
  0
CLASS
  1
ARCALIGNEDTEXT
  2
AcDbArcAlignedText
  3
ATEXT|AutoCAD Express Tool|expresstools@autodesk.com
 90
        0
280
           0
281
           1
  0
ENDSEC
  0
SECTION
  2
TABLES
  0
TABLE
  2
VPORT
  5
7
100
AcDbSymbolTable
 70
           1
  0
VPORT
  5
15
100
AcDbSymbolTableRecord
100
AcDbViewportTableRecord
  2
*ACTIVE
 70
           0
 10
0.0
 20
0.0
 11
1.0
 21
1.0
 12
6.591288
 22
4.579184
 13
0.0
 23
0.0
 14
1.0
 24
1.0
 15
0.0
 25
0.0
 16
0.0
 26
0.0
 36
1.0
 17
0.0
 27
0.0
 37
0.0
 40
9.158369
 41
0.688564
 42
50.0
 43
0.0
 44
0.0
 50
0.0
 51
0.0
 71
           0
 72
         100
 73
           1
 74
           1
 75
           0
 76
           0
 77
           0
 78
           0
  0
ENDTAB
  0
TABLE
  2
LTYPE
  5
4
100
AcDbSymbolTable
 70
          10
  0
LTYPE
  5
11
100
AcDbSymbolTableRecord
100
AcDbLinetypeTableRecord
  2
BYBLOCK
 70
          64
  3

 72
          65
 73
           0
 40
0.0
  0
LTYPE
  5
12
100
AcDbSymbolTableRecord
100
AcDbLinetypeTableRecord
  2
BYLAYER
 70
          64
  3

 72
          65
 73
           0
 40
0.0
  0
LTYPE
  5
13
100
AcDbSymbolTableRecord
100
AcDbLinetypeTableRecord
  2
CONTINUOUS
 70
          64
  3
Solid line
 72
          65
 73
           0
 40
0.0
  0
LTYPE
  5
1D
100
AcDbSymbolTableRecord
100
AcDbLinetypeTableRecord
  2
DASHED
 70
          64
  3
Dashed
 72
          65
 73
           2
 40
15.0
 49
12.0
 74
           0
 49
-3.0
 74
           0
  0
LTYPE
  5
1E
100
AcDbSymbolTableRecord
100
AcDbLinetypeTableRecord
  2
DOTTED
 70
          64
  3
Dotted
 72
          65
 73
           2
 40
3.5
 49
0.5
 74
           0
 49
-3.0
 74
           0
  0
LTYPE
  5
1F
100
AcDbSymbolTableRecord
100
AcDbLinetypeTableRecord
  2
DOT_CENTER
 70
          64
  3
Dot_Center
 72
          65
 73
           4
 40
2.0
 49
1.25
 74
           0
 49
-0.25
 74
           0
 49
0.25
 74
           0
 49
-0.25
 74
           0
  0
LTYPE
  5
20
100
AcDbSymbolTableRecord
100
AcDbLinetypeTableRecord
  2
LONG_DASHED
 70
          64
  3
Long_Dashed
 72
          65
 73
           2
 40
2.0
 49
1.5
 74
           0
 49
-0.5
 74
           0
  0
LTYPE
  5
21
100
AcDbSymbolTableRecord
100
AcDbLinetypeTableRecord
  2
DASH_CENTER
 70
          64
  3
Dash_Center
 72
          65
 73
           4
 40
36.0
 49
24.0
 74
           0
 49
-3.0
 74
           0
 49
6.0
 74
           0
 49
-3.0
 74
           0
  0
LTYPE
  5
22
100
AcDbSymbolTableRecord
100
AcDbLinetypeTableRecord
  2
PHANTOM
 70
          64
  3
Phantom
 72
          65
 73
           6
 40
2.5
 49
1.25
 74
           0
 49
-0.25
 74
           0
 49
0.25
 74
           0
 49
-0.25
 74
           0
 49
0.25
 74
           0
 49
-0.25
 74
           0
  0
LTYPE
  5
23
100
AcDbSymbolTableRecord
100
AcDbLinetypeTableRecord
  2
CENTER_DASH_DASH
 70
          64
  3
Center_Dash_Dash
 72
          65
 73
           6
 40
22.0
 49
12.0
 74
           0
 49
-3.0
 74
           0
 49
0.5
 74
           0
 49
-3.0
 74
           0
 49
0.5
 74
           0
 49
-3.0
 74
           0
  0
ENDTAB
  0
TABLE
  2
LAYER
  5
2
100
AcDbSymbolTable
 70
           3
  0
LAYER
  5
14
100
AcDbSymbolTableRecord
100
AcDbLayerTableRecord
  2
0
 70
           0
 62
           7
  6
CONTINUOUS
  0
LAYER
  5
24
100
AcDbSymbolTableRecord
100
AcDbLayerTableRecord
  2
KONTUR
 70
           0
 62
           7
  6
CONTINUOUS
  0
LAYER
  5
25
100
AcDbSymbolTableRecord
100
AcDbLayerTableRecord
  2
1
 70
           0
 62
           7
  6
CONTINUOUS
  0
ENDTAB
  0
TABLE
  2
STYLE
  5
3
100
AcDbSymbolTable
 70
           5
  0
STYLE
  5
17
100
AcDbSymbolTableRecord
100
AcDbTextStyleTableRecord
  2
STANDARD
 70
           0
 40
0.0
 41
1.0
 50
0.0
 71
           0
 42
0.0
  3
txt
  4

  0
STYLE
  5
16C
100
AcDbSymbolTableRecord
100
AcDbTextStyleTableRecord
  2
CONVERTER_1
 70
           0
 40
0.0
 41
0.765
 50
15.0
 71
           0
 42
0.0
  3
txt.shx
  4

  0
STYLE
  5
16E
100
AcDbSymbolTableRecord
100
AcDbTextStyleTableRecord
  2
CONVERTER_2
 70
           0
 40
0.0
 41
0.792
 50
0.0
 71
           0
 42
0.0
  3
txt.shx
  4

  0
STYLE
  5
170
100
AcDbSymbolTableRecord
100
AcDbTextStyleTableRecord
  2
CONVERTER_3
 70
           0
 40
0.0
 41
0.9
 50
0.0
 71
           0
 42
0.0
  3
txt.shx
  4

  0
STYLE
  5
189
100
AcDbSymbolTableRecord
100
AcDbTextStyleTableRecord
  2
CONVERTER_4
 70
           0
 40
0.0
 41
0.855
 50
0.0
 71
           0
 42
0.0
  3
txt.shx
  4

  0
ENDTAB
  0
TABLE
  2
VIEW
  5
5
100
AcDbSymbolTable
 70
           0
  0
ENDTAB
  0
TABLE
  2
UCS
  5
6
100
AcDbSymbolTable
 70
           0
  0
ENDTAB
  0
TABLE
  2
APPID
  5
8
100
AcDbSymbolTable
 70
           1
  0
APPID
  5
16
100
AcDbSymbolTableRecord
100
AcDbRegAppTableRecord
  2
ACAD
 70
           0
  0
ENDTAB
  0
TABLE
  2
DIMSTYLE
  5
9
100
AcDbSymbolTable
 70
          25
  0
DIMSTYLE
105
18
100
AcDbSymbolTableRecord
100
AcDbDimStyleTableRecord
  2
STANDARD
 70
           0
  3

  4

  5

  6

  7

 40
1.0
 41
0.18
 42
0.0625
 43
0.38
 44
0.18
 45
0.0
 46
0.0
 47
0.0
 48
0.0
 71
           0
 72
           0
 73
           1
 74
           1
 75
           0
 76
           0
 77
           0
 78
           0
140
0.18
141
0.09
142
0.0
143
25.4
144
1.0
145
0.0
146
1.0
147
0.09
170
           0
171
           2
172
           0
173
           0
174
           0
175
           0
176
           0
177
           0
178
           0
270
           2
271
           4
272
           4
273
           2
274
           2
275
           0
280
           0
281
           0
282
           0
283
           1
284
           0
285
           0
286
           0
287
           0
288
           0
340
17
  0
DIMSTYLE
105
2B2
100
AcDbSymbolTableRecord
100
AcDbDimStyleTableRecord
  2
ME10_DIM_0
 70
           0
  3

  4

  5

  6
_CLOSED
  7
_CLOSED
 40
1.0
 41
4.5
 42
0.0
 43
0.38
 44
3.0
 45
0.0
 46
0.0
 47
0.0
 48
0.0
 71
           0
 72
           0
 73
           0
 74
           0
 75
           0
 76
           0
 77
           1
 78
           8
140
4.5
141
0.09
142
0.0
143
25.4
144
1.0
145
0.0
146
1.0
147
0.625
170
           0
171
           2
172
           0
173
           1
174
           0
175
           0
176
           3
177
           3
178
           2
270
           2
271
           2
272
           4
273
           2
274
           2
275
           0
280
           0
281
           0
282
           0
283
           1
284
           0
285
           0
286
           0
287
           3
288
           0
340
17
  0
DIMSTYLE
105
2C3
100
AcDbSymbolTableRecord
100
AcDbDimStyleTableRecord
  2
ME10_DIM_1
 70
           0
  3

  4

  5

  6
_CLOSED
  7
_CLOSED
 40
1.0
 41
4.5
 42
0.0
 43
0.38
 44
3.0
 45
0.0
 46
0.0
 47
0.0
 48
0.0
 71
           0
 72
           0
 73
           0
 74
           0
 75
           0
 76
           0
 77
           1
 78
           8
140
4.5
141
0.09
142
0.0
143
25.4
144
1.0
145
0.0
146
1.0
147
0.625
170
           0
171
           2
172
           0
173
           1
174
           0
175
           0
176
           3
177
           3
178
           2
270
           2
271
           2
272
           4
273
           2
274
           2
275
           0
280
           0
281
           0
282
           0
283
           1
284
           0
285
           0
286
           0
287
           3
288
           0
340
17
  0
DIMSTYLE
105
2D4
100
AcDbSymbolTableRecord
100
AcDbDimStyleTableRecord
  2
ME10_DIM_2
 70
           0
  3

  4

  5

  6
_CLOSED
  7
_CLOSED
 40
1.0
 41
4.5
 42
0.0
 43
0.38
 44
3.0
 45
0.0
 46
0.0
 47
0.0
 48
0.0
 71
           0
 72
           0
 73
           0
 74
           0
 75
           0
 76
           0
 77
           1
 78
           8
140
4.5
141
0.09
142
0.0
143
25.4
144
1.0
145
0.0
146
1.0
147
0.625
170
           0
171
           2
172
           0
173
           1
174
           0
175
           0
176
           3
177
           3
178
           2
270
           2
271
           2
272
           4
273
           2
274
           2
275
           0
280
           0
281
           0
282
           0
283
           1
284
           0
285
           0
286
           0
287
           3
288
           0
340
17
  0
DIMSTYLE
105
2E5
100
AcDbSymbolTableRecord
100
AcDbDimStyleTableRecord
  2
ME10_DIM_3
 70
           0
  3

  4

  5

  6
_CLOSED
  7
_CLOSED
 40
1.0
 41
4.5
 42
0.0
 43
0.38
 44
3.0
 45
0.0
 46
0.0
 47
0.0
 48
0.0
 71
           0
 72
           0
 73
           0
 74
           0
 75
           0
 76
           0
 77
           1
 78
           8
140
4.5
141
0.09
142
0.0
143
25.4
144
1.0
145
0.0
146
1.0
147
0.625
170
           0
171
           2
172
           0
173
           1
174
           0
175
           0
176
           3
177
           3
178
           2
270
           2
271
           2
272
           4
273
           2
274
           2
275
           0
280
           0
281
           0
282
           0
283
           1
284
           0
285
           0
286
           0
287
           3
288
           0
340
17
  0
DIMSTYLE
105
2F6
100
AcDbSymbolTableRecord
100
AcDbDimStyleTableRecord
  2
ME10_DIM_4
 70
           0
  3

  4

  5

  6
_CLOSED
  7
_CLOSED
 40
1.0
 41
4.5
 42
0.0
 43
0.38
 44
3.0
 45
0.0
 46
0.0
 47
0.0
 48
0.0
 71
           0
 72
           0
 73
           0
 74
           0
 75
           0
 76
           0
 77
           1
 78
           8
140
4.5
141
0.09
142
0.0
143
25.4
144
1.0
145
0.0
146
1.0
147
0.625
170
           0
171
           2
172
           0
173
           1
174
           0
175
           0
176
           3
177
           3
178
           2
270
           2
271
           2
272
           4
273
           2
274
           2
275
           0
280
           0
281
           0
282
           0
283
           1
284
           0
285
           0
286
           0
287
           3
288
           0
340
17
  0
DIMSTYLE
105
307
100
AcDbSymbolTableRecord
100
AcDbDimStyleTableRecord
  2
ME10_DIM_5
 70
           0
  3

  4

  5

  6
_CLOSED
  7
_CLOSED
 40
1.0
 41
4.5
 42
0.0
 43
0.38
 44
3.0
 45
0.0
 46
0.0
 47
0.0
 48
0.0
 71
           0
 72
           0
 73
           0
 74
           0
 75
           0
 76
           0
 77
           1
 78
           8
140
4.5
141
0.09
142
0.0
143
25.4
144
1.0
145
0.0
146
1.0
147
0.625
170
           0
171
           2
172
           0
173
           1
174
           0
175
           0
176
           3
177
           3
178
           2
270
           2
271
           2
272
           4
273
           2
274
           2
275
           0
280
           0
281
           0
282
           0
283
           1
284
           0
285
           0
286
           0
287
           3
288
           0
340
17
  0
DIMSTYLE
105
318
100
AcDbSymbolTableRecord
100
AcDbDimStyleTableRecord
  2
ME10_DIM_6
 70
           0
  3

  4

  5

  6
_CLOSED
  7
_CLOSED
 40
1.0
 41
4.5
 42
0.0
 43
0.38
 44
3.0
 45
0.0
 46
0.0
 47
0.0
 48
0.0
 71
           0
 72
           0
 73
           0
 74
           0
 75
           0
 76
           0
 77
           1
 78
           8
140
4.5
141
0.09
142
0.0
143
25.4
144
1.0
145
0.0
146
1.0
147
0.625
170
           0
171
           2
172
           0
173
           1
174
           0
175
           0
176
           3
177
           3
178
           2
270
           2
271
           2
272
           4
273
           2
274
           2
275
           0
280
           0
281
           0
282
           0
283
           1
284
           0
285
           0
286
           0
287
           3
288
           0
340
17
  0
DIMSTYLE
105
32A
100
AcDbSymbolTableRecord
100
AcDbDimStyleTableRecord
  2
ME10_DIM_7
 70
           0
  3

  4

  5

  6
_CLOSED
  7
_CLOSED
 40
1.0
 41
4.5
 42
0.0
 43
0.38
 44
3.0
 45
0.0
 46
0.0
 47
0.0
 48
0.0
 71
           0
 72
           0
 73
           0
 74
           0
 75
           0
 76
           0
 77
           1
 78
           8
140
4.5
141
0.09
142
0.0
143
25.4
144
1.0
145
0.0
146
1.0
147
0.625
170
           0
171
           2
172
           0
173
           1
174
           0
175
           0
176
           3
177
           3
178
           2
270
           2
271
           2
272
           4
273
           2
274
           2
275
           0
280
           0
281
           0
282
           0
283
           1
284
           0
285
           0
286
           0
287
           3
288
           0
340
17
  0
DIMSTYLE
105
33C
100
AcDbSymbolTableRecord
100
AcDbDimStyleTableRecord
  2
ME10_DIM_8
 70
           0
  3

  4

  5

  6
_CLOSED
  7
_CLOSED
 40
1.0
 41
4.5
 42
0.0
 43
0.38
 44
3.0
 45
0.0
 46
0.0
 47
0.0
 48
0.0
 71
           0
 72
           0
 73
           0
 74
           0
 75
           0
 76
           0
 77
           1
 78
           8
140
4.5
141
0.09
142
0.0
143
25.4
144
1.0
145
0.0
146
1.0
147
0.625
170
           0
171
           2
172
           0
173
           1
174
           0
175
           0
176
           3
177
           3
178
           2
270
           2
271
           2
272
           4
273
           2
274
           2
275
           0
280
           0
281
           0
282
           0
283
           1
284
           0
285
           0
286
           0
287
           3
288
           0
340
17
  0
DIMSTYLE
105
34E
100
AcDbSymbolTableRecord
100
AcDbDimStyleTableRecord
  2
ME10_DIM_9
 70
           0
  3

  4

  5

  6
_CLOSED
  7
_CLOSED
 40
1.0
 41
4.5
 42
0.0
 43
0.38
 44
3.0
 45
0.0
 46
0.0
 47
0.0
 48
0.0
 71
           0
 72
           0
 73
           0
 74
           0
 75
           0
 76
           0
 77
           1
 78
           8
140
4.5
141
0.09
142
0.0
143
25.4
144
1.0
145
0.0
146
1.0
147
0.625
170
           0
171
           2
172
           0
173
           1
174
           0
175
           0
176
           3
177
           3
178
           2
270
           2
271
           2
272
           4
273
           2
274
           2
275
           0
280
           0
281
           0
282
           0
283
           1
284
           0
285
           0
286
           0
287
           3
288
           0
340
17
  0
DIMSTYLE
105
360
100
AcDbSymbolTableRecord
100
AcDbDimStyleTableRecord
  2
ME10_DIM_10
 70
           0
  3
Ø<>
  4

  5

  6
_CLOSED
  7
_CLOSED
 40
1.0
 41
4.5
 42
0.0
 43
0.38
 44
3.0
 45
0.0
 46
0.0
 47
0.0
 48
-6.0
 71
           1
 72
           0
 73
           0
 74
           0
 75
           0
 76
           0
 77
           1
 78
           8
140
4.5
141
0.09
142
0.0
143
25.4
144
1.0
145
0.0
146
0.6
147
0.625
170
           0
171
           2
172
           0
173
           1
174
           0
175
           0
176
           3
177
           3
178
           2
270
           2
271
           2
272
           0
273
           2
274
           2
275
           0
280
           0
281
           0
282
           0
283
           1
284
           0
285
           0
286
           0
287
           3
288
           0
340
17
  0
DIMSTYLE
105
371
100
AcDbSymbolTableRecord
100
AcDbDimStyleTableRecord
  2
ME10_DIM_11
 70
           0
  3
Ø<>
  4

  5

  6
_CLOSED
  7
_CLOSED
 40
1.0
 41
4.5
 42
0.0
 43
0.38
 44
3.0
 45
0.0
 46
0.0
 47
0.0
 48
-8.0
 71
           1
 72
           0
 73
           0
 74
           0
 75
           0
 76
           0
 77
           1
 78
           8
140
4.5
141
0.09
142
0.0
143
25.4
144
1.0
145
0.0
146
0.6
147
0.625
170
           0
171
           2
172
           0
173
           1
174
           0
175
           0
176
           3
177
           3
178
           2
270
           2
271
           2
272
           0
273
           2
274
           2
275
           0
280
           0
281
           0
282
           0
283
           1
284
           0
285
           0
286
           0
287
           3
288
           0
340
17
  0
DIMSTYLE
105
382
100
AcDbSymbolTableRecord
100
AcDbDimStyleTableRecord
  2
ME10_DIM_12
 70
           0
  3

  4

  5

  6
_CLOSED
  7
_CLOSED
 40
1.0
 41
4.5
 42
0.0
 43
0.38
 44
3.0
 45
0.0
 46
0.0
 47
0.0
 48
0.0
 71
           0
 72
           0
 73
           0
 74
           0
 75
           0
 76
           0
 77
           1
 78
           8
140
4.5
141
0.09
142
0.0
143
25.4
144
1.0
145
0.0
146
1.0
147
0.625
170
           0
171
           2
172
           0
173
           1
174
           0
175
           0
176
           3
177
           3
178
           2
270
           2
271
           2
272
           4
273
           2
274
           2
275
           0
280
           0
281
           0
282
           0
283
           1
284
           0
285
           0
286
           0
287
           3
288
           0
340
17
  0
DIMSTYLE
105
393
100
AcDbSymbolTableRecord
100
AcDbDimStyleTableRecord
  2
ME10_DIM_13
 70
           0
  3

  4

  5

  6
_CLOSED
  7
_CLOSED
 40
1.0
 41
4.5
 42
0.0
 43
0.38
 44
3.0
 45
0.0
 46
0.0
 47
0.0
 48
0.0
 71
           0
 72
           0
 73
           0
 74
           0
 75
           0
 76
           0
 77
           1
 78
           8
140
4.5
141
0.09
142
0.0
143
25.4
144
1.0
145
0.0
146
1.0
147
0.625
170
           0
171
           2
172
           0
173
           1
174
           0
175
           0
176
           3
177
           3
178
           2
270
           2
271
           2
272
           4
273
           2
274
           2
275
           0
280
           0
281
           0
282
           0
283
           1
284
           0
285
           0
286
           0
287
           3
288
           0
340
17
  0
DIMSTYLE
105
3A6
100
AcDbSymbolTableRecord
100
AcDbDimStyleTableRecord
  2
ME10_DIM_14
 70
           0
  3

  4

  5

  6
_CLOSED
  7
_CLOSED
 40
1.0
 41
4.5
 42
0.0
 43
0.38
 44
3.0
 45
0.0
 46
0.0
 47
0.0
 48
0.0
 71
           0
 72
           0
 73
           0
 74
           0
 75
           0
 76
           0
 77
           1
 78
           8
140
4.5
141
0.09
142
0.0
143
25.4
144
1.0
145
0.0
146
1.0
147
0.625
170
           0
171
           2
172
           0
173
           1
174
           0
175
           0
176
           3
177
           3
178
           2
270
           2
271
           2
272
           4
273
           2
274
           2
275
           0
280
           0
281
           0
282
           0
283
           1
284
           0
285
           0
286
           0
287
           3
288
           0
340
17
  0
DIMSTYLE
105
3B7
100
AcDbSymbolTableRecord
100
AcDbDimStyleTableRecord
  2
ME10_DIM_15
 70
           0
  3
Ø<>
  4

  5

  6
_CLOSED
  7
_CLOSED
 40
1.0
 41
4.5
 42
0.0
 43
0.38
 44
3.0
 45
0.0
 46
0.0
 47
0.0
 48
0.0
 71
           0
 72
           0
 73
           0
 74
           0
 75
           0
 76
           0
 77
           1
 78
           8
140
4.5
141
0.09
142
0.0
143
25.4
144
1.0
145
0.0
146
1.0
147
0.625
170
           0
171
           2
172
           0
173
           1
174
           0
175
           0
176
           3
177
           3
178
           2
270
           2
271
           2
272
           4
273
           2
274
           2
275
           0
280
           0
281
           0
282
           0
283
           1
284
           0
285
           0
286
           0
287
           3
288
           0
340
17
  0
DIMSTYLE
105
3C9
100
AcDbSymbolTableRecord
100
AcDbDimStyleTableRecord
  2
ME10_DIM_16
 70
           0
  3
Ø<>
  4

  5

  6
_CLOSED
  7
_CLOSED
 40
1.0
 41
4.5
 42
0.0
 43
0.38
 44
3.0
 45
0.0
 46
0.0
 47
0.0
 48
-6.0
 71
           1
 72
           0
 73
           0
 74
           0
 75
           0
 76
           0
 77
           1
 78
           8
140
4.5
141
0.09
142
0.0
143
25.4
144
1.0
145
0.0
146
0.6
147
0.625
170
           0
171
           2
172
           0
173
           1
174
           0
175
           0
176
           3
177
           3
178
           2
270
           2
271
           2
272
           0
273
           2
274
           2
275
           0
280
           0
281
           0
282
           0
283
           1
284
           0
285
           0
286
           0
287
           3
288
           0
340
17
  0
DIMSTYLE
105
3DA
100
AcDbSymbolTableRecord
100
AcDbDimStyleTableRecord
  2
ME10_DIM_17
 70
           0
  3
Ø<>
  4

  5

  6
_CLOSED
  7
_CLOSED
 40
1.0
 41
4.5
 42
0.0
 43
0.38
 44
3.0
 45
0.0
 46
0.0
 47
0.0
 48
-8.0
 71
           1
 72
           0
 73
           0
 74
           0
 75
           0
 76
           0
 77
           1
 78
           8
140
4.5
141
0.09
142
0.0
143
25.4
144
1.0
145
0.0
146
0.6
147
0.625
170
           0
171
           2
172
           0
173
           1
174
           0
175
           0
176
           3
177
           3
178
           2
270
           2
271
           2
272
           0
273
           2
274
           2
275
           0
280
           0
281
           0
282
           0
283
           1
284
           0
285
           0
286
           0
287
           3
288
           0
340
17
  0
DIMSTYLE
105
3EB
100
AcDbSymbolTableRecord
100
AcDbDimStyleTableRecord
  2
ME10_DIM_18
 70
           0
  3

  4

  5

  6
_CLOSED
  7
_CLOSED
 40
1.0
 41
4.5
 42
0.0
 43
0.38
 44
3.0
 45
0.0
 46
0.0
 47
0.0
 48
0.0
 71
           0
 72
           0
 73
           0
 74
           0
 75
           0
 76
           0
 77
           1
 78
           8
140
4.5
141
0.09
142
0.0
143
25.4
144
1.0
145
0.0
146
1.0
147
0.625
170
           0
171
           2
172
           0
173
           1
174
           0
175
           0
176
           3
177
           3
178
           2
270
           2
271
           2
272
           4
273
           2
274
           2
275
           0
280
           0
281
           0
282
           0
283
           1
284
           0
285
           0
286
           0
287
           3
288
           0
340
17
  0
DIMSTYLE
105
3FC
100
AcDbSymbolTableRecord
100
AcDbDimStyleTableRecord
  2
ME10_DIM_19
 70
           0
  3

  4

  5

  6
_CLOSED
  7
_CLOSED
 40
1.0
 41
4.5
 42
0.0
 43
0.38
 44
3.0
 45
0.0
 46
0.0
 47
0.0
 48
0.0
 71
           0
 72
           0
 73
           0
 74
           0
 75
           0
 76
           0
 77
           1
 78
           8
140
4.5
141
0.09
142
0.0
143
25.4
144
1.0
145
0.0
146
1.0
147
0.625
170
           0
171
           2
172
           0
173
           1
174
           0
175
           0
176
           3
177
           3
178
           2
270
           2
271
           2
272
           4
273
           2
274
           2
275
           0
280
           0
281
           0
282
           0
283
           1
284
           0
285
           0
286
           0
287
           3
288
           0
340
17
  0
DIMSTYLE
105
40D
100
AcDbSymbolTableRecord
100
AcDbDimStyleTableRecord
  2
ME10_DIM_20
 70
           0
  3

  4

  5

  6
_CLOSED
  7
_CLOSED
 40
1.0
 41
4.5
 42
0.0
 43
0.38
 44
3.0
 45
0.0
 46
0.0
 47
0.0
 48
0.0
 71
           0
 72
           0
 73
           0
 74
           0
 75
           0
 76
           0
 77
           1
 78
           8
140
4.5
141
0.09
142
0.0
143
25.4
144
1.0
145
0.0
146
1.0
147
0.625
170
           0
171
           2
172
           0
173
           1
174
           0
175
           0
176
           3
177
           3
178
           2
270
           2
271
           2
272
           4
273
           2
274
           2
275
           0
280
           0
281
           0
282
           0
283
           1
284
           0
285
           0
286
           0
287
           3
288
           0
340
17
  0
DIMSTYLE
105
41E
100
AcDbSymbolTableRecord
100
AcDbDimStyleTableRecord
  2
ME10_DIM_21
 70
           0
  3

  4

  5

  6
_CLOSED
  7
_CLOSED
 40
1.0
 41
4.5
 42
0.0
 43
0.38
 44
3.0
 45
0.0
 46
0.0
 47
0.0
 48
0.0
 71
           0
 72
           0
 73
           0
 74
           0
 75
           0
 76
           0
 77
           1
 78
           8
140
4.5
141
0.09
142
0.0
143
25.4
144
1.0
145
0.0
146
1.0
147
0.625
170
           0
171
           2
172
           0
173
           1
174
           0
175
           0
176
           3
177
           3
178
           2
270
           2
271
           2
272
           4
273
           2
274
           2
275
           0
280
           0
281
           0
282
           0
283
           1
284
           0
285
           0
286
           0
287
           3
288
           0
340
17
  0
DIMSTYLE
105
431
100
AcDbSymbolTableRecord
100
AcDbDimStyleTableRecord
  2
ME10_DIM_22
 70
           0
  3

  4

  5

  6
_CLOSED
  7
_CLOSED
 40
1.0
 41
4.5
 42
0.0
 43
0.38
 44
3.0
 45
0.0
 46
0.0
 47
0.0
 48
0.0
 71
           0
 72
           0
 73
           0
 74
           0
 75
           0
 76
           0
 77
           1
 78
           8
140
4.5
141
0.09
142
0.0
143
25.4
144
1.0
145
0.0
146
1.0
147
0.625
170
           0
171
           2
172
           0
173
           1
174
           0
175
           0
176
           3
177
           3
178
           2
270
           2
271
           2
272
           4
273
           2
274
           2
275
           0
280
           0
281
           0
282
           0
283
           1
284
           0
285
           0
286
           0
287
           3
288
           0
340
17
  0
DIMSTYLE
105
442
100
AcDbSymbolTableRecord
100
AcDbDimStyleTableRecord
  2
ME10_DIM_23
 70
           0
  3

  4

  5

  6
_CLOSED
  7
_CLOSED
 40
1.0
 41
4.5
 42
0.0
 43
0.38
 44
3.0
 45
0.0
 46
0.0
 47
0.0
 48
0.0
 71
           0
 72
           0
 73
           0
 74
           0
 75
           0
 76
           0
 77
           1
 78
           8
140
4.5
141
0.09
142
0.0
143
25.4
144
1.0
145
0.0
146
1.0
147
0.625
170
           0
171
           2
172
           0
173
           1
174
           0
175
           0
176
           3
177
           3
178
           2
270
           2
271
           2
272
           4
273
           2
274
           2
275
           0
280
           0
281
           0
282
           0
283
           1
284
           0
285
           0
286
           0
287
           3
288
           0
340
17
  0
ENDTAB
  0
TABLE
  2
BLOCK_RECORD
  5
1
100
AcDbSymbolTable
 70
          74
  0
BLOCK_RECORD
  5
A
100
AcDbSymbolTableRecord
100
AcDbBlockTableRecord
  2
*MODEL_SPACE
  0
BLOCK_RECORD
  5
B
100
AcDbSymbolTableRecord
100
AcDbBlockTableRecord
  2
*PAPER_SPACE
  0
BLOCK_RECORD
  5
26
100
AcDbSymbolTableRecord
100
AcDbBlockTableRecord
  2
DINA3_INTERNETRAHMEN
  0
BLOCK_RECORD
  5
28
100
AcDbSymbolTableRecord
100
AcDbBlockTableRecord
  2
GETRIEBE
  0
BLOCK_RECORD
  5
2A3
100
AcDbSymbolTableRecord
100
AcDbBlockTableRecord
  2
*D2
  0
BLOCK_RECORD
  5
2B4
100
AcDbSymbolTableRecord
100
AcDbBlockTableRecord
  2
*D5
  0
BLOCK_RECORD
  5
2C5
100
AcDbSymbolTableRecord
100
AcDbBlockTableRecord
  2
*D8
  0
BLOCK_RECORD
  5
2D6
100
AcDbSymbolTableRecord
100
AcDbBlockTableRecord
  2
*D11
  0
BLOCK_RECORD
  5
2E7
100
AcDbSymbolTableRecord
100
AcDbBlockTableRecord
  2
*D14
  0
BLOCK_RECORD
  5
2F8
100
AcDbSymbolTableRecord
100
AcDbBlockTableRecord
  2
*D17
  0
BLOCK_RECORD
  5
309
100
AcDbSymbolTableRecord
100
AcDbBlockTableRecord
  2
*D20
  0
BLOCK_RECORD
  5
31A
100
AcDbSymbolTableRecord
100
AcDbBlockTableRecord
  2
*D23
  0
BLOCK_RECORD
  5
32C
100
AcDbSymbolTableRecord
100
AcDbBlockTableRecord
  2
*D26
  0
BLOCK_RECORD
  5
33E
100
AcDbSymbolTableRecord
100
AcDbBlockTableRecord
  2
*D29
  0
BLOCK_RECORD
  5
350
100
AcDbSymbolTableRecord
100
AcDbBlockTableRecord
  2
*D32
  0
BLOCK_RECORD
  5
362
100
AcDbSymbolTableRecord
100
AcDbBlockTableRecord
  2
*D35
  0
BLOCK_RECORD
  5
373
100
AcDbSymbolTableRecord
100
AcDbBlockTableRecord
  2
*D38
  0
BLOCK_RECORD
  5
384
100
AcDbSymbolTableRecord
100
AcDbBlockTableRecord
  2
*D41
  0
BLOCK_RECORD
  5
395
100
AcDbSymbolTableRecord
100
AcDbBlockTableRecord
  2
*D44
  0
BLOCK_RECORD
  5
3A8
100
AcDbSymbolTableRecord
100
AcDbBlockTableRecord
  2
*D47
  0
BLOCK_RECORD
  5
3B9
100
AcDbSymbolTableRecord
100
AcDbBlockTableRecord
  2
*D50
  0
BLOCK_RECORD
  5
3CB
100
AcDbSymbolTableRecord
100
AcDbBlockTableRecord
  2
*D53
  0
BLOCK_RECORD
  5
3DC
100
AcDbSymbolTableRecord
100
AcDbBlockTableRecord
  2
*D56
  0
BLOCK_RECORD
  5
3ED
100
AcDbSymbolTableRecord
100
AcDbBlockTableRecord
  2
*D59
  0
BLOCK_RECORD
  5
3FE
100
AcDbSymbolTableRecord
100
AcDbBlockTableRecord
  2
*D62
  0
BLOCK_RECORD
  5
40F
100
AcDbSymbolTableRecord
100
AcDbBlockTableRecord
  2
*D65
  0
BLOCK_RECORD
  5
420
100
AcDbSymbolTableRecord
100
AcDbBlockTableRecord
  2
*D68
  0
BLOCK_RECORD
  5
433
100
AcDbSymbolTableRecord
100
AcDbBlockTableRecord
  2
*D71
  0
ENDTAB
  0
ENDSEC
  0
SECTION
  2
BLOCKS
  0
BLOCK
  5
D
100
AcDbEntity
  8
0
100
AcDbBlockBegin
  2
*MODEL_SPACE
 70
           0
 10
0.0
 20
0.0
 30
0.0
  3
*MODEL_SPACE
  1

  0
ENDBLK
  5
E
100
AcDbEntity
  8
0
100
AcDbBlockEnd
  0
BLOCK
  5
F
100
AcDbEntity
 67
           1
  8
0
100
AcDbBlockBegin
  2
*PAPER_SPACE
 70
           0
 10
0.0
 20
0.0
 30
0.0
  3
*PAPER_SPACE
  1

  0
ENDBLK
  5
10
100
AcDbEntity
 67
           1
  8
0
100
AcDbBlockEnd
  0
BLOCK
  5
27
100
AcDbEntity
  8
0
100
AcDbBlockBegin
  2
DINA3_INTERNETRAHMEN
 70
           0
 10
233.841162285886
 20
-175.917954070049
 30
0.0
  3
DINA3_INTERNETRAHMEN
  1

  0
HATCH
  5
196
100
AcDbEntity
  8
0
  6
CONTINUOUS
 62
           3
100
AcDbHatch
 10
0.0
 20
0.0
 30
0.0
210
0.0
220
0.0
230
1.0
  2
USER
 70
           0
 71
           1
 91
        1
 92
        1
 93
       12
 72
           1
 10
206.3615971944977
 20
-138.535885670596
 11
206.3615971944977
 21
-139.0882004797862
 72
           1
 10
206.3615971944977
 20
-139.0882004797862
 11
202.1288678655074
 21
-139.0882004797862
 72
           1
 10
202.1288678655074
 20
-139.0882004797862
 11
202.1288678655074
 21
-140.682967905916
 72
           1
 10
202.1288678655074
 20
-140.682967905916
 11
206.19588245520751
 21
-140.682967905916
 72
           1
 10
206.19588245520751
 20
-140.682967905916
 11
206.19588245520751
 21
-141.23575434552609
 72
           1
 10
206.19588245520751
 20
-141.23575434552609
 11
202.1288678655074
 21
-141.23575434552609
 72
           1
 10
202.1288678655074
 20
-141.23575434552609
 11
202.1288678655074
 21
-142.98235978306599
 72
           1
 10
202.1288678655074
 20
-142.98235978306599
 11
206.38894667494739
 21
-142.98235978306599
 72
           1
 10
206.38894667494739
 20
-142.98235978306599
 11
206.38894667494739
 21
-143.535145831606
 72
           1
 10
206.38894667494739
 20
-143.535145831606
 11
201.45132422984739
 21
-143.535145831606
 72
           1
 10
201.45132422984739
 20
-143.535145831606
 11
201.45132422984739
 21
-138.535885670596
 72
           1
 10
201.45132422984739
 20
-138.535885670596
 11
206.3615971944977
 21
-138.535885670596
 97
       12
330
9B
330
95
330
99
330
96
330
9A
330
97
330
90
330
92
330
94
330
93
330
91
330
98
 75
           1
 76
           0
 52
0.0
 41
0.3
 77
           0
 78
           1
 53
0.0
 43
483.798770870378
 44
-327.29898966355
 45
0.0
 46
0.3
 79
           0
 98
        1
 10
0.0
 20
0.0
  0
HATCH
  5
195
100
AcDbEntity
  8
0
  6
CONTINUOUS
 62
           3
100
AcDbHatch
 10
0.0
 20
0.0
 30
0.0
210
0.0
220
0.0
230
1.0
  2
USER
 70
           0
 71
           1
 91
        1
 92
        1
 93
        4
 72
           1
 10
182.85329153775751
 20
-138.535885670596
 11
182.85329153775751
 21
-143.535145831606
 72
           1
 10
182.85329153775751
 20
-143.535145831606
 11
182.1766907718673
 21
-143.535145831606
 72
           1
 10
182.1766907718673
 20
-143.535145831606
 11
182.1766907718673
 21
-138.535885670596
 72
           1
 10
182.1766907718673
 20
-138.535885670596
 11
182.85329153775751
 21
-138.535885670596
 97
        4
330
79
330
81
330
7A
330
85
 75
           1
 76
           0
 52
0.0
 41
0.3
 77
           0
 78
           1
 53
0.0
 43
465.732989702146
 44
-329.104220759636
 45
0.0
 46
0.3
 79
           0
 98
        1
 10
0.0
 20
0.0
  0
HATCH
  5
194
100
AcDbEntity
  8
0
  6
CONTINUOUS
 62
           3
100
AcDbHatch
 10
0.0
 20
0.0
 30
0.0
210
0.0
220
0.0
230
1.0
  2
USER
 70
           0
 71
           1
 91
        1
 92
        1
 93
       12
 72
           1
 10
190.54164248449749
 20
-138.535885670596
 11
190.54164248449749
 21
-139.0882004797862
 72
           1
 10
190.54164248449749
 20
-139.0882004797862
 11
186.3089131555077
 21
-139.0882004797862
 72
           1
 10
186.3089131555077
 20
-139.0882004797862
 11
186.3089131555077
 21
-140.682967905916
 72
           1
 10
186.3089131555077
 20
-140.682967905916
 11
190.3759277452076
 21
-140.682967905916
 72
           1
 10
190.3759277452076
 20
-140.682967905916
 11
190.3759277452076
 21
-141.23575434552609
 72
           1
 10
190.3759277452076
 20
-141.23575434552609
 11
186.3089131555077
 21
-141.23575434552609
 72
           1
 10
186.3089131555077
 20
-141.23575434552609
 11
186.3089131555077
 21
-142.98235978306599
 72
           1
 10
186.3089131555077
 20
-142.98235978306599
 11
190.56899196494729
 21
-142.98235978306599
 72
           1
 10
190.56899196494729
 20
-142.98235978306599
 11
190.56899196494729
 21
-143.535145831606
 72
           1
 10
190.56899196494729
 20
-143.535145831606
 11
185.6323123896176
 21
-143.535145831606
 72
           1
 10
185.6323123896176
 20
-143.535145831606
 11
185.6323123896176
 21
-138.535885670596
 72
           1
 10
185.6323123896176
 20
-138.535885670596
 11
190.54164248449749
 21
-138.535885670596
 97
       12
330
8C
330
73
330
86
330
74
330
8B
330
75
330
7B
330
77
330
8A
330
78
330
7C
330
76
 75
           1
 76
           0
 52
0.0
 41
0.3
 77
           0
 78
           1
 53
0.0
 43
470.534094947584
 44
-327.281203031343
 45
0.0
 46
0.3
 79
           0
 98
        1
 10
0.0
 20
0.0
  0
HATCH
  5
193
100
AcDbEntity
  8
0
  6
CONTINUOUS
 62
           3
100
AcDbHatch
 10
0.0
 20
0.0
 30
0.0
210
0.0
220
0.0
230
1.0
  2
USER
 70
           0
 71
           1
 91
        1
 92
        1
 93
        8
 72
           1
 10
172.3860542672374
 20
-138.535885670596
 11
172.3860542672374
 21
-139.0882004797862
 72
           1
 10
172.3860542672374
 20
-139.0882004797862
 11
169.85816488192739
 21
-139.0882004797862
 72
           1
 10
169.85816488192739
 20
-139.0882004797862
 11
169.85816488192739
 21
-143.535145831606
 72
           1
 10
169.85816488192739
 20
-143.535145831606
 11
169.18156411603729
 21
-143.535145831606
 72
           1
 10
169.18156411603729
 20
-143.535145831606
 11
169.18156411603729
 21
-139.0882004797862
 72
           1
 10
169.18156411603729
 20
-139.0882004797862
 11
166.65421401625741
 21
-139.0882004797862
 72
           1
 10
166.65421401625741
 20
-139.0882004797862
 11
166.65421401625741
 21
-138.535885670596
 72
           1
 10
166.65421401625741
 20
-138.535885670596
 11
172.3860542672374
 21
-138.535885670596
 97
        8
330
72
330
71
330
67
330
6C
330
68
330
6D
330
70
330
6E
 75
           1
 76
           0
 52
0.0
 41
0.3
 77
           0
 78
           1
 53
0.0
 43
455.439735354765
 44
-325.508764189189
 45
0.0
 46
0.3
 79
           0
 98
        1
 10
0.0
 20
0.0
  0
HATCH
  5
192
100
AcDbEntity
  8
0
  6
CONTINUOUS
 62
           3
100
AcDbHatch
 10
0.0
 20
0.0
 30
0.0
210
0.0
220
0.0
230
1.0
  2
USER
 70
           0
 71
           1
 91
        2
 92
        1
 93
        8
 72
           1
 10
153.62971683021729
 20
-138.535885670596
 11
154.4723017826274
 21
-138.535885670596
 72
           1
 10
154.4723017826274
 20
-138.535885670596
 11
157.4414229346975
 21
-143.53514622267599
 72
           1
 10
157.4414229346975
 20
-143.53514622267599
 11
156.67495897564709
 21
-143.53514622267599
 72
           1
 10
156.67495897564709
 20
-143.53514622267599
 11
156.05359645618719
 21
-142.47874883167611
 72
           1
 10
156.05359645618719
 20
-142.47874883167611
 11
152.04855668473729
 21
-142.47874883167611
 72
           1
 10
152.04855668473729
 20
-142.47874883167611
 11
151.42699198208729
 21
-143.53514622267599
 72
           1
 10
151.42699198208729
 20
-143.53514622267599
 11
150.6604607589972
 21
-143.53514622267599
 72
           1
 10
150.6604607589972
 20
-143.53514622267599
 11
153.62971683021729
 21
-138.535885670596
 97
        8
330
64
330
5B
330
62
330
61
330
5D
330
60
330
5F
330
5A
 92
       16
 93
        3
 72
           1
 10
154.05107676599729
 20
-139.0882004797862
 11
155.72897081346741
 21
-141.92609731121601
 72
           1
 10
152.3729801442673
 20
-141.92609731121601
 11
154.05107676599729
 21
-139.0882004797862
 72
           1
 10
155.72897081346741
 20
-141.92609731121601
 11
152.3729801442673
 21
-141.92609731121601
 97
        3
330
58
330
59
330
5C
 75
           1
 76
           0
 52
0.0
 41
0.3
 77
           0
 78
           1
 53
0.0
 43
444.760066932193
 44
-328.247283258136
 45
0.0
 46
0.3
 79
           0
 98
        1
 10
0.0
 20
0.0
  0
HATCH
  5
191
100
AcDbEntity
  8
0
  6
CONTINUOUS
 62
           3
100
AcDbHatch
 10
0.0
 20
0.0
 30
0.0
210
0.0
220
0.0
230
1.0
  2
USER
 70
           0
 71
           1
 91
        1
 92
        1
 93
       10
 72
           1
 10
159.91744235948741
 20
-138.535885670596
 11
164.49561242301729
 21
-142.9276604310962
 72
           1
 10
164.49561242301729
 20
-142.9276604310962
 11
164.49561242301729
 21
-138.535885670596
 72
           1
 10
164.49561242301729
 20
-138.535885670596
 11
165.1722804529476
 21
-138.535885670596
 72
           1
 10
165.1722804529476
 20
-138.535885670596
 11
165.1722804529476
 21
-143.535145831606
 72
           1
 10
165.1722804529476
 20
-143.535145831606
 11
164.1641156803972
 21
-143.535145831606
 72
           1
 10
164.1641156803972
 20
-143.535145831606
 11
159.58601288090719
 21
-139.14350599025619
 72
           1
 10
159.58601288090719
 20
-139.14350599025619
 11
159.58601288090719
 21
-143.535145831606
 72
           1
 10
159.58601288090719
 20
-143.535145831606
 11
158.90921032289739
 21
-143.535145831606
 72
           1
 10
158.90921032289739
 20
-143.535145831606
 11
158.90921032289739
 21
-138.535885670596
 72
           1
 10
158.90921032289739
 20
-138.535885670596
 11
159.91744235948741
 21
-138.535885670596
 97
       10
330
54
330
69
330
6F
330
6A
330
6B
330
55
330
56
330
63
330
57
330
65
 75
           1
 76
           0
 52
0.0
 41
0.3
 77
           0
 78
           1
 53
0.0
 43
469.98900658108
 44
-327.208403005825
 45
0.0
 46
0.3
 79
           0
 98
        1
 10
0.0
 20
0.0
  0
HATCH
  5
190
100
AcDbEntity
  8
0
  6
CONTINUOUS
 62
           2
100
AcDbHatch
 10
0.0
 20
0.0
 30
0.0
210
0.0
220
0.0
230
1.0
  2
USER
 70
           0
 71
           1
 91
        1
 92
        1
 93
       12
 72
           1
 10
145.31084215819729
 20
-138.535885670596
 11
145.31084215819729
 21
-139.73731684607591
 72
           1
 10
145.31084215819729
 20
-139.73731684607591
 11
141.7339657673173
 21
-142.31950121697599
 72
           1
 10
141.7339657673173
 20
-142.31950121697599
 11
141.7339657673173
 21
-142.33391683931589
 72
           1
 10
141.7339657673173
 20
-142.33391683931589
 11
145.39369933230731
 21
-142.33391683931589
 72
           1
 10
145.39369933230731
 20
-142.33391683931589
 11
145.39369933230731
 21
-143.535145831606
 72
           1
 10
145.39369933230731
 20
-143.535145831606
 11
139.4621255538074
 21
-143.535145831606
 72
           1
 10
139.4621255538074
 20
-143.535145831606
 11
139.4621255538074
 21
-142.33391683931589
 72
           1
 10
139.4621255538074
 20
-142.33391683931589
 11
143.0460079637372
 21
-139.75132849310589
 72
           1
 10
143.0460079637372
 20
-139.75132849310589
 11
143.0460079637372
 21
-139.73731684607591
 72
           1
 10
143.0460079637372
 20
-139.73731684607591
 11
139.55885984686731
 21
-139.73731684607591
 72
           1
 10
139.55885984686731
 20
-139.73731684607591
 11
139.55885984686731
 21
-138.535885670596
 72
           1
 10
139.55885984686731
 20
-138.535885670596
 11
145.31084215819729
 21
-138.535885670596
 97
       12
330
52
330
44
330
4A
330
49
330
4B
330
46
330
48
330
45
330
51
330
4C
330
50
330
4D
 75
           1
 76
           0
 52
0.0
 41
0.2
 77
           0
 78
           1
 53
0.0
 43
0.0
 44
0.0
 45
0.0
 46
0.2
 79
           0
 98
        1
 10
0.0
 20
0.0
  0
HATCH
  5
18F
100
AcDbEntity
  8
0
  6
CONTINUOUS
 62
           2
100
AcDbHatch
 10
0.0
 20
0.0
 30
0.0
210
0.0
220
0.0
230
1.0
  2
USER
 70
           0
 71
           1
 91
        1
 92
        1
 93
       12
 72
           1
 10
135.8878763711873
 20
-139.75132849310589
 11
135.8878763711873
 21
-139.73731684607591
 72
           1
 10
135.8878763711873
 20
-139.73731684607591
 11
132.4005264621974
 21
-139.73731684607591
 72
           1
 10
132.4005264621974
 20
-139.73731684607591
 11
132.4005264621974
 21
-138.535885670596
 72
           1
 10
132.4005264621974
 20
-138.535885670596
 11
138.15271056564731
 21
-138.535885670596
 72
           1
 10
138.15271056564731
 20
-138.535885670596
 11
138.15271056564731
 21
-139.73731684607591
 72
           1
 10
138.15271056564731
 20
-139.73731684607591
 11
134.57583417476721
 21
-142.31950121697599
 72
           1
 10
134.57583417476721
 20
-142.31950121697599
 11
134.57583417476721
 21
-142.33391683931589
 72
           1
 10
134.57583417476721
 20
-142.33391683931589
 11
138.23556773975741
 21
-142.33391683931589
 72
           1
 10
138.23556773975741
 20
-142.33391683931589
 11
138.23556773975741
 21
-143.535145831606
 72
           1
 10
138.23556773975741
 20
-143.535145831606
 11
132.30399435232721
 21
-143.535145831606
 72
           1
 10
132.30399435232721
 20
-143.535145831606
 11
132.30399435232721
 21
-142.33391683931589
 72
           1
 10
132.30399435232721
 20
-142.33391683931589
 11
135.8878763711873
 21
-139.75132849310589
 97
       12
330
4F
330
3B
330
43
330
3D
330
4E
330
3E
330
42
330
3F
330
47
330
40
330
41
330
3C
 75
           1
 76
           0
 52
0.0
 41
0.2
 77
           0
 78
           1
 53
0.0
 43
0.0
 44
0.0
 45
0.0
 46
0.2
 79
           0
 98
        1
 10
0.0
 20
0.0
  0
HATCH
  5
18E
100
AcDbEntity
  8
0
  6
CONTINUOUS
 62
           4
100
AcDbHatch
 10
0.0
 20
0.0
 30
0.0
210
0.0
220
0.0
230
1.0
  2
USER
 70
           0
 71
           1
 91
        1
 92
        1
 93
        4
 72
           1
 10
158.5140096993226
 20
-133.49932518703719
 11
157.97779265740971
 21
-135.0565388469762
 72
           2
 10
156.17415432817799
 20
-142.27261272836989
 40
7.438066515191033
 50
75.966597347068
 51
-150.081834826501
 73
           1
 72
           1
 10
149.72729449571821
 20
-145.98244180597479
 11
149.06005144877841
 21
-147.9198791195922
 72
           2
 10
156.17649300467471
 20
-142.27610772349121
 40
9.0827251411656125
 50
75.086616427322
 51
-141.583441934091
 73
           1
 97
        4
330
66
330
15E
330
5E
330
15F
 75
           1
 76
           0
 52
0.0
 41
0.15
 77
           0
 78
           1
 53
0.0
 43
0.0
 44
0.0
 45
0.0
 46
0.15
 79
           0
 98
        1
 10
0.0
 20
0.0
  0
HATCH
  5
18D
100
AcDbEntity
  8
0
  6
CONTINUOUS
 62
           1
100
AcDbHatch
 10
0.0
 20
0.0
 30
0.0
210
0.0
220
0.0
230
1.0
  2
USER
 70
           0
 71
           1
 91
        1
 92
        1
 93
        4
 72
           1
 10
152.54817571735711
 20
-131.32150847256091
 11
153.21201865726181
 21
-131.55010860831939
 72
           2
 10
145.56863148102599
 20
-127.6103763550903
 40
8.5990032999753492
 50
-111.215954643911
 51
-27.268535966438
 73
           1
 72
           1
 10
142.4567882923125
 20
-135.6265655820138
 11
142.6827656376195
 21
-134.9701135142549
 72
           2
 10
145.56692182288751
 20
-127.6067695548124
 40
7.9080459764772559
 50
-111.389835812798
 51
-28.017530678762
 73
           1
 97
        4
330
8F
330
15C
330
53
330
15D
 75
           1
 76
           0
 52
20.0
 41
0.2
 77
           0
 78
           1
 53
20.0
 43
438.579971957639
 44
-322.79498074093
 45
-0.0684040286651337
 46
0.1879385241571817
 79
           0
 98
        1
 10
0.0
 20
0.0
  0
HATCH
  5
18C
100
AcDbEntity
  8
0
  6
CONTINUOUS
 62
           3
100
AcDbHatch
 10
0.0
 20
0.0
 30
0.0
210
0.0
220
0.0
230
1.0
  2
USER
 70
           0
 71
           1
 91
        3
 92
        1
 93
       27
 72
           1
 10
197.2989606059962
 20
-143.5356537348199
 11
193.0330672326987
 21
-143.5351465181746
 72
           1
 10
193.0330672326987
 20
-143.5351465181746
 11
193.03306867587739
 21
-138.535885806896
 72
           1
 10
197.65402717513501
 20
-143.51961300844329
 11
197.2989606059962
 21
-143.5356537348199
 72
           1
 10
198.00279083156019
 20
-143.45047863392099
 11
197.65402717513501
 21
-143.51961300844329
 72
           1
 10
198.3298336811001
 20
-143.311370739691
 11
198.00279083156019
 21
-143.45047863392099
 72
           1
 10
198.6039246047913
 20
-143.08379829544231
 11
198.3298336811001
 21
-143.311370739691
 72
           1
 10
198.7719177410064
 20
-142.77196075662749
 11
198.6039246047913
 21
-143.08379829544231
 72
           1
 10
198.81893224849139
 20
-142.41782284149389
 11
198.7719177410064
 21
-142.77196075662749
 72
           1
 10
198.8177835519727
 20
-142.06262946819501
 11
198.81893224849139
 21
-142.41782284149389
 72
           1
 10
198.80857160262511
 20
-141.707148920766
 11
198.8177835519727
 21
-142.06262946819501
 72
           1
 10
198.7162656324324
 20
-141.36402804950839
 11
198.80857160262511
 21
-141.707148920766
 72
           1
 10
198.4913225097601
 20
-141.0908844274922
 11
198.7162656324324
 21
-141.36402804950839
 72
           1
 10
198.1689192007002
 20
-140.94353426279261
 11
198.4913225097601
 21
-141.0908844274922
 72
           1
 10
197.81557199094249
 20
-140.8905830007607
 11
198.1689192007002
 21
-140.94353426279261
 72
           1
 10
197.81557199094249
 20
-140.8632333488784
 11
197.81557199094249
 21
-140.8905830007607
 72
           1
 10
198.13573380584131
 20
-140.7909030777372
 11
197.81557199094249
 21
-140.8632333488784
 72
           1
 10
198.41317385119751
 20
-140.61671518530079
 11
198.13573380584131
 21
-140.7909030777372
 72
           1
 10
198.57883975810381
 20
-140.33858517612589
 11
198.41317385119751
 21
-140.61671518530079
 72
           1
 10
198.62060308150629
 20
-140.0086631262223
 11
198.57883975810381
 21
-140.33858517612589
 72
           1
 10
198.6289274017274
 20
-139.67581712154609
 11
198.62060308150629
 21
-140.0086631262223
 72
           1
 10
198.59212435874369
 20
-139.35050104631591
 11
198.6289274017274
 21
-139.67581712154609
 72
           1
 10
198.46397756537741
 20
-139.03972269519991
 11
198.59212435874369
 21
-139.35050104631591
 72
           1
 10
198.2473214675837
 20
-138.78782249969629
 11
198.46397756537741
 21
-139.03972269519991
 72
           1
 10
197.95768584556001
 20
-138.63235686868839
 11
198.2473214675837
 21
-138.78782249969629
 72
           1
 10
197.63294038905499
 20
-138.55774380849999
 11
197.95768584556001
 21
-138.63235686868839
 72
           1
 10
197.30464441604019
 20
-138.53482955068719
 11
197.63294038905499
 21
-138.55774380849999
 72
           1
 10
193.03306867587739
 20
-138.535885806896
 11
197.30464441604019
 21
-138.53482955068719
 97
       26
330
16B
330
11F
330
11E
330
11D
330
11C
330
11B
330
11A
330
119
330
118
330
117
330
116
330
115
330
16A
330
8E
330
169
330
15A
330
159
330
158
330
157
330
156
330
155
330
154
330
153
330
152
330
151
330
168
 92
       16
 93
       10
 72
           1
 10
193.70679202314139
 20
-140.682968155682
 11
196.8912479328101
 21
-140.68694604286341
 72
           1
 10
196.8912479328101
 20
-140.68694604286341
 11
197.28986054267239
 21
-140.67878582214479
 72
           1
 10
197.28986054267239
 20
-140.67878582214479
 11
197.67533773326269
 21
-140.58440250143229
 72
           1
 10
197.67533773326269
 20
-140.58440250143229
 11
197.91927164382389
 21
-140.27590289568101
 72
           1
 10
197.91927164382389
 20
-140.27590289568101
 11
197.94706413230239
 21
-139.88027764267139
 72
           1
 10
197.94706413230239
 20
-139.88027764267139
 11
197.93119123496379
 21
-139.48049022955129
 72
           1
 10
197.93119123496379
 20
-139.48049022955129
 11
197.67759037188881
 21
-139.1817769214075
 72
           1
 10
197.67759037188881
 20
-139.1817769214075
 11
197.2894726711213
 21
-139.0905562456536
 72
           1
 10
197.2894726711213
 20
-139.0905562456536
 11
193.70679202314139
 21
-139.08820052349381
 72
           1
 10
193.70679202314139
 20
-140.682968155682
 11
193.70679202314139
 21
-139.08820052349381
 97
        2
330
166
330
8D
 92
       16
 93
       19
 72
           1
 10
193.70679265860889
 20
-141.23575445198259
 11
193.70679202314139
 21
-142.98235982405751
 72
           1
 10
193.70679202314139
 20
-142.98235982405751
 11
197.05645883655001
 21
-142.9836565740035
 72
           1
 10
197.05645883655001
 20
-142.9836565740035
 11
197.47513634013501
 21
-142.9738814649981
 72
           1
 10
197.47513634013501
 20
-142.9738814649981
 11
197.87637454204
 21
-142.86311430076719
 72
           1
 10
197.87637454204
 20
-142.86311430076719
 11
198.1171010532326
 21
-142.5307158401888
 72
           1
 10
198.1171010532326
 20
-142.5307158401888
 11
198.13997055663509
 21
-142.11301920408479
 72
           1
 10
198.13997055663509
 20
-142.11301920408479
 11
198.11375193156641
 21
-141.69504285291839
 72
           1
 10
198.11375193156641
 20
-141.69504285291839
 11
197.88486296176251
 21
-141.3594369929711
 72
           1
 10
197.88486296176251
 20
-141.3594369929711
 11
197.47342075442629
 21
-141.2448246790336
 72
           1
 10
197.47342075442629
 20
-141.2448246790336
 11
197.05470595550011
 21
-141.23095827106621
 72
           1
 10
197.05470595550011
 20
-141.23095827106621
 11
196.6386615030224
 21
-141.23829426473731
 72
           1
 10
196.6386615030224
 20
-141.23829426473731
 11
196.21946932372501
 21
-141.23688450083
 72
           1
 10
196.21946932372501
 20
-141.23688450083
 11
195.80009812678739
 21
-141.23496006120851
 72
           1
 10
195.80009812678739
 20
-141.23496006120851
 11
195.38153250922511
 21
-141.23540014623879
 72
           1
 10
195.38153250922511
 20
-141.23540014623879
 11
194.96298180980119
 21
-141.2358849856771
 72
           1
 10
194.96298180980119
 20
-141.2358849856771
 11
194.5442222564638
 21
-141.23574699291319
 72
           1
 10
194.5442222564638
 20
-141.23574699291319
 11
194.12549999846891
 21
-141.2357432633797
 72
           1
 10
194.12549999846891
 20
-141.2357432633797
 11
193.70679265860889
 21
-141.23575445198259
 72
           1
 10
193.70679265860889
 20
-141.23575445198259
 11
193.70679265860889
 21
-141.23575445198259
 97
        1
330
167
 75
           1
 76
           0
 52
0.0
 41
0.3
 77
           0
 78
           1
 53
0.0
 43
478.378850264612
 44
-326.102403568464
 45
0.0
 46
0.3
 79
           0
 98
        1
 10
0.0
 20
0.0
  0
HATCH
  5
18B
100
AcDbEntity
  8
0
  6
CONTINUOUS
 62
           3
100
AcDbHatch
 10
0.0
 20
0.0
 30
0.0
210
0.0
220
0.0
230
1.0
  2
USER
 70
           0
 71
           1
 91
        2
 92
        1
 93
       66
 72
           1
 10
173.86643835706181
 20
-143.53514613772339
 11
173.86643835706181
 21
-138.53588575554829
 72
           1
 10
174.5430391046205
 20
-143.53514613772339
 11
173.86643835706181
 21
-143.53514613772339
 72
           1
 10
174.5430391046205
 20
-141.56004319881359
 11
174.5430391046205
 21
-143.53514613772339
 72
           1
 10
177.76885970324869
 20
-141.55775497135329
 11
174.5430391046205
 21
-141.56004319881359
 72
           1
 10
178.01706393040999
 20
-141.56355812648999
 11
177.76885970324869
 21
-141.55775497135329
 72
           1
 10
178.2637614257755
 20
-141.58843411926489
 11
178.01706393040999
 21
-141.56355812648999
 72
           1
 10
178.50118356971149
 20
-141.66360660957491
 11
178.2637614257755
 21
-141.58843411926489
 72
           1
 10
178.6899427520695
 20
-141.8240064142621
 11
178.50118356971149
 21
-141.66360660957491
 72
           1
 10
178.79411609992391
 20
-142.04886748718491
 11
178.6899427520695
 21
-141.8240064142621
 72
           1
 10
178.83188136271829
 20
-142.29407689842361
 11
178.79411609992391
 21
-142.04886748718491
 72
           1
 10
178.83925092219729
 20
-142.5427622354911
 11
178.83188136271829
 21
-142.29407689842361
 72
           1
 10
178.83864300813079
 20
-142.79082846988851
 11
178.83925092219729
 21
-142.5427622354911
 72
           1
 10
178.83726681002969
 20
-143.03879773639869
 11
178.83864300813079
 21
-142.79082846988851
 72
           1
 10
178.83744955720289
 20
-143.28696466821879
 11
178.83726681002969
 21
-143.03879773639869
 72
           1
 10
178.837744190401
 20
-143.5351465181746
 11
178.83744955720289
 21
-143.28696466821879
 72
           1
 10
179.47352906541229
 20
-143.42337237972481
 11
179.47338734311461
 21
-143.5351465181746
 72
           1
 10
179.47338734311461
 20
-143.5351465181746
 11
178.837744190401
 21
-143.5351465181746
 72
           1
 10
179.47355517215121
 20
-143.3115609459322
 11
179.47352906541229
 21
-143.42337237972481
 72
           1
 10
179.4733575068413
 20
-143.19967119192381
 11
179.47355517215121
 21
-143.3115609459322
 72
           1
 10
179.47289504460699
 20
-143.08768819955981
 11
179.4733575068413
 21
-143.19967119192381
 72
           1
 10
179.47235799168951
 20
-142.97567910045851
 11
179.47289504460699
 21
-143.08768819955981
 72
           1
 10
179.4719887678088
 20
-142.8637296739023
 11
179.47235799168951
 21
-142.97567910045851
 72
           1
 10
179.4720148745478
 20
-142.751914510576
 11
179.4719887678088
 21
-142.8637296739023
 72
           1
 10
179.47267873162639
 20
-142.64032311929881
 11
179.4720148745478
 21
-142.751914510576
 72
           1
 10
179.4741742748202
 20
-142.529022631685
 11
179.47267873162639
 21
-142.64032311929881
 72
           1
 10
179.47568846568461
 20
-142.41773333267349
 11
179.4741742748202
 21
-142.529022631685
 72
           1
 10
179.47526702832579
 20
-142.3057764470496
 11
179.47568846568461
 21
-142.41773333267349
 72
           1
 10
179.47088482570049
 20
-142.19249930633731
 11
179.47526702832579
 21
-142.3057764470496
 72
           1
 10
179.4602743010461
 20
-142.07854339040969
 11
179.47088482570049
 21
-142.19249930633731
 72
           1
 10
179.44083223952649
 20
-141.96620236276871
 11
179.4602743010461
 21
-142.07854339040969
 72
           1
 10
179.40995542630549
 20
-141.85787804340501
 11
179.44083223952649
 21
-141.96620236276871
 72
           1
 10
179.36502199887619
 20
-141.75596479324511
 11
179.40995542630549
 21
-141.85787804340501
 72
           1
 10
179.30367489165681
 20
-141.66284578460849
 11
179.36502199887619
 21
-141.75596479324511
 72
           1
 10
179.22712620324489
 20
-141.58066177009749
 11
179.30367489165681
 21
-141.66284578460849
 72
           1
 10
179.13909054965379
 20
-141.5111022286811
 11
179.22712620324489
 21
-141.58066177009749
 72
           1
 10
179.04274176444429
 20
-141.45378301834219
 11
179.13909054965379
 21
-141.5111022286811
 72
           1
 10
178.94089937543271
 20
-141.40751068815339
 11
179.04274176444429
 21
-141.45378301834219
 72
           1
 10
178.835223025316
 20
-141.37168851265079
 11
178.94089937543271
 21
-141.40751068815339
 72
           1
 10
178.7269285422266
 20
-141.34329556917339
 11
178.835223025316
 21
-141.37168851265079
 72
           1
 10
178.61732872218479
 20
-141.31861351217489
 11
178.7269285422266
 21
-141.34329556917339
 72
           1
 10
178.81807089776399
 20
-141.2770180178087
 11
178.61732872218479
 21
-141.30500444206339
 72
           1
 10
178.61732872218479
 20
-141.30500444206339
 11
178.61732872218479
 21
-141.31861351217489
 72
           1
 10
179.01468447904
 20
-141.22370805668109
 11
178.81807089776399
 21
-141.2770180178087
 72
           1
 10
179.1971892326296
 20
-141.1336025116361
 11
179.01468447904
 21
-141.22370805668109
 72
           1
 10
179.34681814269439
 20
-140.99527409004389
 11
179.1971892326296
 21
-141.1336025116361
 72
           1
 10
179.4538744204462
 20
-140.81887831339139
 11
179.34681814269439
 21
-140.99527409004389
 72
           1
 10
179.51366258239139
 20
-140.6240064245622
 11
179.4538744204462
 21
-140.81887831339139
 72
           1
 10
179.53437268552179
 20
-140.4221603068749
 11
179.51366258239139
 21
-140.6240064245622
 72
           1
 10
179.5356295385302
 20
-140.2176177359984
 11
179.53437268552179
 21
-140.4221603068749
 72
           1
 10
179.53484633635901
 20
-140.01391431030481
 11
179.5356295385302
 21
-140.2176177359984
 72
           1
 10
179.53229906453501
 20
-139.8113819583335
 11
179.53484633635901
 21
-140.01391431030481
 72
           1
 10
179.52135661134139
 20
-139.60907337841229
 11
179.53229906453501
 21
-139.8113819583335
 72
           1
 10
179.4948023281992
 20
-139.4068356596386
 11
179.52135661134139
 21
-139.60907337841229
 72
           1
 10
179.44112687272411
 20
-139.21067335199481
 11
179.4948023281992
 21
-139.4068356596386
 72
           1
 10
179.34788105992681
 20
-139.029414262811
 11
179.44112687272411
 21
-139.21067335199481
 72
           1
 10
179.21553854064359
 20
-138.8723039072438
 11
179.34788105992681
 21
-139.029414262811
 72
           1
 10
179.0533560186326
 20
-138.74877427715469
 11
179.21553854064359
 21
-138.8723039072438
 72
           1
 10
178.87002703799601
 20
-138.6624691274084
 11
179.0533560186326
 21
-138.74877427715469
 72
           1
 10
178.67287640380269
 20
-138.60629861358871
 11
178.87002703799601
 21
-138.6624691274084
 72
           1
 10
178.46909838742619
 20
-138.57200181755229
 11
178.67287640380269
 21
-138.60629861358871
 72
           1
 10
178.26524205083251
 20
-138.55173179945089
 11
178.46909838742619
 21
-138.57200181755229
 72
           1
 10
178.06279174861299
 20
-138.54088631414609
 11
178.26524205083251
 21
-138.55173179945089
 72
           1
 10
177.86077034282101
 20
-138.5364257913036
 11
178.06279174861299
 21
-138.54088631414609
 72
           1
 10
177.6582752861917
 20
-138.5354262761509
 11
177.86077034282101
 21
-138.5364257913036
 72
           1
 10
177.45528201071659
 20
-138.53588575554829
 11
177.6582752861917
 21
-138.5354262761509
 72
           1
 10
173.86643835706181
 20
-138.53588575554829
 11
177.45528201071659
 21
-138.53588575554829
 97
       64
330
7E
330
7F
330
7D
330
165
330
BE
330
BD
330
BC
330
BB
330
BA
330
B9
330
B8
330
B7
330
B6
330
B5
330
B4
330
164
330
B2
330
B1
330
B0
330
AF
330
AE
330
AD
330
AC
330
AB
330
AA
330
A9
330
A8
330
A7
330
A6
330
A5
330
A4
330
A3
330
A2
330
A1
330
A0
330
9F
330
9E
330
9D
330
9C
330
163
330
FA
330
F9
330
F8
330
F7
330
F6
330
F5
330
F4
330
F3
330
F2
330
F1
330
F0
330
EF
330
EE
330
ED
330
EC
330
EB
330
EA
330
E9
330
E8
330
E7
330
E6
330
E5
330
162
330
82
 92
       16
 93
       12
 72
           1
 10
177.85067076434501
 20
-141.00718995164991
 11
174.5430391046205
 21
-141.00806524924221
 72
           1
 10
178.26211670121549
 20
-140.97083445276479
 11
177.85067076434501
 21
-141.00718995164991
 72
           1
 10
178.64355107678779
 20
-140.8120122410225
 11
178.26211670121549
 21
-140.97083445276479
 72
           1
 10
178.84467739438409
 20
-140.45867990526349
 11
178.64355107678779
 21
-140.8120122410225
 72
           1
 10
178.85835359610911
 20
-140.04549600547969
 11
178.84467739438409
 21
-140.45867990526349
 72
           1
 10
178.8475118403376
 20
-139.6287541301171
 11
178.85835359610911
 21
-140.04549600547969
 72
           1
 10
178.65053649424911
 20
-139.27395235790479
 11
178.8475118403376
 21
-139.6287541301171
 72
           1
 10
178.26565975865719
 20
-139.12748982233219
 11
178.65053649424911
 21
-139.27395235790479
 72
           1
 10
177.85007403888099
 20
-139.09202568210739
 11
178.26565975865719
 21
-139.12748982233219
 72
           1
 10
177.43703559092859
 20
-139.08825512308229
 11
177.85007403888099
 21
-139.09202568210739
 72
           1
 10
174.5430391046205
 20
-139.08820052349381
 11
177.43703559092859
 21
-139.08825512308229
 72
           1
 10
174.5430391046205
 20
-141.00806524924221
 11
174.5430391046205
 21
-139.08820052349381
 97
       12
330
161
330
DB
330
DA
330
D9
330
D8
330
D7
330
D6
330
D5
330
D4
330
D3
330
160
330
83
 75
           1
 76
           0
 52
0.0
 41
0.3
 77
           0
 78
           1
 53
0.0
 43
463.014737656294
 44
-326.933005700425
 45
0.0
 46
0.3
 79
           0
 98
        1
 10
0.0
 20
0.0
  0
TEXT
  5
18A
100
AcDbEntity
  8
1
 62
           3
100
AcDbText
 10
-166.158837714114
 20
-169.917954070049
 40
2.5
  1
Schutzvermerk DIN ISO 16016 / DIN 34
 41
0.855
  7
CONVERTER_4
100
AcDbText
  0
TEXT
  5
188
100
AcDbEntity
  8
1
 62
           3
100
AcDbText
 10
173.841162285886
 20
-110.917954070049
 40
3.0
  1
DIN 332/2-DS
 41
0.9
  7
CONVERTER_3
100
AcDbText
  0
TEXT
  5
187
100
AcDbEntity
  8
1
 62
           3
100
AcDbText
 10
173.841162285886
 20
-97.917954070049
 40
3.0
  1
DIN 6885/1
 41
0.9
  7
CONVERTER_3
100
AcDbText
  0
TEXT
  5
186
100
AcDbEntity
  8
1
 62
           3
100
AcDbText
 10
173.841162285886
 20
-58.917954070049
 40
3.0
  1
1:1,25
 41
0.9
  7
CONVERTER_3
100
AcDbText
  0
TEXT
  5
185
100
AcDbEntity
  8
1
 62
           3
100
AcDbText
 10
173.841162285886
 20
-123.917954070049
 40
3.0
  1
ca. 5kg
 41
0.9
  7
CONVERTER_3
100
AcDbText
  0
TEXT
  5
184
100
AcDbEntity
  8
1
 62
           3
100
AcDbText
 10
173.841162285886
 20
-74.667954070049
 40
3.0
  1
Solid shaft
 41
0.765
  7
CONVERTER_1
100
AcDbText
  0
TEXT
  5
183
100
AcDbEntity
  8
1
 62
           3
100
AcDbText
 10
173.841162285886
 20
-69.167954070049
 40
3.0
  1
Vollwelle
 41
0.9
  7
CONVERTER_3
100
AcDbText
  0
TEXT
  5
182
100
AcDbEntity
  8
1
 62
           3
100
AcDbText
 10
173.841162285886
 20
-82.167954070049
 40
3.0
  1
Palloid spiralverzahnt
 41
0.9
  7
CONVERTER_3
100
AcDbText
  0
TEXT
  5
181
100
AcDbEntity
  8
1
 62
           3
100
AcDbText
 10
173.841162285886
 20
-87.667954070049
 40
3.0
  1
Palloid spiral gears
 41
0.765
  7
CONVERTER_1
100
AcDbText
  0
TEXT
  5
180
100
AcDbEntity
  8
1
 62
           3
100
AcDbText
 10
115.841162285885
 20
-121.167954070049
 40
3.0
  1
Gewicht:
 41
0.9
  7
CONVERTER_3
100
AcDbText
  0
TEXT
  5
17F
100
AcDbEntity
  8
1
 62
           3
100
AcDbText
 10
115.841162285885
 20
-126.667954070049
 40
3.0
  1
Weight:
 41
0.765
  7
CONVERTER_1
100
AcDbText
  0
TEXT
  5
17E
100
AcDbEntity
  8
1
 62
           3
100
AcDbText
 10
115.841162285885
 20
-113.667954070049
 40
3.0
  1
Centre thread:
 41
0.765
  7
CONVERTER_1
100
AcDbText
  0
TEXT
  5
17D
100
AcDbEntity
  8
1
 62
           3
100
AcDbText
 10
115.841162285885
 20
-108.167954070049
 40
3.0
  1
Wellenzentrierung:
 41
0.9
  7
CONVERTER_3
100
AcDbText
  0
TEXT
  5
17C
100
AcDbEntity
  8
1
 62
           3
100
AcDbText
 10
115.841162285885
 20
-95.167954070049
 40
3.0
  1
Paßfedermaße:
 41
0.9
  7
CONVERTER_3
100
AcDbText
  0
TEXT
  5
17B
100
AcDbEntity
  8
1
 62
           3
100
AcDbText
 10
115.841162285885
 20
-100.667954070049
 40
3.0
  1
Feather key dimensions:
 41
0.765
  7
CONVERTER_1
100
AcDbText
  0
TEXT
  5
17A
100
AcDbEntity
  8
1
 62
           3
100
AcDbText
 10
115.841162285885
 20
-87.667954070049
 40
3.0
  1
Gear teeth:
 41
0.765
  7
CONVERTER_1
100
AcDbText
  0
TEXT
  5
179
100
AcDbEntity
  8
1
 62
           3
100
AcDbText
 10
115.841162285885
 20
-82.167954070049
 40
3.0
  1
Verzahnung:
 41
0.9
  7
CONVERTER_3
100
AcDbText
  0
TEXT
  5
178
100
AcDbEntity
  8
1
 62
           3
100
AcDbText
 10
115.841162285885
 20
-69.167954070049
 40
3.0
  1
Wellenausführung:
 41
0.9
  7
CONVERTER_3
100
AcDbText
  0
TEXT
  5
177
100
AcDbEntity
  8
1
 62
           3
100
AcDbText
 10
115.841162285885
 20
-74.667954070049
 40
3.0
  1
Shaft configuration:
 41
0.765
  7
CONVERTER_1
100
AcDbText
  0
TEXT
  5
176
100
AcDbEntity
  8
1
 62
           3
100
AcDbText
 10
115.841162285885
 20
-61.667954070049
 40
3.0
  1
Transmission ratio:
 41
0.765
  7
CONVERTER_1
100
AcDbText
  0
TEXT
  5
175
100
AcDbEntity
  8
1
 62
           3
100
AcDbText
 10
115.841162285885
 20
-56.167954070049
 40
3.0
  1
Übersetzung:
 41
0.9
  7
CONVERTER_3
100
AcDbText
  0
TEXT
  5
174
100
AcDbEntity
  8
1
 62
           7
100
AcDbText
 10
173.841162285886
 20
-43.917954070049
 40
4.5
  1
K080
 41
0.9
  7
CONVERTER_3
100
AcDbText
  0
TEXT
  5
173
100
AcDbEntity
  8
1
 62
           7
100
AcDbText
 10
115.841162285885
 20
-40.917954070049
 40
4.0
  1
Kegelradgetriebe:
 41
0.9
  7
CONVERTER_3
100
AcDbText
  0
MTEXT
  5
172
100
AcDbEntity
  8
1
 62
           3
100
AcDbMText
 10
173.841162285886
 20
-166.917954070049
 30
0.0
 40
2.5
 41
0.0
 71
           7
 72
           1
  1
Tel.: +49-(0)721-6205-0\Pwww.zz-antriebe.de\Pinfo@zz-antriebe.de
  7
CONVERTER_3
  0
MTEXT
  5
171
100
AcDbEntity
  8
1
 62
           3
100
AcDbMText
 10
115.841162285885
 20
-166.917954070049
 30
0.0
 40
2.5
 41
0.0
 71
           7
 72
           1
  1
ZZ-Antriebe GmbH\PAn der Tagweide 12\PD-76139 Karlsruhe
  7
CONVERTER_3
  0
TEXT
  5
16F
100
AcDbEntity
  8
1
 62
           3
100
AcDbText
 10
-11.158837714115
 20
-169.917954070049
 40
2.5
  1
Maße und Darstellung unverbindlich, Änderungen vorbehalten.
 41
0.792
  7
CONVERTER_2
100
AcDbText
  0
TEXT
  5
16D
100
AcDbEntity
  8
1
 62
           7
100
AcDbText
 10
115.841162285885
 20
-46.917954070049
 40
3.0
  1
Bevel Gearbox:
 41
0.765
  7
CONVERTER_1
100
AcDbText
  0
LWPOLYLINE
  5
16B
100
AcDbEntity
  8
1
  6
CONTINUOUS
 62
           3
 60
           1
100
AcDbPolyline
 90
        3
 70
           0
 10
197.298960605996
 20
-143.53565373482
 10
193.033067232699
 20
-143.535146518175
 10
193.033068675877
 20
-138.535885806896
  0
LWPOLYLINE
  5
16A
100
AcDbEntity
  8
1
  6
CONTINUOUS
 62
           3
 60
           1
100
AcDbPolyline
 90
        2
 70
           0
 10
197.815571990942
 20
-140.890583000761
 10
198.1689192007
 20
-140.943534262793
  0
LWPOLYLINE
  5
169
100
AcDbEntity
  8
1
  6
CONTINUOUS
 62
           3
 60
           1
100
AcDbPolyline
 90
        2
 70
           0
 10
198.135733805841
 20
-140.790903077737
 10
197.815571990942
 20
-140.863233348878
  0
LWPOLYLINE
  5
168
100
AcDbEntity
  8
1
  6
CONTINUOUS
 62
           3
 60
           1
100
AcDbPolyline
 90
        2
 70
           0
 10
193.033068675877
 20
-138.535885806896
 10
197.30464441604
 20
-138.534829550687
  0
LWPOLYLINE
  5
167
100
AcDbEntity
  8
1
  6
CONTINUOUS
 62
           3
 60
           1
100
AcDbPolyline
 90
       19
 70
           1
 10
193.706792658609
 20
-141.235754451983
 10
193.706792023141
 20
-142.982359824058
 10
197.05645883655
 20
-142.983656574004
 10
197.475136340135
 20
-142.973881464998
 10
197.87637454204
 20
-142.863114300767
 10
198.117101053233
 20
-142.530715840189
 10
198.139970556635
 20
-142.113019204085
 10
198.113751931566
 20
-141.695042852918
 10
197.884862961763
 20
-141.359436992971
 10
197.473420754426
 20
-141.244824679034
 10
197.0547059555
 20
-141.230958271066
 10
196.638661503022
 20
-141.238294264737
 10
196.219469323725
 20
-141.23688450083
 10
195.800098126787
 20
-141.234960061209
 10
195.381532509225
 20
-141.235400146239
 10
194.962981809801
 20
-141.235884985677
 10
194.544222256464
 20
-141.235746992913
 10
194.125499998469
 20
-141.23574326338
 10
193.706792658609
 20
-141.235754451983
  0
LWPOLYLINE
  5
166
100
AcDbEntity
  8
1
  6
CONTINUOUS
 62
           3
 60
           1
100
AcDbPolyline
 90
       10
 70
           0
 10
193.706792023141
 20
-140.682968155682
 10
196.89124793281
 20
-140.686946042863
 10
197.289860542672
 20
-140.678785822145
 10
197.675337733263
 20
-140.584402501432
 10
197.919271643824
 20
-140.275902895681
 10
197.947064132302
 20
-139.880277642671
 10
197.931191234964
 20
-139.480490229551
 10
197.677590371889
 20
-139.181776921408
 10
197.289472671121
 20
-139.090556245654
 10
193.706792023141
 20
-139.088200523494
  0
LWPOLYLINE
  5
165
100
AcDbEntity
  8
1
  6
CONTINUOUS
 62
           3
 60
           1
100
AcDbPolyline
 90
        2
 70
           0
 10
177.768859703249
 20
-141.557754971353
 10
174.543039104621
 20
-141.560043198814
  0
LWPOLYLINE
  5
164
100
AcDbEntity
  8
1
  6
CONTINUOUS
 62
           3
 60
           1
100
AcDbPolyline
 90
        3
 70
           0
 10
179.473529065412
 20
-143.423372379725
 10
179.473387343115
 20
-143.535146518175
 10
178.837744190401
 20
-143.535146518175
  0
LWPOLYLINE
  5
163
100
AcDbEntity
  8
1
  6
CONTINUOUS
 62
           3
 60
           1
100
AcDbPolyline
 90
        3
 70
           0
 10
178.818070897764
 20
-141.277018017809
 10
178.617328722185
 20
-141.305004442063
 10
178.617328722185
 20
-141.318613512175
  0
LWPOLYLINE
  5
162
100
AcDbEntity
  8
1
  6
CONTINUOUS
 62
           3
 60
           1
100
AcDbPolyline
 90
        2
 70
           0
 10
177.455282010717
 20
-138.535885755548
 10
177.658275286192
 20
-138.535426276151
  0
LWPOLYLINE
  5
161
100
AcDbEntity
  8
1
  6
CONTINUOUS
 62
           3
 60
           1
100
AcDbPolyline
 90
        2
 70
           0
 10
177.850670764345
 20
-141.00718995165
 10
174.543039104621
 20
-141.008065249242
  0
LWPOLYLINE
  5
160
100
AcDbEntity
  8
1
  6
CONTINUOUS
 62
           3
 60
           1
100
AcDbPolyline
 90
        2
 70
           0
 10
174.543039104621
 20
-139.088200523494
 10
177.437035590929
 20
-139.088255123082
  0
ARC
  5
15F
100
AcDbEntity
  8
KONTUR
  6
CONTINUOUS
 62
           4
100
AcDbCircle
 10
156.176493004675
 20
-142.276107723491
 40
9.082725141166
100
AcDbArc
 50
75.086616427322
 51
-141.583441934091
  0
ARC
  5
15E
100
AcDbEntity
  8
KONTUR
  6
CONTINUOUS
 62
           4
100
AcDbCircle
 10
156.174154328178
 20
-142.27261272837
 40
7.438066515191
100
AcDbArc
 50
75.966597347068
 51
-150.081834826501
  0
ARC
  5
15D
100
AcDbEntity
  8
KONTUR
  6
CONTINUOUS
 62
           1
100
AcDbCircle
 10
145.566921822888
 20
-127.606769554812
 40
7.908045976477
100
AcDbArc
 50
-111.389835812798
 51
-28.017530678762
  0
ARC
  5
15C
100
AcDbEntity
  8
KONTUR
  6
CONTINUOUS
 62
           1
100
AcDbCircle
 10
145.568631481026
 20
-127.61037635509
 40
8.599003299975
100
AcDbArc
 50
-111.215954643911
 51
-27.268535966438
  0
LINE
  5
15B
100
AcDbEntity
  8
KONTUR
  6
CONTINUOUS
 62
           3
100
AcDbLine
 10
198.135733805841
 20
-140.790903077737
 11
197.81557567634
 21
-140.863233663026
  0
LINE
  5
15A
100
AcDbEntity
  8
KONTUR
  6
CONTINUOUS
 62
           3
100
AcDbLine
 10
198.413173851198
 20
-140.616715185301
 11
198.135733805841
 21
-140.790903077737
  0
LINE
  5
159
100
AcDbEntity
  8
KONTUR
  6
CONTINUOUS
 62
           3
100
AcDbLine
 10
198.578839758104
 20
-140.338585176126
 11
198.413173851198
 21
-140.616715185301
  0
LINE
  5
158
100
AcDbEntity
  8
KONTUR
  6
CONTINUOUS
 62
           3
100
AcDbLine
 10
198.620603081506
 20
-140.008663126222
 11
198.578839758104
 21
-140.338585176126
  0
LINE
  5
157
100
AcDbEntity
  8
KONTUR
  6
CONTINUOUS
 62
           3
100
AcDbLine
 10
198.628927401727
 20
-139.675817121546
 11
198.620603081506
 21
-140.008663126222
  0
LINE
  5
156
100
AcDbEntity
  8
KONTUR
  6
CONTINUOUS
 62
           3
100
AcDbLine
 10
198.592124358744
 20
-139.350501046316
 11
198.628927401727
 21
-139.675817121546
  0
LINE
  5
155
100
AcDbEntity
  8
KONTUR
  6
CONTINUOUS
 62
           3
100
AcDbLine
 10
198.463977565377
 20
-139.0397226952
 11
198.592124358744
 21
-139.350501046316
  0
LINE
  5
154
100
AcDbEntity
  8
KONTUR
  6
CONTINUOUS
 62
           3
100
AcDbLine
 10
198.247321467584
 20
-138.787822499696
 11
198.463977565377
 21
-139.0397226952
  0
LINE
  5
153
100
AcDbEntity
  8
KONTUR
  6
CONTINUOUS
 62
           3
100
AcDbLine
 10
197.95768584556
 20
-138.632356868688
 11
198.247321467584
 21
-138.787822499696
  0
LINE
  5
152
100
AcDbEntity
  8
KONTUR
  6
CONTINUOUS
 62
           3
100
AcDbLine
 10
197.632940389055
 20
-138.5577438085
 11
197.95768584556
 21
-138.632356868688
  0
LINE
  5
151
100
AcDbEntity
  8
KONTUR
  6
CONTINUOUS
 62
           3
100
AcDbLine
 10
197.30464441604
 20
-138.534829550687
 11
197.632940389055
 21
-138.5577438085
  0
LINE
  5
150
100
AcDbEntity
  8
KONTUR
  6
CONTINUOUS
 62
           3
100
AcDbLine
 10
196.97637082023
 20
-138.535851443045
 11
197.30464441604
 21
-138.534829550687
  0
LINE
  5
14F
100
AcDbEntity
  8
KONTUR
  6
CONTINUOUS
 62
           3
100
AcDbLine
 10
196.647903288645
 20
-138.537939982169
 11
196.97637082023
 21
-138.535851443045
  0
LINE
  5
14E
100
AcDbEntity
  8
KONTUR
  6
CONTINUOUS
 62
           3
100
AcDbLine
 10
196.319271657556
 20
-138.537608053629
 11
196.647903288645
 21
-138.537939982169
  0
LINE
  5
14D
100
AcDbEntity
  8
KONTUR
  6
CONTINUOUS
 62
           3
100
AcDbLine
 10
195.990580353921
 20
-138.53633255295
 11
196.319271657556
 21
-138.537608053629
  0
LINE
  5
14C
100
AcDbEntity
  8
KONTUR
  6
CONTINUOUS
 62
           3
100
AcDbLine
 10
195.661911427493
 20
-138.535530703107
 11
195.990580353921
 21
-138.53633255295
  0
LINE
  5
14B
100
AcDbEntity
  8
KONTUR
  6
CONTINUOUS
 62
           3
100
AcDbLine
 10
195.333309632677
 20
-138.535534432642
 11
195.661911427493
 21
-138.535530703107
  0
LINE
  5
14A
100
AcDbEntity
  8
KONTUR
  6
CONTINUOUS
 62
           3
100
AcDbLine
 10
195.00471529693
 20
-138.535843983976
 11
195.333309632677
 21
-138.535534432642
  0
LINE
  5
149
100
AcDbEntity
  8
KONTUR
  6
CONTINUOUS
 62
           3
100
AcDbLine
 10
194.676120961184
 20
-138.535985706274
 11
195.00471529693
 21
-138.535843983976
  0
LINE
  5
148
100
AcDbEntity
  8
KONTUR
  6
CONTINUOUS
 62
           3
100
AcDbLine
 10
194.347504248231
 20
-138.535944681398
 11
194.676120961184
 21
-138.535985706274
  0
LINE
  5
147
100
AcDbEntity
  8
KONTUR
  6
CONTINUOUS
 62
           3
100
AcDbLine
 10
194.018894994349
 20
-138.53587382025
 11
194.347504248231
 21
-138.535944681398
  0
LINE
  5
146
100
AcDbEntity
  8
KONTUR
  6
CONTINUOUS
 62
           3
100
AcDbLine
 10
193.690285740465
 20
-138.535870090715
 11
194.018894994349
 21
-138.53587382025
  0
LINE
  5
145
100
AcDbEntity
  8
KONTUR
  6
CONTINUOUS
 62
           3
100
AcDbLine
 10
193.361676486581
 20
-138.535885008852
 11
193.690285740465
 21
-138.535870090715
  0
LINE
  5
144
100
AcDbEntity
  8
KONTUR
  6
CONTINUOUS
 62
           3
100
AcDbLine
 10
193.033067232699
 20
-138.535885008852
 11
193.361676486581
 21
-138.535885008852
  0
LINE
  5
143
100
AcDbEntity
  8
KONTUR
  6
CONTINUOUS
 62
           3
100
AcDbLine
 10
194.10489059276
 20
-140.682970359461
 11
193.706792658609
 21
-140.682966629926
  0
LINE
  5
142
100
AcDbEntity
  8
KONTUR
  6
CONTINUOUS
 62
           3
100
AcDbLine
 10
194.502981067843
 20
-140.682977818529
 11
194.10489059276
 21
-140.682970359461
  0
LINE
  5
141
100
AcDbEntity
  8
KONTUR
  6
CONTINUOUS
 62
           3
100
AcDbLine
 10
194.901079001993
 20
-140.682929334585
 11
194.502981067843
 21
-140.682977818529
  0
LINE
  5
140
100
AcDbEntity
  8
KONTUR
  6
CONTINUOUS
 62
           3
100
AcDbLine
 10
195.299154558939
 20
-140.683175483839
 11
194.901079001993
 21
-140.682929334585
  0
LINE
  5
13F
100
AcDbEntity
  8
KONTUR
  6
CONTINUOUS
 62
           3
100
AcDbLine
 10
195.69725249309
 20
-140.683153106634
 11
195.299154558939
 21
-140.683175483839
  0
LINE
  5
13E
100
AcDbEntity
  8
KONTUR
  6
CONTINUOUS
 62
           3
100
AcDbLine
 10
196.09543993606
 20
-140.681974573842
 11
195.69725249309
 21
-140.683153106634
  0
LINE
  5
13D
100
AcDbEntity
  8
KONTUR
  6
CONTINUOUS
 62
           3
100
AcDbLine
 10
196.493478197664
 20
-140.682727939741
 11
196.09543993606
 21
-140.681974573842
  0
LINE
  5
13C
100
AcDbEntity
  8
KONTUR
  6
CONTINUOUS
 62
           3
100
AcDbLine
 10
196.89124793281
 20
-140.686946042863
 11
196.493478197664
 21
-140.682727939741
  0
LINE
  5
13B
100
AcDbEntity
  8
KONTUR
  6
CONTINUOUS
 62
           3
100
AcDbLine
 10
197.289860542672
 20
-140.678785822145
 11
196.89124793281
 21
-140.686946042863
  0
LINE
  5
13A
100
AcDbEntity
  8
KONTUR
  6
CONTINUOUS
 62
           3
100
AcDbLine
 10
197.675337733263
 20
-140.584402501432
 11
197.289860542672
 21
-140.678785822145
  0
LINE
  5
139
100
AcDbEntity
  8
KONTUR
  6
CONTINUOUS
 62
           3
100
AcDbLine
 10
197.919271643824
 20
-140.275902895681
 11
197.675337733263
 21
-140.584402501432
  0
LINE
  5
138
100
AcDbEntity
  8
KONTUR
  6
CONTINUOUS
 62
           3
100
AcDbLine
 10
197.947064132302
 20
-139.880277642671
 11
197.919271643824
 21
-140.275902895681
  0
LINE
  5
137
100
AcDbEntity
  8
KONTUR
  6
CONTINUOUS
 62
           3
100
AcDbLine
 10
197.931191234964
 20
-139.480490229551
 11
197.947064132302
 21
-139.880277642671
  0
LINE
  5
136
100
AcDbEntity
  8
KONTUR
  6
CONTINUOUS
 62
           3
100
AcDbLine
 10
197.677590371889
 20
-139.181776921408
 11
197.931191234964
 21
-139.480490229551
  0
LINE
  5
135
100
AcDbEntity
  8
KONTUR
  6
CONTINUOUS
 62
           3
100
AcDbLine
 10
197.289472671121
 20
-139.090556245654
 11
197.677590371889
 21
-139.181776921408
  0
LINE
  5
134
100
AcDbEntity
  8
KONTUR
  6
CONTINUOUS
 62
           3
100
AcDbLine
 10
196.89159850902
 20
-139.089403819601
 11
197.289472671121
 21
-139.090556245654
  0
LINE
  5
133
100
AcDbEntity
  8
KONTUR
  6
CONTINUOUS
 62
           3
100
AcDbLine
 10
196.493515493005
 20
-139.089754395811
 11
196.89159850902
 21
-139.089403819601
  0
LINE
  5
132
100
AcDbEntity
  8
KONTUR
  6
CONTINUOUS
 62
           3
100
AcDbLine
 10
196.095357886309
 20
-139.088143237059
 11
196.493515493005
 21
-139.089754395811
  0
LINE
  5
131
100
AcDbEntity
  8
KONTUR
  6
CONTINUOUS
 62
           3
100
AcDbLine
 10
195.697245034021
 20
-139.087684504358
 11
196.095357886309
 21
-139.088143237059
  0
LINE
  5
130
100
AcDbEntity
  8
KONTUR
  6
CONTINUOUS
 62
           3
100
AcDbLine
 10
195.299169477075
 20
-139.088076105444
 11
195.697245034021
 21
-139.087684504358
  0
LINE
  5
12F
100
AcDbEntity
  8
KONTUR
  6
CONTINUOUS
 62
           3
100
AcDbLine
 10
194.901086461061
 20
-139.088348361436
 11
195.299169477075
 21
-139.088076105444
  0
LINE
  5
12E
100
AcDbEntity
  8
KONTUR
  6
CONTINUOUS
 62
           3
100
AcDbLine
 10
194.50298852691
 20
-139.088303607027
 11
194.901086461061
 21
-139.088348361436
  0
LINE
  5
12D
100
AcDbEntity
  8
KONTUR
  6
CONTINUOUS
 62
           3
100
AcDbLine
 10
194.10489059276
 20
-139.088199180071
 11
194.50298852691
 21
-139.088303607027
  0
LINE
  5
12C
100
AcDbEntity
  8
KONTUR
  6
CONTINUOUS
 62
           3
100
AcDbLine
 10
193.706792658609
 20
-139.088199180071
 11
194.10489059276
 21
-139.088199180071
  0
LINE
  5
12B
100
AcDbEntity
  8
KONTUR
  6
CONTINUOUS
 62
           3
100
AcDbLine
 10
193.388558968729
 20
-143.535146518175
 11
193.033067232699
 21
-143.535146518175
  0
LINE
  5
12A
100
AcDbEntity
  8
KONTUR
  6
CONTINUOUS
 62
           3
100
AcDbLine
 10
193.744043245691
 20
-143.535142788641
 11
193.388558968729
 21
-143.535146518175
  0
LINE
  5
129
100
AcDbEntity
  8
KONTUR
  6
CONTINUOUS
 62
           3
100
AcDbLine
 10
194.099534981721
 20
-143.535142788641
 11
193.744043245691
 21
-143.535142788641
  0
LINE
  5
128
100
AcDbEntity
  8
KONTUR
  6
CONTINUOUS
 62
           3
100
AcDbLine
 10
194.455026717753
 20
-143.535157706777
 11
194.099534981721
 21
-143.535142788641
  0
LINE
  5
127
100
AcDbEntity
  8
KONTUR
  6
CONTINUOUS
 62
           3
100
AcDbLine
 10
194.810510994715
 20
-143.535146518175
 11
194.455026717753
 21
-143.535157706777
  0
LINE
  5
126
100
AcDbEntity
  8
KONTUR
  6
CONTINUOUS
 62
           3
100
AcDbLine
 10
195.166002730745
 20
-143.535094304697
 11
194.810510994715
 21
-143.535146518175
  0
LINE
  5
125
100
AcDbEntity
  8
KONTUR
  6
CONTINUOUS
 62
           3
100
AcDbLine
 10
195.521487007708
 20
-143.535094304697
 11
195.166002730745
 21
-143.535094304697
  0
LINE
  5
124
100
AcDbEntity
  8
KONTUR
  6
CONTINUOUS
 62
           3
100
AcDbLine
 10
195.876986202806
 20
-143.5352584042
 11
195.521487007708
 21
-143.535094304697
  0
LINE
  5
123
100
AcDbEntity
  8
KONTUR
  6
CONTINUOUS
 62
           3
100
AcDbLine
 10
196.232477938836
 20
-143.53536656069
 11
195.876986202806
 21
-143.5352584042
  0
LINE
  5
122
100
AcDbEntity
  8
KONTUR
  6
CONTINUOUS
 62
           3
100
AcDbLine
 10
196.587947297663
 20
-143.534933934729
 11
196.232477938836
 21
-143.53536656069
  0
LINE
  5
121
100
AcDbEntity
  8
KONTUR
  6
CONTINUOUS
 62
           3
100
AcDbLine
 10
196.943416656489
 20
-143.534415529482
 11
196.587947297663
 21
-143.534933934729
  0
LINE
  5
120
100
AcDbEntity
  8
KONTUR
  6
CONTINUOUS
 62
           3
100
AcDbLine
 10
197.298960605996
 20
-143.53565373482
 11
196.943416656489
 21
-143.534415529482
  0
LINE
  5
11F
100
AcDbEntity
  8
KONTUR
  6
CONTINUOUS
 62
           3
100
AcDbLine
 10
197.654027175135
 20
-143.519613008443
 11
197.298960605996
 21
-143.53565373482
  0
LINE
  5
11E
100
AcDbEntity
  8
KONTUR
  6
CONTINUOUS
 62
           3
100
AcDbLine
 10
198.00279083156
 20
-143.450478633921
 11
197.654027175135
 21
-143.519613008443
  0
LINE
  5
11D
100
AcDbEntity
  8
KONTUR
  6
CONTINUOUS
 62
           3
100
AcDbLine
 10
198.3298336811
 20
-143.311370739691
 11
198.00279083156
 21
-143.450478633921
  0
LINE
  5
11C
100
AcDbEntity
  8
KONTUR
  6
CONTINUOUS
 62
           3
100
AcDbLine
 10
198.603924604791
 20
-143.083798295442
 11
198.3298336811
 21
-143.311370739691
  0
LINE
  5
11B
100
AcDbEntity
  8
KONTUR
  6
CONTINUOUS
 62
           3
100
AcDbLine
 10
198.771917741006
 20
-142.771960756627
 11
198.603924604791
 21
-143.083798295442
  0
LINE
  5
11A
100
AcDbEntity
  8
KONTUR
  6
CONTINUOUS
 62
           3
100
AcDbLine
 10
198.818932248491
 20
-142.417822841494
 11
198.771917741006
 21
-142.771960756627
  0
LINE
  5
119
100
AcDbEntity
  8
KONTUR
  6
CONTINUOUS
 62
           3
100
AcDbLine
 10
198.817783551973
 20
-142.062629468195
 11
198.818932248491
 21
-142.417822841494
  0
LINE
  5
118
100
AcDbEntity
  8
KONTUR
  6
CONTINUOUS
 62
           3
100
AcDbLine
 10
198.808571602625
 20
-141.707148920766
 11
198.817783551973
 21
-142.062629468195
  0
LINE
  5
117
100
AcDbEntity
  8
KONTUR
  6
CONTINUOUS
 62
           3
100
AcDbLine
 10
198.716265632432
 20
-141.364028049508
 11
198.808571602625
 21
-141.707148920766
  0
LINE
  5
116
100
AcDbEntity
  8
KONTUR
  6
CONTINUOUS
 62
           3
100
AcDbLine
 10
198.49132250976
 20
-141.090884427492
 11
198.716265632432
 21
-141.364028049508
  0
LINE
  5
115
100
AcDbEntity
  8
KONTUR
  6
CONTINUOUS
 62
           3
100
AcDbLine
 10
198.1689192007
 20
-140.943534262793
 11
198.49132250976
 21
-141.090884427492
  0
LINE
  5
114
100
AcDbEntity
  8
KONTUR
  6
CONTINUOUS
 62
           3
100
AcDbLine
 10
197.81557567634
 20
-140.890582336942
 11
198.1689192007
 21
-140.943534262793
  0
LINE
  5
113
100
AcDbEntity
  8
KONTUR
  6
CONTINUOUS
 62
           3
100
AcDbLine
 10
194.125507457536
 20
-142.982358696119
 11
193.706792658609
 21
-142.982358696119
  0
LINE
  5
112
100
AcDbEntity
  8
KONTUR
  6
CONTINUOUS
 62
           3
100
AcDbLine
 10
194.544222256464
 20
-142.982358696119
 11
194.125507457536
 21
-142.982358696119
  0
LINE
  5
111
100
AcDbEntity
  8
KONTUR
  6
CONTINUOUS
 62
           3
100
AcDbLine
 10
194.962937055391
 20
-142.982366155187
 11
194.544222256464
 21
-142.982358696119
  0
LINE
  5
110
100
AcDbEntity
  8
KONTUR
  6
CONTINUOUS
 62
           3
100
AcDbLine
 10
195.381651854319
 20
-142.982347507516
 11
194.962937055391
 21
-142.982366155187
  0
LINE
  5
10F
100
AcDbEntity
  8
KONTUR
  6
CONTINUOUS
 62
           3
100
AcDbLine
 10
195.800366653246
 20
-142.982358696119
 11
195.381651854319
 21
-142.982347507516
  0
LINE
  5
10E
100
AcDbEntity
  8
KONTUR
  6
CONTINUOUS
 62
           3
100
AcDbLine
 10
196.219081452173
 20
-142.982463123075
 11
195.800366653246
 21
-142.982358696119
  0
LINE
  5
10D
100
AcDbEntity
  8
KONTUR
  6
CONTINUOUS
 62
           3
100
AcDbLine
 10
196.637811169238
 20
-142.981952176897
 11
196.219081452173
 21
-142.982463123075
  0
LINE
  5
10C
100
AcDbEntity
  8
KONTUR
  6
CONTINUOUS
 62
           3
100
AcDbLine
 10
197.05645883655
 20
-142.983656574004
 11
196.637811169238
 21
-142.981952176897
  0
LINE
  5
10B
100
AcDbEntity
  8
KONTUR
  6
CONTINUOUS
 62
           3
100
AcDbLine
 10
197.475136340135
 20
-142.973881464998
 11
197.05645883655
 21
-142.983656574004
  0
LINE
  5
10A
100
AcDbEntity
  8
KONTUR
  6
CONTINUOUS
 62
           3
100
AcDbLine
 10
197.87637454204
 20
-142.863114300767
 11
197.475136340135
 21
-142.973881464998
  0
LINE
  5
109
100
AcDbEntity
  8
KONTUR
  6
CONTINUOUS
 62
           3
100
AcDbLine
 10
198.117101053233
 20
-142.530715840189
 11
197.87637454204
 21
-142.863114300767
  0
LINE
  5
108
100
AcDbEntity
  8
KONTUR
  6
CONTINUOUS
 62
           3
100
AcDbLine
 10
198.139970556635
 20
-142.113019204085
 11
198.117101053233
 21
-142.530715840189
  0
LINE
  5
107
100
AcDbEntity
  8
KONTUR
  6
CONTINUOUS
 62
           3
100
AcDbLine
 10
198.113751931566
 20
-141.695042852918
 11
198.139970556635
 21
-142.113019204085
  0
LINE
  5
106
100
AcDbEntity
  8
KONTUR
  6
CONTINUOUS
 62
           3
100
AcDbLine
 10
197.884862961763
 20
-141.359436992971
 11
198.113751931566
 21
-141.695042852918
  0
LINE
  5
105
100
AcDbEntity
  8
KONTUR
  6
CONTINUOUS
 62
           3
100
AcDbLine
 10
197.473420754426
 20
-141.244824679034
 11
197.884862961763
 21
-141.359436992971
  0
LINE
  5
104
100
AcDbEntity
  8
KONTUR
  6
CONTINUOUS
 62
           3
100
AcDbLine
 10
197.0547059555
 20
-141.230958271066
 11
197.473420754426
 21
-141.244824679034
  0
LINE
  5
103
100
AcDbEntity
  8
KONTUR
  6
CONTINUOUS
 62
           3
100
AcDbLine
 10
196.638661503022
 20
-141.238294264737
 11
197.0547059555
 21
-141.230958271066
  0
LINE
  5
102
100
AcDbEntity
  8
KONTUR
  6
CONTINUOUS
 62
           3
100
AcDbLine
 10
196.219469323725
 20
-141.23688450083
 11
196.638661503022
 21
-141.238294264737
  0
LINE
  5
101
100
AcDbEntity
  8
KONTUR
  6
CONTINUOUS
 62
           3
100
AcDbLine
 10
195.800098126787
 20
-141.234960061209
 11
196.219469323725
 21
-141.23688450083
  0
LINE
  5
100
100
AcDbEntity
  8
KONTUR
  6
CONTINUOUS
 62
           3
100
AcDbLine
 10
195.381532509225
 20
-141.235400146239
 11
195.800098126787
 21
-141.234960061209
  0
LINE
  5
FF
100
AcDbEntity
  8
KONTUR
  6
CONTINUOUS
 62
           3
100
AcDbLine
 10
194.962981809801
 20
-141.235884985677
 11
195.381532509225
 21
-141.235400146239
  0
LINE
  5
FE
100
AcDbEntity
  8
KONTUR
  6
CONTINUOUS
 62
           3
100
AcDbLine
 10
194.544222256464
 20
-141.235746992913
 11
194.962981809801
 21
-141.235884985677
  0
LINE
  5
FD
100
AcDbEntity
  8
KONTUR
  6
CONTINUOUS
 62
           3
100
AcDbLine
 10
194.125499998469
 20
-141.23574326338
 11
194.544222256464
 21
-141.235746992913
  0
LINE
  5
FC
100
AcDbEntity
  8
KONTUR
  6
CONTINUOUS
 62
           3
100
AcDbLine
 10
193.706792658609
 20
-141.235754451983
 11
194.125499998469
 21
-141.23574326338
  0
LINE
  5
FB
100
AcDbEntity
  8
KONTUR
  6
CONTINUOUS
 62
           3
100
AcDbLine
 10
178.818070897764
 20
-141.277018017809
 11
178.617328722185
 21
-141.305004442063
  0
LINE
  5
FA
100
AcDbEntity
  8
KONTUR
  6
CONTINUOUS
 62
           3
100
AcDbLine
 10
179.01468447904
 20
-141.223708056681
 11
178.818070897764
 21
-141.277018017809
  0
LINE
  5
F9
100
AcDbEntity
  8
KONTUR
  6
CONTINUOUS
 62
           3
100
AcDbLine
 10
179.19718923263
 20
-141.133602511636
 11
179.01468447904
 21
-141.223708056681
  0
LINE
  5
F8
100
AcDbEntity
  8
KONTUR
  6
CONTINUOUS
 62
           3
100
AcDbLine
 10
179.346818142694
 20
-140.995274090044
 11
179.19718923263
 21
-141.133602511636
  0
LINE
  5
F7
100
AcDbEntity
  8
KONTUR
  6
CONTINUOUS
 62
           3
100
AcDbLine
 10
179.453874420446
 20
-140.818878313391
 11
179.346818142694
 21
-140.995274090044
  0
LINE
  5
F6
100
AcDbEntity
  8
KONTUR
  6
CONTINUOUS
 62
           3
100
AcDbLine
 10
179.513662582391
 20
-140.624006424562
 11
179.453874420446
 21
-140.818878313391
  0
LINE
  5
F5
100
AcDbEntity
  8
KONTUR
  6
CONTINUOUS
 62
           3
100
AcDbLine
 10
179.534372685522
 20
-140.422160306875
 11
179.513662582391
 21
-140.624006424562
  0
LINE
  5
F4
100
AcDbEntity
  8
KONTUR
  6
CONTINUOUS
 62
           3
100
AcDbLine
 10
179.53562953853
 20
-140.217617735998
 11
179.534372685522
 21
-140.422160306875
  0
LINE
  5
F3
100
AcDbEntity
  8
KONTUR
  6
CONTINUOUS
 62
           3
100
AcDbLine
 10
179.534846336359
 20
-140.013914310305
 11
179.53562953853
 21
-140.217617735998
  0
LINE
  5
F2
100
AcDbEntity
  8
KONTUR
  6
CONTINUOUS
 62
           3
100
AcDbLine
 10
179.532299064535
 20
-139.811381958334
 11
179.534846336359
 21
-140.013914310305
  0
LINE
  5
F1
100
AcDbEntity
  8
KONTUR
  6
CONTINUOUS
 62
           3
100
AcDbLine
 10
179.521356611341
 20
-139.609073378412
 11
179.532299064535
 21
-139.811381958334
  0
LINE
  5
F0
100
AcDbEntity
  8
KONTUR
  6
CONTINUOUS
 62
           3
100
AcDbLine
 10
179.494802328199
 20
-139.406835659639
 11
179.521356611341
 21
-139.609073378412
  0
LINE
  5
EF
100
AcDbEntity
  8
KONTUR
  6
CONTINUOUS
 62
           3
100
AcDbLine
 10
179.441126872724
 20
-139.210673351995
 11
179.494802328199
 21
-139.406835659639
  0
LINE
  5
EE
100
AcDbEntity
  8
KONTUR
  6
CONTINUOUS
 62
           3
100
AcDbLine
 10
179.347881059927
 20
-139.029414262811
 11
179.441126872724
 21
-139.210673351995
  0
LINE
  5
ED
100
AcDbEntity
  8
KONTUR
  6
CONTINUOUS
 62
           3
100
AcDbLine
 10
179.215538540644
 20
-138.872303907244
 11
179.347881059927
 21
-139.029414262811
  0
LINE
  5
EC
100
AcDbEntity
  8
KONTUR
  6
CONTINUOUS
 62
           3
100
AcDbLine
 10
179.053356018633
 20
-138.748774277155
 11
179.215538540644
 21
-138.872303907244
  0
LINE
  5
EB
100
AcDbEntity
  8
KONTUR
  6
CONTINUOUS
 62
           3
100
AcDbLine
 10
178.870027037996
 20
-138.662469127408
 11
179.053356018633
 21
-138.748774277155
  0
LINE
  5
EA
100
AcDbEntity
  8
KONTUR
  6
CONTINUOUS
 62
           3
100
AcDbLine
 10
178.672876403803
 20
-138.606298613589
 11
178.870027037996
 21
-138.662469127408
  0
LINE
  5
E9
100
AcDbEntity
  8
KONTUR
  6
CONTINUOUS
 62
           3
100
AcDbLine
 10
178.469098387426
 20
-138.572001817552
 11
178.672876403803
 21
-138.606298613589
  0
LINE
  5
E8
100
AcDbEntity
  8
KONTUR
  6
CONTINUOUS
 62
           3
100
AcDbLine
 10
178.265242050833
 20
-138.551731799451
 11
178.469098387426
 21
-138.572001817552
  0
LINE
  5
E7
100
AcDbEntity
  8
KONTUR
  6
CONTINUOUS
 62
           3
100
AcDbLine
 10
178.062791748613
 20
-138.540886314146
 11
178.265242050833
 21
-138.551731799451
  0
LINE
  5
E6
100
AcDbEntity
  8
KONTUR
  6
CONTINUOUS
 62
           3
100
AcDbLine
 10
177.860770342821
 20
-138.536425791304
 11
178.062791748613
 21
-138.540886314146
  0
LINE
  5
E5
100
AcDbEntity
  8
KONTUR
  6
CONTINUOUS
 62
           3
100
AcDbLine
 10
177.658275286192
 20
-138.535426276151
 11
177.860770342821
 21
-138.536425791304
  0
LINE
  5
E4
100
AcDbEntity
  8
KONTUR
  6
CONTINUOUS
 62
           3
100
AcDbLine
 10
177.455280471987
 20
-138.535885008852
 11
177.658275286192
 21
-138.535426276151
  0
LINE
  5
E3
100
AcDbEntity
  8
KONTUR
  6
CONTINUOUS
 62
           3
100
AcDbLine
 10
174.956488862509
 20
-141.008066392176
 11
174.5430401658
 21
-141.008066392176
  0
LINE
  5
E2
100
AcDbEntity
  8
KONTUR
  6
CONTINUOUS
 62
           3
100
AcDbLine
 10
175.369937559217
 20
-141.008062662641
 11
174.956488862509
 21
-141.008066392176
  0
LINE
  5
E1
100
AcDbEntity
  8
KONTUR
  6
CONTINUOUS
 62
           3
100
AcDbLine
 10
175.783386255926
 20
-141.008032826368
 11
175.369937559217
 21
-141.008062662641
  0
LINE
  5
E0
100
AcDbEntity
  8
KONTUR
  6
CONTINUOUS
 62
           3
100
AcDbLine
 10
176.196834952635
 20
-141.008055203574
 11
175.783386255926
 21
-141.008032826368
  0
LINE
  5
DF
100
AcDbEntity
  8
KONTUR
  6
CONTINUOUS
 62
           3
100
AcDbLine
 10
176.610279919809
 20
-141.008118605654
 11
176.196834952635
 21
-141.008055203574
  0
LINE
  5
DE
100
AcDbEntity
  8
KONTUR
  6
CONTINUOUS
 62
           3
100
AcDbLine
 10
177.023750993723
 20
-141.007715815966
 11
176.610279919809
 21
-141.008118605654
  0
LINE
  5
DD
100
AcDbEntity
  8
KONTUR
  6
CONTINUOUS
 62
           3
100
AcDbLine
 10
177.437169854158
 20
-141.008215573541
 11
177.023750993723
 21
-141.007715815966
  0
LINE
  5
DC
100
AcDbEntity
  8
KONTUR
  6
CONTINUOUS
 62
           3
100
AcDbLine
 10
177.850670764345
 20
-141.00718995165
 11
177.437169854158
 21
-141.008215573541
  0
LINE
  5
DB
100
AcDbEntity
  8
KONTUR
  6
CONTINUOUS
 62
           3
100
AcDbLine
 10
178.262116701215
 20
-140.970834452765
 11
177.850670764345
 21
-141.00718995165
  0
LINE
  5
DA
100
AcDbEntity
  8
KONTUR
  6
CONTINUOUS
 62
           3
100
AcDbLine
 10
178.643551076788
 20
-140.812012241023
 11
178.262116701215
 21
-140.970834452765
  0
LINE
  5
D9
100
AcDbEntity
  8
KONTUR
  6
CONTINUOUS
 62
           3
100
AcDbLine
 10
178.844677394384
 20
-140.458679905263
 11
178.643551076788
 21
-140.812012241023
  0
LINE
  5
D8
100
AcDbEntity
  8
KONTUR
  6
CONTINUOUS
 62
           3
100
AcDbLine
 10
178.858353596109
 20
-140.04549600548
 11
178.844677394384
 21
-140.458679905263
  0
LINE
  5
D7
100
AcDbEntity
  8
KONTUR
  6
CONTINUOUS
 62
           3
100
AcDbLine
 10
178.847511840338
 20
-139.628754130117
 11
178.858353596109
 21
-140.04549600548
  0
LINE
  5
D6
100
AcDbEntity
  8
KONTUR
  6
CONTINUOUS
 62
           3
100
AcDbLine
 10
178.650536494249
 20
-139.273952357905
 11
178.847511840338
 21
-139.628754130117
  0
LINE
  5
D5
100
AcDbEntity
  8
KONTUR
  6
CONTINUOUS
 62
           3
100
AcDbLine
 10
178.265659758657
 20
-139.127489822332
 11
178.650536494249
 21
-139.273952357905
  0
LINE
  5
D4
100
AcDbEntity
  8
KONTUR
  6
CONTINUOUS
 62
           3
100
AcDbLine
 10
177.850074038881
 20
-139.092025682107
 11
178.265659758657
 21
-139.127489822332
  0
LINE
  5
D3
100
AcDbEntity
  8
KONTUR
  6
CONTINUOUS
 62
           3
100
AcDbLine
 10
177.437035590929
 20
-139.088255123082
 11
177.850074038881
 21
-139.092025682107
  0
LINE
  5
D2
100
AcDbEntity
  8
KONTUR
  6
CONTINUOUS
 62
           3
100
AcDbLine
 10
177.023568246549
 20
-139.088262582151
 11
177.437035590929
 21
-139.088255123082
  0
LINE
  5
D1
100
AcDbEntity
  8
KONTUR
  6
CONTINUOUS
 62
           3
100
AcDbLine
 10
176.610313485617
 20
-139.088187991468
 11
177.023568246549
 21
-139.088262582151
  0
LINE
  5
D0
100
AcDbEntity
  8
KONTUR
  6
CONTINUOUS
 62
           3
100
AcDbLine
 10
176.196861059374
 20
-139.088191721002
 11
176.610313485617
 21
-139.088187991468
  0
LINE
  5
CF
100
AcDbEntity
  8
KONTUR
  6
CONTINUOUS
 62
           3
100
AcDbLine
 10
175.783363878721
 20
-139.088206639138
 11
176.196861059374
 21
-139.088191721002
  0
LINE
  5
CE
100
AcDbEntity
  8
KONTUR
  6
CONTINUOUS
 62
           3
100
AcDbLine
 10
175.369911452478
 20
-139.088210368673
 11
175.783363878721
 21
-139.088206639138
  0
LINE
  5
CD
100
AcDbEntity
  8
KONTUR
  6
CONTINUOUS
 62
           3
100
AcDbLine
 10
174.95648140344
 20
-139.088202909605
 11
175.369911452478
 21
-139.088210368673
  0
LINE
  5
CC
100
AcDbEntity
  8
KONTUR
  6
CONTINUOUS
 62
           3
100
AcDbLine
 10
174.5430401658
 20
-139.088199180071
 11
174.95648140344
 21
-139.088202909605
  0
LINE
  5
CB
100
AcDbEntity
  8
KONTUR
  6
CONTINUOUS
 62
           3
100
AcDbLine
 10
174.791184720415
 20
-141.560044905321
 11
174.5430401658
 21
-141.560044905321
  0
LINE
  5
CA
100
AcDbEntity
  8
KONTUR
  6
CONTINUOUS
 62
           3
100
AcDbLine
 10
175.039325545496
 20
-141.560037446252
 11
174.791184720415
 21
-141.560044905321
  0
LINE
  5
C9
100
AcDbEntity
  8
KONTUR
  6
CONTINUOUS
 62
           3
100
AcDbLine
 10
175.287470100111
 20
-141.560048634855
 11
175.039325545496
 21
-141.560037446252
  0
LINE
  5
C8
100
AcDbEntity
  8
KONTUR
  6
CONTINUOUS
 62
           3
100
AcDbLine
 10
175.535614654726
 20
-141.560093389265
 11
175.287470100111
 21
-141.560048634855
  0
LINE
  5
C7
100
AcDbEntity
  8
KONTUR
  6
CONTINUOUS
 62
           3
100
AcDbLine
 10
175.783759209341
 20
-141.56011576647
 11
175.535614654726
 21
-141.560093389265
  0
LINE
  5
C6
100
AcDbEntity
  8
KONTUR
  6
CONTINUOUS
 62
           3
100
AcDbLine
 10
176.031903763956
 20
-141.560056093924
 11
175.783759209341
 21
-141.56011576647
  0
LINE
  5
C5
100
AcDbEntity
  8
KONTUR
  6
CONTINUOUS
 62
           3
100
AcDbLine
 10
176.280044589037
 20
-141.559895723955
 11
176.031903763956
 21
-141.560056093924
  0
LINE
  5
C4
100
AcDbEntity
  8
KONTUR
  6
CONTINUOUS
 62
           3
100
AcDbLine
 10
176.528185414117
 20
-141.559850969545
 11
176.280044589037
 21
-141.559895723955
  0
LINE
  5
C3
100
AcDbEntity
  8
KONTUR
  6
CONTINUOUS
 62
           3
100
AcDbLine
 10
176.776337427801
 20
-141.560194086687
 11
176.528185414117
 21
-141.559850969545
  0
LINE
  5
C2
100
AcDbEntity
  8
KONTUR
  6
CONTINUOUS
 62
           3
100
AcDbLine
 10
177.024489441484
 20
-141.560690114728
 11
176.776337427801
 21
-141.560194086687
  0
LINE
  5
C1
100
AcDbEntity
  8
KONTUR
  6
CONTINUOUS
 62
           3
100
AcDbLine
 10
177.272622807497
 20
-141.560175439016
 11
177.024489441484
 21
-141.560690114728
  0
LINE
  5
C0
100
AcDbEntity
  8
KONTUR
  6
CONTINUOUS
 62
           3
100
AcDbLine
 10
177.520730066771
 20
-141.558124195234
 11
177.272622807497
 21
-141.560175439016
  0
LINE
  5
BF
100
AcDbEntity
  8
KONTUR
  6
CONTINUOUS
 62
           3
100
AcDbLine
 10
177.768859703249
 20
-141.557754971353
 11
177.520730066771
 21
-141.558124195234
  0
LINE
  5
BE
100
AcDbEntity
  8
KONTUR
  6
CONTINUOUS
 62
           3
100
AcDbLine
 10
178.01706393041
 20
-141.56355812649
 11
177.768859703249
 21
-141.557754971353
  0
LINE
  5
BD
100
AcDbEntity
  8
KONTUR
  6
CONTINUOUS
 62
           3
100
AcDbLine
 10
178.263761425776
 20
-141.588434119265
 11
178.01706393041
 21
-141.56355812649
  0
LINE
  5
BC
100
AcDbEntity
  8
KONTUR
  6
CONTINUOUS
 62
           3
100
AcDbLine
 10
178.501183569711
 20
-141.663606609575
 11
178.263761425776
 21
-141.588434119265
  0
LINE
  5
BB
100
AcDbEntity
  8
KONTUR
  6
CONTINUOUS
 62
           3
100
AcDbLine
 10
178.68994275207
 20
-141.824006414262
 11
178.501183569711
 21
-141.663606609575
  0
LINE
  5
BA
100
AcDbEntity
  8
KONTUR
  6
CONTINUOUS
 62
           3
100
AcDbLine
 10
178.794116099924
 20
-142.048867487185
 11
178.68994275207
 21
-141.824006414262
  0
LINE
  5
B9
100
AcDbEntity
  8
KONTUR
  6
CONTINUOUS
 62
           3
100
AcDbLine
 10
178.831881362718
 20
-142.294076898424
 11
178.794116099924
 21
-142.048867487185
  0
LINE
  5
B8
100
AcDbEntity
  8
KONTUR
  6
CONTINUOUS
 62
           3
100
AcDbLine
 10
178.839250922197
 20
-142.542762235491
 11
178.831881362718
 21
-142.294076898424
  0
LINE
  5
B7
100
AcDbEntity
  8
KONTUR
  6
CONTINUOUS
 62
           3
100
AcDbLine
 10
178.838643008131
 20
-142.790828469889
 11
178.839250922197
 21
-142.542762235491
  0
LINE
  5
B6
100
AcDbEntity
  8
KONTUR
  6
CONTINUOUS
 62
           3
100
AcDbLine
 10
178.83726681003
 20
-143.038797736399
 11
178.838643008131
 21
-142.790828469889
  0
LINE
  5
B5
100
AcDbEntity
  8
KONTUR
  6
CONTINUOUS
 62
           3
100
AcDbLine
 10
178.837449557203
 20
-143.286964668219
 11
178.83726681003
 21
-143.038797736399
  0
LINE
  5
B4
100
AcDbEntity
  8
KONTUR
  6
CONTINUOUS
 62
           3
100
AcDbLine
 10
178.837744190401
 20
-143.535146518175
 11
178.837449557203
 21
-143.286964668219
  0
LINE
  5
B3
100
AcDbEntity
  8
KONTUR
  6
CONTINUOUS
 62
           3
100
AcDbLine
 10
179.473529065412
 20
-143.423372379725
 11
179.473387343115
 21
-143.535146518175
  0
LINE
  5
B2
100
AcDbEntity
  8
KONTUR
  6
CONTINUOUS
 62
           3
100
AcDbLine
 10
179.473555172151
 20
-143.311560945932
 11
179.473529065412
 21
-143.423372379725
  0
LINE
  5
B1
100
AcDbEntity
  8
KONTUR
  6
CONTINUOUS
 62
           3
100
AcDbLine
 10
179.473357506841
 20
-143.199671191924
 11
179.473555172151
 21
-143.311560945932
  0
LINE
  5
B0
100
AcDbEntity
  8
KONTUR
  6
CONTINUOUS
 62
           3
100
AcDbLine
 10
179.472895044607
 20
-143.08768819956
 11
179.473357506841
 21
-143.199671191924
  0
LINE
  5
AF
100
AcDbEntity
  8
KONTUR
  6
CONTINUOUS
 62
           3
100
AcDbLine
 10
179.47235799169
 20
-142.975679100459
 11
179.472895044607
 21
-143.08768819956
  0
LINE
  5
AE
100
AcDbEntity
  8
KONTUR
  6
CONTINUOUS
 62
           3
100
AcDbLine
 10
179.471988767809
 20
-142.863729673902
 11
179.47235799169
 21
-142.975679100459
  0
LINE
  5
AD
100
AcDbEntity
  8
KONTUR
  6
CONTINUOUS
 62
           3
100
AcDbLine
 10
179.472014874548
 20
-142.751914510576
 11
179.471988767809
 21
-142.863729673902
  0
LINE
  5
AC
100
AcDbEntity
  8
KONTUR
  6
CONTINUOUS
 62
           3
100
AcDbLine
 10
179.472678731626
 20
-142.640323119299
 11
179.472014874548
 21
-142.751914510576
  0
LINE
  5
AB
100
AcDbEntity
  8
KONTUR
  6
CONTINUOUS
 62
           3
100
AcDbLine
 10
179.47417427482
 20
-142.529022631685
 11
179.472678731626
 21
-142.640323119299
  0
LINE
  5
AA
100
AcDbEntity
  8
KONTUR
  6
CONTINUOUS
 62
           3
100
AcDbLine
 10
179.475688465685
 20
-142.417733332673
 11
179.47417427482
 21
-142.529022631685
  0
LINE
  5
A9
100
AcDbEntity
  8
KONTUR
  6
CONTINUOUS
 62
           3
100
AcDbLine
 10
179.475267028326
 20
-142.30577644705
 11
179.475688465685
 21
-142.417733332673
  0
LINE
  5
A8
100
AcDbEntity
  8
KONTUR
  6
CONTINUOUS
 62
           3
100
AcDbLine
 10
179.4708848257
 20
-142.192499306337
 11
179.475267028326
 21
-142.30577644705
  0
LINE
  5
A7
100
AcDbEntity
  8
KONTUR
  6
CONTINUOUS
 62
           3
100
AcDbLine
 10
179.460274301046
 20
-142.07854339041
 11
179.4708848257
 21
-142.192499306337
  0
LINE
  5
A6
100
AcDbEntity
  8
KONTUR
  6
CONTINUOUS
 62
           3
100
AcDbLine
 10
179.440832239526
 20
-141.966202362769
 11
179.460274301046
 21
-142.07854339041
  0
LINE
  5
A5
100
AcDbEntity
  8
KONTUR
  6
CONTINUOUS
 62
           3
100
AcDbLine
 10
179.409955426305
 20
-141.857878043405
 11
179.440832239526
 21
-141.966202362769
  0
LINE
  5
A4
100
AcDbEntity
  8
KONTUR
  6
CONTINUOUS
 62
           3
100
AcDbLine
 10
179.365021998876
 20
-141.755964793245
 11
179.409955426305
 21
-141.857878043405
  0
LINE
  5
A3
100
AcDbEntity
  8
KONTUR
  6
CONTINUOUS
 62
           3
100
AcDbLine
 10
179.303674891657
 20
-141.662845784608
 11
179.365021998876
 21
-141.755964793245
  0
LINE
  5
A2
100
AcDbEntity
  8
KONTUR
  6
CONTINUOUS
 62
           3
100
AcDbLine
 10
179.227126203245
 20
-141.580661770097
 11
179.303674891657
 21
-141.662845784608
  0
LINE
  5
A1
100
AcDbEntity
  8
KONTUR
  6
CONTINUOUS
 62
           3
100
AcDbLine
 10
179.139090549654
 20
-141.511102228681
 11
179.227126203245
 21
-141.580661770097
  0
LINE
  5
A0
100
AcDbEntity
  8
KONTUR
  6
CONTINUOUS
 62
           3
100
AcDbLine
 10
179.042741764444
 20
-141.453783018342
 11
179.139090549654
 21
-141.511102228681
  0
LINE
  5
9F
100
AcDbEntity
  8
KONTUR
  6
CONTINUOUS
 62
           3
100
AcDbLine
 10
178.940899375433
 20
-141.407510688153
 11
179.042741764444
 21
-141.453783018342
  0
LINE
  5
9E
100
AcDbEntity
  8
KONTUR
  6
CONTINUOUS
 62
           3
100
AcDbLine
 10
178.835223025316
 20
-141.371688512651
 11
178.940899375433
 21
-141.407510688153
  0
LINE
  5
9D
100
AcDbEntity
  8
KONTUR
  6
CONTINUOUS
 62
           3
100
AcDbLine
 10
178.726928542227
 20
-141.343295569173
 11
178.835223025316
 21
-141.371688512651
  0
LINE
  5
9C
100
AcDbEntity
  8
KONTUR
  6
CONTINUOUS
 62
           3
100
AcDbLine
 10
178.617328722185
 20
-141.318613512175
 11
178.726928542227
 21
-141.343295569173
  0
LINE
  5
9B
100
AcDbEntity
  8
KONTUR
  6
CONTINUOUS
 62
           3
100
AcDbLine
 10
206.361597194498
 20
-138.535885670596
 11
206.361597194498
 21
-139.088200479786
  0
LINE
  5
9A
100
AcDbEntity
  8
KONTUR
  6
CONTINUOUS
 62
           3
100
AcDbLine
 10
206.195882455208
 20
-140.682967905916
 11
206.195882455208
 21
-141.235754345526
  0
LINE
  5
99
100
AcDbEntity
  8
KONTUR
  6
CONTINUOUS
 62
           3
100
AcDbLine
 10
202.128867865507
 20
-139.088200479786
 11
202.128867865507
 21
-140.682967905916
  0
LINE
  5
98
100
AcDbEntity
  8
KONTUR
  6
CONTINUOUS
 62
           3
100
AcDbLine
 10
201.451324229847
 20
-138.535885670596
 11
206.361597194498
 21
-138.535885670596
  0
LINE
  5
97
100
AcDbEntity
  8
KONTUR
  6
CONTINUOUS
 62
           3
100
AcDbLine
 10
206.195882455208
 20
-141.235754345526
 11
202.128867865507
 21
-141.235754345526
  0
LINE
  5
96
100
AcDbEntity
  8
KONTUR
  6
CONTINUOUS
 62
           3
100
AcDbLine
 10
202.128867865507
 20
-140.682967905916
 11
206.195882455208
 21
-140.682967905916
  0
LINE
  5
95
100
AcDbEntity
  8
KONTUR
  6
CONTINUOUS
 62
           3
100
AcDbLine
 10
206.361597194498
 20
-139.088200479786
 11
202.128867865507
 21
-139.088200479786
  0
LINE
  5
94
100
AcDbEntity
  8
KONTUR
  6
CONTINUOUS
 62
           3
100
AcDbLine
 10
206.388946674947
 20
-142.982359783066
 11
206.388946674947
 21
-143.535145831606
  0
LINE
  5
93
100
AcDbEntity
  8
KONTUR
  6
CONTINUOUS
 62
           3
100
AcDbLine
 10
206.388946674947
 20
-143.535145831606
 11
201.451324229847
 21
-143.535145831606
  0
LINE
  5
92
100
AcDbEntity
  8
KONTUR
  6
CONTINUOUS
 62
           3
100
AcDbLine
 10
202.128867865507
 20
-142.982359783066
 11
206.388946674947
 21
-142.982359783066
  0
LINE
  5
91
100
AcDbEntity
  8
KONTUR
  6
CONTINUOUS
 62
           3
100
AcDbLine
 10
201.451324229847
 20
-143.535145831606
 11
201.451324229847
 21
-138.535885670596
  0
LINE
  5
90
100
AcDbEntity
  8
KONTUR
  6
CONTINUOUS
 62
           3
100
AcDbLine
 10
202.128867865507
 20
-141.235754345526
 11
202.128867865507
 21
-142.982359783066
  0
LINE
  5
8F
100
AcDbEntity
  8
KONTUR
  6
CONTINUOUS
 62
           1
100
AcDbLine
 10
152.548175717357
 20
-131.321508472561
 11
153.212018657262
 21
-131.550108608319
  0
LINE
  5
8E
100
AcDbEntity
  8
KONTUR
  6
CONTINUOUS
 62
           3
100
AcDbLine
 10
197.815571990942
 20
-140.863233348878
 11
197.815571990942
 21
-140.890583000761
  0
LINE
  5
8D
100
AcDbEntity
  8
KONTUR
  6
CONTINUOUS
 62
           3
100
AcDbLine
 10
193.706792023141
 20
-140.682968155682
 11
193.706792023141
 21
-139.088200523494
  0
LINE
  5
8C
100
AcDbEntity
  8
KONTUR
  6
CONTINUOUS
 62
           3
100
AcDbLine
 10
190.541642484497
 20
-138.535885670596
 11
190.541642484497
 21
-139.088200479786
  0
LINE
  5
8B
100
AcDbEntity
  8
KONTUR
  6
CONTINUOUS
 62
           3
100
AcDbLine
 10
190.375927745208
 20
-140.682967905916
 11
190.375927745208
 21
-141.235754345526
  0
LINE
  5
8A
100
AcDbEntity
  8
KONTUR
  6
CONTINUOUS
 62
           3
100
AcDbLine
 10
190.568991964947
 20
-142.982359783066
 11
190.568991964947
 21
-143.535145831606
  0
LINE
  5
89
100
AcDbEntity
  8
KONTUR
  6
CONTINUOUS
 62
           3
100
AcDbLine
 10
193.033068675877
 20
-143.535146136498
 11
193.033068675877
 21
-138.535885806896
  0
LINE
  5
88
100
AcDbEntity
  8
KONTUR
  6
CONTINUOUS
 62
           3
100
AcDbLine
 10
193.706792023141
 20
-142.982359824058
 11
193.706792023141
 21
-141.235754469348
  0
LINE
  5
87
100
AcDbEntity
  8
KONTUR
  6
CONTINUOUS
 62
           3
100
AcDbLine
 10
193.706792023141
 20
-142.982359824058
 11
193.706792023141
 21
-141.235754469348
  0
LINE
  5
86
100
AcDbEntity
  8
KONTUR
  6
CONTINUOUS
 62
           3
100
AcDbLine
 10
186.308913155508
 20
-139.088200479786
 11
186.308913155508
 21
-140.682967905916
  0
LINE
  5
85
100
AcDbEntity
  8
KONTUR
  6
CONTINUOUS
 62
           3
100
AcDbLine
 10
182.176690771867
 20
-138.535885670596
 11
182.853291537758
 21
-138.535885670596
  0
LINE
  5
84
100
AcDbEntity
  8
KONTUR
  6
CONTINUOUS
 62
           3
100
AcDbLine
 10
178.617328871032
 20
-141.305004326825
 11
178.617328871032
 21
-141.318611789091
  0
LINE
  5
83
100
AcDbEntity
  8
KONTUR
  6
CONTINUOUS
 62
           3
100
AcDbLine
 10
174.543039104621
 20
-141.008065249242
 11
174.543039104621
 21
-139.088200523494
  0
LINE
  5
82
100
AcDbEntity
  8
KONTUR
  6
CONTINUOUS
 62
           3
100
AcDbLine
 10
173.866438357062
 20
-138.535885755548
 11
177.455282010717
 21
-138.535885755548
  0
LINE
  5
81
100
AcDbEntity
  8
KONTUR
  6
CONTINUOUS
 62
           3
100
AcDbLine
 10
182.853291537758
 20
-143.535145831606
 11
182.176690771867
 21
-143.535145831606
  0
LINE
  5
80
100
AcDbEntity
  8
KONTUR
  6
CONTINUOUS
 62
           3
100
AcDbLine
 10
179.473386447692
 20
-143.535146137723
 11
178.837742814283
 21
-143.535146137723
  0
LINE
  5
7F
100
AcDbEntity
  8
KONTUR
  6
CONTINUOUS
 62
           3
100
AcDbLine
 10
174.543039104621
 20
-143.535146137723
 11
173.866438357062
 21
-143.535146137723
  0
LINE
  5
7E
100
AcDbEntity
  8
KONTUR
  6
CONTINUOUS
 62
           3
100
AcDbLine
 10
173.866438357062
 20
-143.535146137723
 11
173.866438357062
 21
-138.535885755548
  0
LINE
  5
7D
100
AcDbEntity
  8
KONTUR
  6
CONTINUOUS
 62
           3
100
AcDbLine
 10
174.543039104621
 20
-141.560043198814
 11
174.543039104621
 21
-143.535146137723
  0
LINE
  5
7C
100
AcDbEntity
  8
KONTUR
  6
CONTINUOUS
 62
           3
100
AcDbLine
 10
185.632312389618
 20
-143.535145831606
 11
185.632312389618
 21
-138.535885670596
  0
LINE
  5
7B
100
AcDbEntity
  8
KONTUR
  6
CONTINUOUS
 62
           3
100
AcDbLine
 10
186.308913155508
 20
-141.235754345526
 11
186.308913155508
 21
-142.982359783066
  0
LINE
  5
7A
100
AcDbEntity
  8
KONTUR
  6
CONTINUOUS
 62
           3
100
AcDbLine
 10
182.176690771867
 20
-143.535145831606
 11
182.176690771867
 21
-138.535885670596
  0
LINE
  5
79
100
AcDbEntity
  8
KONTUR
  6
CONTINUOUS
 62
           3
100
AcDbLine
 10
182.853291537758
 20
-138.535885670596
 11
182.853291537758
 21
-143.535145831606
  0
LINE
  5
78
100
AcDbEntity
  8
KONTUR
  6
CONTINUOUS
 62
           3
100
AcDbLine
 10
190.568991964947
 20
-143.535145831606
 11
185.632312389618
 21
-143.535145831606
  0
LINE
  5
77
100
AcDbEntity
  8
KONTUR
  6
CONTINUOUS
 62
           3
100
AcDbLine
 10
186.308913155508
 20
-142.982359783066
 11
190.568991964947
 21
-142.982359783066
  0
LINE
  5
76
100
AcDbEntity
  8
KONTUR
  6
CONTINUOUS
 62
           3
100
AcDbLine
 10
185.632312389618
 20
-138.535885670596
 11
190.541642484497
 21
-138.535885670596
  0
LINE
  5
75
100
AcDbEntity
  8
KONTUR
  6
CONTINUOUS
 62
           3
100
AcDbLine
 10
190.375927745208
 20
-141.235754345526
 11
186.308913155508
 21
-141.235754345526
  0
LINE
  5
74
100
AcDbEntity
  8
KONTUR
  6
CONTINUOUS
 62
           3
100
AcDbLine
 10
186.308913155508
 20
-140.682967905916
 11
190.375927745208
 21
-140.682967905916
  0
LINE
  5
73
100
AcDbEntity
  8
KONTUR
  6
CONTINUOUS
 62
           3
100
AcDbLine
 10
190.541642484497
 20
-139.088200479786
 11
186.308913155508
 21
-139.088200479786
  0
LINE
  5
72
100
AcDbEntity
  8
KONTUR
  6
CONTINUOUS
 62
           3
100
AcDbLine
 10
172.386054267237
 20
-138.535885670596
 11
172.386054267237
 21
-139.088200479786
  0
LINE
  5
71
100
AcDbEntity
  8
KONTUR
  6
CONTINUOUS
 62
           3
100
AcDbLine
 10
172.386054267237
 20
-139.088200479786
 11
169.858164881927
 21
-139.088200479786
  0
LINE
  5
70
100
AcDbEntity
  8
KONTUR
  6
CONTINUOUS
 62
           3
100
AcDbLine
 10
166.654214016257
 20
-139.088200479786
 11
166.654214016257
 21
-138.535885670596
  0
LINE
  5
6F
100
AcDbEntity
  8
KONTUR
  6
CONTINUOUS
 62
           3
100
AcDbLine
 10
164.495612423017
 20
-138.535885670596
 11
165.172280452948
 21
-138.535885670596
  0
LINE
  5
6E
100
AcDbEntity
  8
KONTUR
  6
CONTINUOUS
 62
           3
100
AcDbLine
 10
166.654214016257
 20
-138.535885670596
 11
172.386054267237
 21
-138.535885670596
  0
LINE
  5
6D
100
AcDbEntity
  8
KONTUR
  6
CONTINUOUS
 62
           3
100
AcDbLine
 10
169.181564116037
 20
-139.088200479786
 11
166.654214016257
 21
-139.088200479786
  0
LINE
  5
6C
100
AcDbEntity
  8
KONTUR
  6
CONTINUOUS
 62
           3
100
AcDbLine
 10
169.858164881927
 20
-143.535145831606
 11
169.181564116037
 21
-143.535145831606
  0
LINE
  5
6B
100
AcDbEntity
  8
KONTUR
  6
CONTINUOUS
 62
           3
100
AcDbLine
 10
165.172280452948
 20
-143.535145831606
 11
164.164115680397
 21
-143.535145831606
  0
LINE
  5
6A
100
AcDbEntity
  8
KONTUR
  6
CONTINUOUS
 62
           3
100
AcDbLine
 10
165.172280452948
 20
-138.535885670596
 11
165.172280452948
 21
-143.535145831606
  0
LINE
  5
69
100
AcDbEntity
  8
KONTUR
  6
CONTINUOUS
 62
           3
100
AcDbLine
 10
164.495612423017
 20
-142.927660431096
 11
164.495612423017
 21
-138.535885670596
  0
LINE
  5
68
100
AcDbEntity
  8
KONTUR
  6
CONTINUOUS
 62
           3
100
AcDbLine
 10
169.181564116037
 20
-143.535145831606
 11
169.181564116037
 21
-139.088200479786
  0
LINE
  5
67
100
AcDbEntity
  8
KONTUR
  6
CONTINUOUS
 62
           3
100
AcDbLine
 10
169.858164881927
 20
-139.088200479786
 11
169.858164881927
 21
-143.535145831606
  0
LINE
  5
66
100
AcDbEntity
  8
KONTUR
  6
CONTINUOUS
 62
           4
100
AcDbLine
 10
158.514009699323
 20
-133.499325187037
 11
157.97779265741
 21
-135.056538846976
  0
LINE
  5
65
100
AcDbEntity
  8
KONTUR
  6
CONTINUOUS
 62
           3
100
AcDbLine
 10
158.909210322897
 20
-138.535885670596
 11
159.917442359487
 21
-138.535885670596
  0
LINE
  5
64
100
AcDbEntity
  8
KONTUR
  6
CONTINUOUS
 62
           3
100
AcDbLine
 10
153.629716830217
 20
-138.535885670596
 11
154.472301782627
 21
-138.535885670596
  0
LINE
  5
63
100
AcDbEntity
  8
KONTUR
  6
CONTINUOUS
 62
           3
100
AcDbLine
 10
159.586012880907
 20
-143.535145831606
 11
158.909210322897
 21
-143.535145831606
  0
LINE
  5
62
100
AcDbEntity
  8
KONTUR
  6
CONTINUOUS
 62
           3
100
AcDbLine
 10
157.441422934698
 20
-143.535146222676
 11
156.674958975647
 21
-143.535146222676
  0
LINE
  5
61
100
AcDbEntity
  8
KONTUR
  6
CONTINUOUS
 62
           3
100
AcDbLine
 10
156.674958975647
 20
-143.535146222676
 11
156.053596456187
 21
-142.478748831676
  0
LINE
  5
60
100
AcDbEntity
  8
KONTUR
  6
CONTINUOUS
 62
           3
100
AcDbLine
 10
152.048556684737
 20
-142.478748831676
 11
151.426991982087
 21
-143.535146222676
  0
LINE
  5
5F
100
AcDbEntity
  8
KONTUR
  6
CONTINUOUS
 62
           3
100
AcDbLine
 10
151.426991982087
 20
-143.535146222676
 11
150.660460758997
 21
-143.535146222676
  0
LINE
  5
5E
100
AcDbEntity
  8
KONTUR
  6
CONTINUOUS
 62
           4
100
AcDbLine
 10
149.727294495718
 20
-145.982441805975
 11
149.060051448778
 21
-147.919879119592
  0
LINE
  5
5D
100
AcDbEntity
  8
KONTUR
  6
CONTINUOUS
 62
           3
100
AcDbLine
 10
156.053596456187
 20
-142.478748831676
 11
152.048556684737
 21
-142.478748831676
  0
LINE
  5
5C
100
AcDbEntity
  8
KONTUR
  6
CONTINUOUS
 62
           3
100
AcDbLine
 10
155.728970813467
 20
-141.926097311216
 11
152.372980144267
 21
-141.926097311216
  0
LINE
  5
5B
100
AcDbEntity
  8
KONTUR
  6
CONTINUOUS
 62
           3
100
AcDbLine
 10
154.472301782627
 20
-138.535885670596
 11
157.441422934698
 21
-143.535146222676
  0
LINE
  5
5A
100
AcDbEntity
  8
KONTUR
  6
CONTINUOUS
 62
           3
100
AcDbLine
 10
150.660460758997
 20
-143.535146222676
 11
153.629716830217
 21
-138.535885670596
  0
LINE
  5
59
100
AcDbEntity
  8
KONTUR
  6
CONTINUOUS
 62
           3
100
AcDbLine
 10
152.372980144267
 20
-141.926097311216
 11
154.051076765997
 21
-139.088200479786
  0
LINE
  5
58
100
AcDbEntity
  8
KONTUR
  6
CONTINUOUS
 62
           3
100
AcDbLine
 10
154.051076765997
 20
-139.088200479786
 11
155.728970813467
 21
-141.926097311216
  0
LINE
  5
57
100
AcDbEntity
  8
KONTUR
  6
CONTINUOUS
 62
           3
100
AcDbLine
 10
158.909210322897
 20
-143.535145831606
 11
158.909210322897
 21
-138.535885670596
  0
LINE
  5
56
100
AcDbEntity
  8
KONTUR
  6
CONTINUOUS
 62
           3
100
AcDbLine
 10
159.586012880907
 20
-139.143505990256
 11
159.586012880907
 21
-143.535145831606
  0
LINE
  5
55
100
AcDbEntity
  8
KONTUR
  6
CONTINUOUS
 62
           3
100
AcDbLine
 10
164.164115680397
 20
-143.535145831606
 11
159.586012880907
 21
-139.143505990256
  0
LINE
  5
54
100
AcDbEntity
  8
KONTUR
  6
CONTINUOUS
 62
           3
100
AcDbLine
 10
159.917442359487
 20
-138.535885670596
 11
164.495612423017
 21
-142.927660431096
  0
LINE
  5
53
100
AcDbEntity
  8
KONTUR
  6
CONTINUOUS
 62
           1
100
AcDbLine
 10
142.456788292313
 20
-135.626565582014
 11
142.68276563762
 21
-134.970113514255
  0
LINE
  5
52
100
AcDbEntity
  8
KONTUR
  6
CONTINUOUS
 62
           2
100
AcDbLine
 10
145.310842158197
 20
-138.535885670596
 11
145.310842158197
 21
-139.737316846076
  0
LINE
  5
51
100
AcDbEntity
  8
KONTUR
  6
CONTINUOUS
 62
           2
100
AcDbLine
 10
143.046007963737
 20
-139.751328493106
 11
143.046007963737
 21
-139.737316846076
  0
LINE
  5
50
100
AcDbEntity
  8
KONTUR
  6
CONTINUOUS
 62
           2
100
AcDbLine
 10
139.558859846867
 20
-139.737316846076
 11
139.558859846867
 21
-138.535885670596
  0
LINE
  5
4F
100
AcDbEntity
  8
KONTUR
  6
CONTINUOUS
 62
           2
100
AcDbLine
 10
135.887876371187
 20
-139.751328493106
 11
135.887876371187
 21
-139.737316846076
  0
LINE
  5
4E
100
AcDbEntity
  8
KONTUR
  6
CONTINUOUS
 62
           2
100
AcDbLine
 10
138.152710565647
 20
-138.535885670596
 11
138.152710565647
 21
-139.737316846076
  0
LINE
  5
4D
100
AcDbEntity
  8
KONTUR
  6
CONTINUOUS
 62
           2
100
AcDbLine
 10
139.558859846867
 20
-138.535885670596
 11
145.310842158197
 21
-138.535885670596
  0
LINE
  5
4C
100
AcDbEntity
  8
KONTUR
  6
CONTINUOUS
 62
           2
100
AcDbLine
 10
143.046007963737
 20
-139.737316846076
 11
139.558859846867
 21
-139.737316846076
  0
LINE
  5
4B
100
AcDbEntity
  8
KONTUR
  6
CONTINUOUS
 62
           2
100
AcDbLine
 10
145.393699332307
 20
-142.333916839316
 11
145.393699332307
 21
-143.535145831606
  0
LINE
  5
4A
100
AcDbEntity
  8
KONTUR
  6
CONTINUOUS
 62
           2
100
AcDbLine
 10
141.733965767317
 20
-142.319501216976
 11
141.733965767317
 21
-142.333916839316
  0
LINE
  5
49
100
AcDbEntity
  8
KONTUR
  6
CONTINUOUS
 62
           2
100
AcDbLine
 10
141.733965767317
 20
-142.333916839316
 11
145.393699332307
 21
-142.333916839316
  0
LINE
  5
48
100
AcDbEntity
  8
KONTUR
  6
CONTINUOUS
 62
           2
100
AcDbLine
 10
139.462125553807
 20
-143.535145831606
 11
139.462125553807
 21
-142.333916839316
  0
LINE
  5
47
100
AcDbEntity
  8
KONTUR
  6
CONTINUOUS
 62
           2
100
AcDbLine
 10
138.235567739757
 20
-142.333916839316
 11
138.235567739757
 21
-143.535145831606
  0
LINE
  5
46
100
AcDbEntity
  8
KONTUR
  6
CONTINUOUS
 62
           2
100
AcDbLine
 10
145.393699332307
 20
-143.535145831606
 11
139.462125553807
 21
-143.535145831606
  0
LINE
  5
45
100
AcDbEntity
  8
KONTUR
  6
CONTINUOUS
 62
           2
100
AcDbLine
 10
139.462125553807
 20
-142.333916839316
 11
143.046007963737
 21
-139.751328493106
  0
LINE
  5
44
100
AcDbEntity
  8
KONTUR
  6
CONTINUOUS
 62
           2
100
AcDbLine
 10
145.310842158197
 20
-139.737316846076
 11
141.733965767317
 21
-142.319501216976
  0
LINE
  5
43
100
AcDbEntity
  8
KONTUR
  6
CONTINUOUS
 62
           2
100
AcDbLine
 10
132.400526462197
 20
-139.737316846076
 11
132.400526462197
 21
-138.535885670596
  0
LINE
  5
42
100
AcDbEntity
  8
KONTUR
  6
CONTINUOUS
 62
           2
100
AcDbLine
 10
134.575834174767
 20
-142.319501216976
 11
134.575834174767
 21
-142.333916839316
  0
LINE
  5
41
100
AcDbEntity
  8
KONTUR
  6
CONTINUOUS
 62
           2
100
AcDbLine
 10
132.303994352327
 20
-143.535145831606
 11
132.303994352327
 21
-142.333916839316
  0
LINE
  5
40
100
AcDbEntity
  8
KONTUR
  6
CONTINUOUS
 62
           2
100
AcDbLine
 10
138.235567739757
 20
-143.535145831606
 11
132.303994352327
 21
-143.535145831606
  0
LINE
  5
3F
100
AcDbEntity
  8
KONTUR
  6
CONTINUOUS
 62
           2
100
AcDbLine
 10
134.575834174767
 20
-142.333916839316
 11
138.235567739757
 21
-142.333916839316
  0
LINE
  5
3E
100
AcDbEntity
  8
KONTUR
  6
CONTINUOUS
 62
           2
100
AcDbLine
 10
138.152710565647
 20
-139.737316846076
 11
134.575834174767
 21
-142.319501216976
  0
LINE
  5
3D
100
AcDbEntity
  8
KONTUR
  6
CONTINUOUS
 62
           2
100
AcDbLine
 10
132.400526462197
 20
-138.535885670596
 11
138.152710565647
 21
-138.535885670596
  0
LINE
  5
3C
100
AcDbEntity
  8
KONTUR
  6
CONTINUOUS
 62
           2
100
AcDbLine
 10
132.303994352327
 20
-142.333916839316
 11
135.887876371187
 21
-139.751328493106
  0
LINE
  5
3B
100
AcDbEntity
  8
KONTUR
  6
CONTINUOUS
 62
           2
100
AcDbLine
 10
135.887876371187
 20
-139.737316846076
 11
132.400526462197
 21
-139.737316846076
  0
LINE
  5
3A
100
AcDbEntity
  8
1
  6
CONTINUOUS
 62
           3
100
AcDbLine
 10
227.841162285886
 20
-149.917954070049
 11
110.841162285885
 21
-149.917954070049
  0
LINE
  5
39
100
AcDbEntity
  8
1
  6
CONTINUOUS
 62
           2
100
AcDbLine
 10
227.841162285886
 20
-169.917954070049
 11
227.841162285886
 21
-33.917954070049
  0
LINE
  5
38
100
AcDbEntity
  8
1
  6
CONTINUOUS
 62
           3
100
AcDbLine
 10
110.841162285886
 20
-129.917954070049
 11
227.841162285886
 21
-129.917954070049
  0
LINE
  5
37
100
AcDbEntity
  8
1
  6
CONTINUOUS
 62
           2
100
AcDbLine
 10
110.841162285885
 20
-33.917954070049
 11
110.841162285885
 21
-169.917954070049
  0
LINE
  5
36
100
AcDbEntity
  8
1
  6
CONTINUOUS
 62
           3
100
AcDbLine
 10
110.841162285885
 20
-49.917954070049
 11
227.841162285886
 21
-49.917954070049
  0
LINE
  5
35
100
AcDbEntity
  8
1
  6
CONTINUOUS
 62
           2
100
AcDbLine
 10
227.841162285886
 20
-33.917954070049
 11
110.841162285885
 21
-33.917954070049
  0
LINE
  5
34
100
AcDbEntity
  8
1
  6
CONTINUOUS
 62
           2
100
AcDbLine
 10
110.841162285885
 20
-169.917954070049
 11
227.841162285886
 21
-169.917954070049
  0
LINE
  5
33
100
AcDbEntity
  8
1
  6
CONTINUOUS
 62
           3
100
AcDbLine
 10
-161.158837714114
 20
111.082045929951
 11
-161.158837714114
 21
110.382045929951
  0
LINE
  5
32
100
AcDbEntity
  8
1
  6
CONTINUOUS
 62
           3
100
AcDbLine
 10
-161.158837714114
 20
-175.917954070049
 11
-161.158837714114
 21
-175.217954070049
  0
LINE
  5
31
100
AcDbEntity
  8
1
  6
CONTINUOUS
 62
           6
100
AcDbLine
 10
233.841162285886
 20
-175.917954070049
 11
233.841162285886
 21
111.082045929951
  0
LINE
  5
30
100
AcDbEntity
  8
1
  6
CONTINUOUS
 62
           6
100
AcDbLine
 10
-176.158837714114
 20
-175.917954070049
 11
-176.158837714114
 21
111.082045929951
  0
LINE
  5
2F
100
AcDbEntity
  8
1
  6
CONTINUOUS
 62
           6
100
AcDbLine
 10
-176.158837714114
 20
111.082045929951
 11
233.841162285886
 21
111.082045929951
  0
LINE
  5
2E
100
AcDbEntity
  8
1
  6
CONTINUOUS
 62
           6
100
AcDbLine
 10
-176.158837714114
 20
-175.917954070049
 11
233.841162285886
 21
-175.917954070049
  0
ENDBLK
  5
197
100
AcDbEntity
  8
0
100
AcDbBlockEnd
  0
BLOCK
  5
29
100
AcDbEntity
  8
0
100
AcDbBlockBegin
  2
GETRIEBE
 70
           0
 10
-212.906694427027
 20
-202.120293757354
 30
0.0
  3
GETRIEBE
  1

  0
HATCH
  5
297
100
AcDbEntity
  8
0
  6
CONTINUOUS
 62
           3
100
AcDbHatch
 10
0.0
 20
0.0
 30
0.0
210
0.0
220
0.0
230
1.0
  2
USER
 70
           0
 71
           1
 91
        1
 92
        1
 93
        4
 72
           1
 10
-52.392669162666763
 20
-98.44080183304267
 11
-42.000364317253933
 21
-104.4408018330427
 72
           1
 10
-96.00036431725249
 20
-104.4408018330427
 11
-42.000364317253933
 21
-104.4408018330427
 72
           1
 10
-96.00036431725249
 20
-104.4408018330427
 11
-85.608059471839198
 21
-98.44080183304267
 72
           1
 10
-85.608059471839198
 20
-98.44080183304267
 11
-52.392669162666763
 21
-98.44080183304267
 97
        4
330
198
330
19A
330
19B
330
199
 75
           1
 76
           0
 52
0.0
 41
0.25
 77
           0
 78
           1
 53
0.0
 43
0.0
 44
0.0
 45
0.0
 46
0.25
 79
           0
 98
        1
 10
0.0
 20
0.0
  0
HATCH
  5
296
100
AcDbEntity
  8
0
  6
CONTINUOUS
 62
           3
100
AcDbHatch
 10
0.0
 20
0.0
 30
0.0
210
0.0
220
0.0
230
1.0
  2
USER
 70
           0
 71
           1
 91
        1
 92
        1
 93
        4
 72
           1
 10
-93.000364317252419
 20
-74.99593810437139
 11
-93.000364317252476
 21
-99.244649410336066
 72
           1
 10
-93.000364317252476
 20
-99.244649410336066
 11
-99.00036431725249
 21
-102.7087510254738
 72
           1
 10
-99.00036431725249
 20
-102.7087510254738
 11
-99.000364317252405
 21
-71.531836489233484
 72
           1
 10
-99.000364317252405
 20
-71.531836489233484
 11
-93.000364317252419
 21
-74.99593810437139
 97
        4
330
19E
330
19D
330
19C
330
19F
 75
           1
 76
           0
 52
0.0
 41
0.25
 77
           0
 78
           1
 53
0.0
 43
0.0
 44
0.0
 45
0.0
 46
0.25
 79
           0
 98
        1
 10
0.0
 20
0.0
  0
ARC
  5
295
100
AcDbEntity
  8
1
  6
CONTINUOUS
 62
           2
100
AcDbCircle
 10
-42.976500709876
 20
-139.620293757354
 40
0.5
100
AcDbArc
 50
-90.0
 51
0.0
  0
ARC
  5
294
100
AcDbEntity
  8
1
  6
CONTINUOUS
 62
           2
100
AcDbCircle
 10
-50.476500709876
 20
-139.620293757354
 40
0.5
100
AcDbArc
 50
180.0
 51
-90.0
  0
ARC
  5
293
100
AcDbEntity
  8
1
  6
CONTINUOUS
 62
           2
100
AcDbCircle
 10
-87.524227924628
 20
-139.620293757354
 40
0.5
100
AcDbArc
 50
-90.0
 51
0.0
  0
ARC
  5
292
100
AcDbEntity
  8
1
  6
CONTINUOUS
 62
           2
100
AcDbCircle
 10
-95.024227924628
 20
-139.620293757354
 40
0.5
100
AcDbArc
 50
180.0
 51
-90.0
  0
ARC
  5
291
100
AcDbEntity
  8
1
  6
CONTINUOUS
 62
           2
100
AcDbCircle
 10
249.713516471511
 20
103.958233872165
 40
0.5
100
AcDbArc
 50
-90.0
 51
0.0
  0
ARC
  5
290
100
AcDbEntity
  8
1
  6
CONTINUOUS
 62
           2
100
AcDbCircle
 10
249.713516471511
 20
111.458233872165
 40
0.5
100
AcDbArc
 50
0.0
 51
90.0
  0
ARC
  5
28F
100
AcDbEntity
  8
1
  6
CONTINUOUS
 62
           2
100
AcDbCircle
 10
249.713516471511
 20
59.410506657413
 40
0.5
100
AcDbArc
 50
-90.0
 51
0.0
  0
ARC
  5
28E
100
AcDbEntity
  8
1
  6
CONTINUOUS
 62
           2
100
AcDbCircle
 10
249.713516471511
 20
66.910506657413
 40
0.5
100
AcDbArc
 50
0.0
 51
90.0
  0
CIRCLE
  5
28D
100
AcDbEntity
  8
1
  6
CONTINUOUS
 62
           2
100
AcDbCircle
 10
227.213516471511
 20
55.434370264789
 40
2.4
  0
CIRCLE
  5
28C
100
AcDbEntity
  8
1
  6
CONTINUOUS
 62
           2
100
AcDbCircle
 10
167.213516471511
 20
55.434370264789
 40
2.4
  0
CIRCLE
  5
28B
100
AcDbEntity
  8
1
  6
CONTINUOUS
 62
           2
100
AcDbCircle
 10
167.213516471511
 20
115.434370264789
 40
2.4
  0
CIRCLE
  5
28A
100
AcDbEntity
  8
1
  6
CONTINUOUS
 62
           2
100
AcDbCircle
 10
227.213516471511
 20
115.434370264789
 40
2.4
  0
CIRCLE
  5
289
100
AcDbEntity
  8
1
  6
CONTINUOUS
 62
           2
100
AcDbCircle
 10
197.213516471511
 20
85.434370264789
 40
11.0
  0
CIRCLE
  5
288
100
AcDbEntity
  8
1
  6
CONTINUOUS
 62
           2
100
AcDbCircle
 10
197.213516471511
 20
85.434370264789
 40
37.0
  0
CIRCLE
  5
287
100
AcDbEntity
  8
1
  6
CONTINUOUS
 62
           2
100
AcDbCircle
 10
197.213516471511
 20
85.434370264789
 40
16.0
  0
CIRCLE
  5
286
100
AcDbEntity
  8
1
  6
CONTINUOUS
 62
           2
100
AcDbCircle
 10
-99.000364317252
 20
115.434370264789
 40
2.4
  0
CIRCLE
  5
285
100
AcDbEntity
  8
1
  6
CONTINUOUS
 62
           2
100
AcDbCircle
 10
-99.000364317252
 20
55.434370264789
 40
2.4
  0
CIRCLE
  5
284
100
AcDbEntity
  8
1
  6
CONTINUOUS
 62
           2
100
AcDbCircle
 10
-39.000364317252
 20
115.434370264789
 40
2.4
  0
CIRCLE
  5
283
100
AcDbEntity
  8
1
  6
CONTINUOUS
 62
           2
100
AcDbCircle
 10
-39.000364317252
 20
55.434370264789
 40
2.4
  0
CIRCLE
  5
282
100
AcDbEntity
  8
1
  6
CONTINUOUS
 62
           2
100
AcDbCircle
 10
-69.000364317252
 20
85.434370264789
 40
26.0
  0
CIRCLE
  5
281
100
AcDbEntity
  8
1
  6
CONTINUOUS
 62
           2
100
AcDbCircle
 10
-69.000364317252
 20
85.434370264789
 40
37.0
  0
CIRCLE
  5
280
100
AcDbEntity
  8
1
  6
CONTINUOUS
 62
           2
100
AcDbCircle
 10
-69.000364317252
 20
85.434370264789
 40
20.0
  0
CIRCLE
  5
27F
100
AcDbEntity
  8
1
  6
CONTINUOUS
 62
           2
100
AcDbCircle
 10
-99.000364317252
 20
-117.120293757354
 40
2.4
  0
CIRCLE
  5
27E
100
AcDbEntity
  8
1
  6
CONTINUOUS
 62
           2
100
AcDbCircle
 10
-99.000364317252
 20
-57.120293757354
 40
2.4
  0
CIRCLE
  5
27D
100
AcDbEntity
  8
1
  6
CONTINUOUS
 62
           2
100
AcDbCircle
 10
-39.000364317253
 20
-57.120293757354
 40
2.4
  0
CIRCLE
  5
27C
100
AcDbEntity
  8
1
  6
CONTINUOUS
 62
           2
100
AcDbCircle
 10
-39.000364317253
 20
-117.120293757354
 40
2.4
  0
CIRCLE
  5
27B
100
AcDbEntity
  8
1
  6
CONTINUOUS
 62
           2
100
AcDbCircle
 10
-46.726500709876
 20
63.160506657413
 40
4.25
  0
CIRCLE
  5
27A
100
AcDbEntity
  8
1
  6
CONTINUOUS
 62
           2
100
AcDbCircle
 10
-91.274227924629
 20
63.160506657413
 40
4.25
  0
CIRCLE
  5
279
100
AcDbEntity
  8
1
  6
CONTINUOUS
 62
           2
100
AcDbCircle
 10
-91.274227924629
 20
107.708233872165
 40
4.25
  0
CIRCLE
  5
278
100
AcDbEntity
  8
1
  6
CONTINUOUS
 62
           2
100
AcDbCircle
 10
-46.726500709876
 20
107.708233872165
 40
4.25
  0
ARC
  5
277
100
AcDbEntity
  8
1
  6
CONTINUOUS
 62
           2
100
AcDbCircle
 10
-69.000364317252
 20
-192.120293757354
 40
2.5
100
AcDbArc
 50
180.0
 51
0.0
  0
ARC
  5
276
100
AcDbEntity
  8
1
  6
CONTINUOUS
 62
           2
100
AcDbCircle
 10
-69.000364317252
 20
-172.120293757354
 40
2.5
100
AcDbArc
 50
0.0
 51
180.0
  0
ARC
  5
275
100
AcDbEntity
  8
1
  6
CONTINUOUS
 62
           3
100
AcDbCircle
 10
227.213516471511
 20
55.434370264789
 40
3.0
100
AcDbArc
 50
170.0
 51
100.000000000002
  0
ARC
  5
274
100
AcDbEntity
  8
1
  6
CONTINUOUS
 62
           3
100
AcDbCircle
 10
167.213516471511
 20
55.434370264789
 40
3.0
100
AcDbArc
 50
170.0
 51
100.000000000002
  0
ARC
  5
273
100
AcDbEntity
  8
1
  6
CONTINUOUS
 62
           3
100
AcDbCircle
 10
167.213516471511
 20
115.434370264789
 40
3.0
100
AcDbArc
 50
170.000000000002
 51
100.000000000002
  0
ARC
  5
272
100
AcDbEntity
  8
1
  6
CONTINUOUS
 62
           3
100
AcDbCircle
 10
227.213516471511
 20
115.434370264789
 40
3.0
100
AcDbArc
 50
170.000000000001
 51
100.0
  0
ARC
  5
271
100
AcDbEntity
  8
1
  6
CONTINUOUS
 62
           2
100
AcDbCircle
 10
197.213516471511
 20
85.434370264789
 40
7.0
100
AcDbArc
 50
110.924832427638
 51
69.075167572361
  0
ARC
  5
270
100
AcDbEntity
  8
1
  6
CONTINUOUS
 62
           2
100
AcDbCircle
 10
197.213516471511
 20
85.434370264789
 40
7.0
100
AcDbArc
 50
69.075167572361
 51
110.924832427638
  0
ARC
  5
26F
100
AcDbEntity
  8
1
  6
CONTINUOUS
 62
           3
100
AcDbCircle
 10
-99.000364317252
 20
115.434370264789
 40
3.0
100
AcDbArc
 50
170.000000000001
 51
100.0
  0
ARC
  5
26E
100
AcDbEntity
  8
1
  6
CONTINUOUS
 62
           3
100
AcDbCircle
 10
-99.000364317252
 20
55.434370264789
 40
3.0
100
AcDbArc
 50
170.0
 51
100.0
  0
ARC
  5
26D
100
AcDbEntity
  8
1
  6
CONTINUOUS
 62
           3
100
AcDbCircle
 10
-39.000364317252
 20
115.434370264789
 40
3.0
100
AcDbArc
 50
170.000000000001
 51
100.000000000001
  0
ARC
  5
26C
100
AcDbEntity
  8
1
  6
CONTINUOUS
 62
           3
100
AcDbCircle
 10
-39.000364317252
 20
55.434370264789
 40
3.0
100
AcDbArc
 50
170.0
 51
100.000000000001
  0
ARC
  5
26B
100
AcDbEntity
  8
1
  6
CONTINUOUS
 62
           2
100
AcDbCircle
 10
-69.000364317252
 20
85.434370264789
 40
8.5
100
AcDbArc
 50
107.104635176644
 51
72.895364823356
  0
ARC
  5
26A
100
AcDbEntity
  8
1
  6
CONTINUOUS
 62
           2
100
AcDbCircle
 10
-69.000364317252
 20
85.434370264789
 40
7.0
100
AcDbArc
 50
110.924832427638
 51
69.075167572361
  0
ARC
  5
269
100
AcDbEntity
  8
1
  6
CONTINUOUS
 62
           2
100
AcDbCircle
 10
-69.000364317252
 20
85.434370264789
 40
7.0
100
AcDbArc
 50
69.075167572361
 51
110.924832427638
  0
ARC
  5
268
100
AcDbEntity
  8
1
  6
CONTINUOUS
 62
           3
100
AcDbCircle
 10
-99.000364317252
 20
-117.120293757354
 40
3.0
100
AcDbArc
 50
169.999999999999
 51
100.0
  0
ARC
  5
267
100
AcDbEntity
  8
1
  6
CONTINUOUS
 62
           3
100
AcDbCircle
 10
-99.000364317252
 20
-57.120293757354
 40
3.0
100
AcDbArc
 50
169.999999999999
 51
100.0
  0
ARC
  5
266
100
AcDbEntity
  8
1
  6
CONTINUOUS
 62
           3
100
AcDbCircle
 10
-39.000364317253
 20
-57.120293757354
 40
3.0
100
AcDbArc
 50
169.999999999998
 51
99.999999999998
  0
ARC
  5
265
100
AcDbEntity
  8
1
  6
CONTINUOUS
 62
           3
100
AcDbCircle
 10
-39.000364317253
 20
-117.120293757354
 40
3.0
100
AcDbArc
 50
169.999999999999
 51
99.999999999998
  0
ARC
  5
264
100
AcDbEntity
  8
1
  6
CONTINUOUS
 62
           2
100
AcDbCircle
 10
14.499635682748
 20
-87.120293757354
 40
2.5
100
AcDbArc
 50
-90.0
 51
90.0
  0
ARC
  5
263
100
AcDbEntity
  8
1
  6
CONTINUOUS
 62
           2
100
AcDbCircle
 10
-5.500364317252
 20
-87.120293757354
 40
2.5
100
AcDbArc
 50
90.0
 51
-90.0
  0
ARC
  5
262
100
AcDbEntity
  8
1
  6
CONTINUOUS
 62
           2
100
AcDbCircle
 10
-152.500364317252
 20
-87.120293757354
 40
2.5
100
AcDbArc
 50
90.0
 51
-90.0
  0
ARC
  5
261
100
AcDbEntity
  8
1
  6
CONTINUOUS
 62
           2
100
AcDbCircle
 10
-132.500364317252
 20
-87.120293757354
 40
2.5
100
AcDbArc
 50
-90.0
 51
90.0
  0
LINE
  5
260
100
AcDbEntity
  8
1
  6
DOT_CENTER
 62
           3
100
AcDbLine
 10
-69.000364317252
 20
-202.120293757354
 11
-69.000364317252
 21
-45.756478888941
  0
LINE
  5
25F
100
AcDbEntity
  8
1
  6
CONTINUOUS
 62
           2
100
AcDbLine
 10
-76.000364317253
 20
-197.120293757354
 11
-76.000364317253
 21
-167.120293757354
  0
LINE
  5
25E
100
AcDbEntity
  8
1
  6
CONTINUOUS
 62
           2
100
AcDbLine
 10
-62.000364317253
 20
-197.120293757354
 11
-62.000364317253
 21
-167.120293757354
  0
LINE
  5
25D
100
AcDbEntity
  8
1
  6
CONTINUOUS
 62
           2
100
AcDbLine
 10
-76.000364317253
 20
-197.120293757354
 11
-62.000364317253
 21
-197.120293757354
  0
LINE
  5
25C
100
AcDbEntity
  8
1
  6
CONTINUOUS
 62
           2
100
AcDbLine
 10
-60.500364317253
 20
-166.120293757354
 11
-60.500364317253
 21
-167.120293757354
  0
LINE
  5
25B
100
AcDbEntity
  8
1
  6
CONTINUOUS
 62
           2
100
AcDbLine
 10
-76.000364317253
 20
-167.120293757354
 11
-77.500364317253
 21
-167.120293757354
  0
LINE
  5
25A
100
AcDbEntity
  8
1
  6
CONTINUOUS
 62
           2
100
AcDbLine
 10
-69.000364317253
 20
-167.120293757354
 11
-76.000364317253
 21
-167.120293757354
  0
LINE
  5
259
100
AcDbEntity
  8
1
  6
CONTINUOUS
 62
           2
100
AcDbLine
 10
-77.500364317253
 20
-167.120293757354
 11
-77.500364317253
 21
-166.120293757354
  0
LINE
  5
258
100
AcDbEntity
  8
1
  6
CONTINUOUS
 62
           2
100
AcDbLine
 10
-60.500364317253
 20
-167.120293757354
 11
-62.000364317253
 21
-167.120293757354
  0
LINE
  5
257
100
AcDbEntity
  8
1
  6
CONTINUOUS
 62
           2
100
AcDbLine
 10
-62.000364317253
 20
-167.120293757354
 11
-69.000364317253
 21
-167.120293757354
  0
LINE
  5
256
100
AcDbEntity
  8
1
  6
CONTINUOUS
 62
           2
100
AcDbLine
 10
-66.500364317253
 20
-172.120293757354
 11
-66.500364317253
 21
-192.120293757354
  0
LINE
  5
255
100
AcDbEntity
  8
1
  6
CONTINUOUS
 62
           2
100
AcDbLine
 10
-71.500364317253
 20
-172.120293757354
 11
-71.500364317253
 21
-192.120293757354
  0
LINE
  5
254
100
AcDbEntity
  8
1
  6
CONTINUOUS
 62
           2
100
AcDbLine
 10
-43.000364317253
 20
-166.120293757354
 11
-43.000364317253
 21
-140.120293757354
  0
LINE
  5
253
100
AcDbEntity
  8
1
  6
CONTINUOUS
 62
           2
100
AcDbLine
 10
-95.000364317253
 20
-166.120293757354
 11
-95.000364317253
 21
-140.120293757354
  0
LINE
  5
252
100
AcDbEntity
  8
1
  6
CONTINUOUS
 62
           2
100
AcDbLine
 10
-43.000364317253
 20
-166.120293757354
 11
-95.000364317253
 21
-166.120293757354
  0
LINE
  5
251
100
AcDbEntity
  8
1
  6
DOT_CENTER
 62
           3
100
AcDbLine
 10
24.499635682747
 20
-87.120293757354
 11
-160.406694427027
 21
-87.120293757354
  0
LINE
  5
250
100
AcDbEntity
  8
1
  6
DOT_CENTER
 62
           3
100
AcDbLine
 10
21.094844302988
 20
85.434370264789
 11
-160.104661736702
 21
85.434370264789
  0
LINE
  5
24F
100
AcDbEntity
  8
1
  6
DOT_CENTER
 62
           3
100
AcDbLine
 10
312.213516471511
 20
85.434370264789
 11
155.436208717744
 21
85.434370264789
  0
LINE
  5
24E
100
AcDbEntity
  8
1
  6
DOT_CENTER
 62
           3
100
AcDbLine
 10
-69.000364317252
 20
130.434370264789
 11
-69.000364317252
 21
43.568477694295
  0
LINE
  5
24D
100
AcDbEntity
  8
1
  6
DOT_CENTER
 62
           3
100
AcDbLine
 10
230.513516471511
 20
55.434370264789
 11
223.913516471511
 21
55.434370264789
  0
LINE
  5
24C
100
AcDbEntity
  8
1
  6
DOT_CENTER
 62
           3
100
AcDbLine
 10
227.213516471511
 20
58.734370264789
 11
227.213516471511
 21
52.134370264789
  0
LINE
  5
24B
100
AcDbEntity
  8
1
  6
DOT_CENTER
 62
           3
100
AcDbLine
 10
170.513516471511
 20
55.434370264789
 11
163.913516471511
 21
55.434370264789
  0
LINE
  5
24A
100
AcDbEntity
  8
1
  6
DOT_CENTER
 62
           3
100
AcDbLine
 10
167.213516471511
 20
58.734370264789
 11
167.213516471511
 21
52.134370264789
  0
LINE
  5
249
100
AcDbEntity
  8
1
  6
DOT_CENTER
 62
           3
100
AcDbLine
 10
170.513516471511
 20
115.434370264789
 11
163.913516471511
 21
115.434370264789
  0
LINE
  5
248
100
AcDbEntity
  8
1
  6
DOT_CENTER
 62
           3
100
AcDbLine
 10
167.213516471511
 20
118.734370264789
 11
167.213516471511
 21
112.134370264789
  0
LINE
  5
247
100
AcDbEntity
  8
1
  6
DOT_CENTER
 62
           3
100
AcDbLine
 10
230.513516471511
 20
115.434370264789
 11
223.913516471511
 21
115.434370264789
  0
LINE
  5
246
100
AcDbEntity
  8
1
  6
DOT_CENTER
 62
           3
100
AcDbLine
 10
227.213516471511
 20
118.734370264789
 11
227.213516471511
 21
112.134370264789
  0
LINE
  5
245
100
AcDbEntity
  8
1
  6
CONTINUOUS
 62
           2
100
AcDbLine
 10
237.213516471511
 20
45.434370264789
 11
237.213516471511
 21
125.434370264789
  0
LINE
  5
244
100
AcDbEntity
  8
1
  6
CONTINUOUS
 62
           2
100
AcDbLine
 10
157.213516471511
 20
45.434370264789
 11
237.213516471511
 21
45.434370264789
  0
LINE
  5
243
100
AcDbEntity
  8
1
  6
CONTINUOUS
 62
           2
100
AcDbLine
 10
237.213516471511
 20
125.434370264789
 11
157.213516471511
 21
125.434370264789
  0
LINE
  5
242
100
AcDbEntity
  8
1
  6
CONTINUOUS
 62
           2
100
AcDbLine
 10
157.213516471511
 20
125.434370264789
 11
157.213516471511
 21
45.434370264789
  0
LINE
  5
241
100
AcDbEntity
  8
1
  6
DOT_CENTER
 62
           3
100
AcDbLine
 10
197.213516471511
 20
130.434370264789
 11
197.213516471511
 21
40.434370264789
  0
LINE
  5
240
100
AcDbEntity
  8
1
  6
CONTINUOUS
 62
           2
100
AcDbLine
 10
277.213516471511
 20
78.434370264789
 11
307.213516471511
 21
78.434370264789
  0
LINE
  5
23F
100
AcDbEntity
  8
1
  6
CONTINUOUS
 62
           2
100
AcDbLine
 10
307.213516471511
 20
92.434370264789
 11
307.213516471511
 21
78.434370264789
  0
LINE
  5
23E
100
AcDbEntity
  8
1
  6
CONTINUOUS
 62
           2
100
AcDbLine
 10
277.213516471511
 20
92.434370264789
 11
307.213516471511
 21
92.434370264789
  0
LINE
  5
23D
100
AcDbEntity
  8
1
  6
CONTINUOUS
 62
           2
100
AcDbLine
 10
279.713516471511
 20
94.434370264789
 11
279.713516471511
 21
92.434370264789
  0
LINE
  5
23C
100
AcDbEntity
  8
1
  6
CONTINUOUS
 62
           2
100
AcDbLine
 10
304.713516471511
 20
94.434370264789
 11
279.713516471511
 21
94.434370264789
  0
LINE
  5
23B
100
AcDbEntity
  8
1
  6
CONTINUOUS
 62
           2
100
AcDbLine
 10
304.713516471511
 20
92.434370264789
 11
304.713516471511
 21
94.434370264789
  0
LINE
  5
23A
100
AcDbEntity
  8
1
  6
CONTINUOUS
 62
           2
100
AcDbLine
 10
277.213516471511
 20
85.434370264789
 11
277.213516471511
 21
76.934370264789
  0
LINE
  5
239
100
AcDbEntity
  8
1
  6
CONTINUOUS
 62
           2
100
AcDbLine
 10
276.213516471511
 20
93.934370264789
 11
277.213516471511
 21
93.934370264789
  0
LINE
  5
238
100
AcDbEntity
  8
1
  6
CONTINUOUS
 62
           2
100
AcDbLine
 10
277.213516471511
 20
76.934370264789
 11
276.213516471511
 21
76.934370264789
  0
LINE
  5
237
100
AcDbEntity
  8
1
  6
CONTINUOUS
 62
           2
100
AcDbLine
 10
277.213516471511
 20
93.934370264789
 11
277.213516471511
 21
85.434370264789
  0
LINE
  5
236
100
AcDbEntity
  8
1
  6
CONTINUOUS
 62
           2
100
AcDbLine
 10
194.713516471511
 20
91.9727186801
 11
194.713516471511
 21
94.434370264789
  0
LINE
  5
235
100
AcDbEntity
  8
1
  6
CONTINUOUS
 62
           2
100
AcDbLine
 10
199.713516471511
 20
94.434370264789
 11
199.713516471511
 21
91.9727186801
  0
LINE
  5
234
100
AcDbEntity
  8
1
  6
CONTINUOUS
 62
           2
100
AcDbLine
 10
194.713516471511
 20
94.434370264789
 11
199.713516471511
 21
94.434370264789
  0
LINE
  5
233
100
AcDbEntity
  8
1
  6
CONTINUOUS
 62
           2
100
AcDbLine
 10
245.213516471511
 20
48.434370264789
 11
237.213516471511
 21
48.434370264789
  0
LINE
  5
232
100
AcDbEntity
  8
1
  6
CONTINUOUS
 62
           2
100
AcDbLine
 10
245.213516471511
 20
122.434370264789
 11
237.213516471511
 21
122.434370264789
  0
LINE
  5
231
100
AcDbEntity
  8
1
  6
CONTINUOUS
 62
           2
100
AcDbLine
 10
276.213516471511
 20
59.434370264789
 11
250.213516471511
 21
59.434370264789
  0
LINE
  5
230
100
AcDbEntity
  8
1
  6
CONTINUOUS
 62
           2
100
AcDbLine
 10
276.213516471511
 20
111.434370264789
 11
250.213516471511
 21
111.434370264789
  0
LINE
  5
22F
100
AcDbEntity
  8
1
  6
CONTINUOUS
 62
           2
100
AcDbLine
 10
245.213516471511
 20
48.434370264789
 11
245.213516471511
 21
122.434370264789
  0
LINE
  5
22E
100
AcDbEntity
  8
1
  6
CONTINUOUS
 62
           2
100
AcDbLine
 10
276.213516471511
 20
111.434370264789
 11
276.213516471511
 21
59.434370264789
  0
LINE
  5
22D
100
AcDbEntity
  8
1
  6
CONTINUOUS
 62
           2
100
AcDbLine
 10
-19.000364317252
 20
45.434370264789
 11
-119.000364317252
 21
45.434370264789
  0
LINE
  5
22C
100
AcDbEntity
  8
1
  6
CONTINUOUS
 62
           2
100
AcDbLine
 10
-19.000364317252
 20
125.434370264789
 11
-19.000364317252
 21
45.434370264789
  0
LINE
  5
22B
100
AcDbEntity
  8
1
  6
CONTINUOUS
 62
           2
100
AcDbLine
 10
-119.000364317252
 20
125.434370264789
 11
-119.000364317252
 21
45.434370264789
  0
LINE
  5
22A
100
AcDbEntity
  8
1
  6
CONTINUOUS
 62
           2
100
AcDbLine
 10
-19.000364317252
 20
125.434370264789
 11
-119.000364317252
 21
125.434370264789
  0
LINE
  5
229
100
AcDbEntity
  8
1
  6
DOT_CENTER
 62
           3
100
AcDbLine
 10
-95.700364317252
 20
115.434370264789
 11
-102.300364317252
 21
115.434370264789
  0
LINE
  5
228
100
AcDbEntity
  8
1
  6
DOT_CENTER
 62
           3
100
AcDbLine
 10
-99.000364317252
 20
118.734370264789
 11
-99.000364317252
 21
112.134370264789
  0
LINE
  5
227
100
AcDbEntity
  8
1
  6
DOT_CENTER
 62
           3
100
AcDbLine
 10
-95.700364317252
 20
55.434370264789
 11
-102.300364317252
 21
55.434370264789
  0
LINE
  5
226
100
AcDbEntity
  8
1
  6
DOT_CENTER
 62
           3
100
AcDbLine
 10
-99.000364317252
 20
58.734370264789
 11
-99.000364317252
 21
52.134370264789
  0
LINE
  5
225
100
AcDbEntity
  8
1
  6
DOT_CENTER
 62
           3
100
AcDbLine
 10
-35.700364317252
 20
115.434370264789
 11
-42.300364317252
 21
115.434370264789
  0
LINE
  5
224
100
AcDbEntity
  8
1
  6
DOT_CENTER
 62
           3
100
AcDbLine
 10
-39.000364317252
 20
118.734370264789
 11
-39.000364317252
 21
112.134370264789
  0
LINE
  5
223
100
AcDbEntity
  8
1
  6
DOT_CENTER
 62
           3
100
AcDbLine
 10
-35.700364317252
 20
55.434370264789
 11
-42.300364317252
 21
55.434370264789
  0
LINE
  5
222
100
AcDbEntity
  8
1
  6
DOT_CENTER
 62
           3
100
AcDbLine
 10
-39.000364317252
 20
58.734370264789
 11
-39.000364317252
 21
52.134370264789
  0
LINE
  5
221
100
AcDbEntity
  8
1
  6
CONTINUOUS
 62
           2
100
AcDbLine
 10
-71.500364317252
 20
94.434370264789
 11
-71.500364317252
 21
91.9727186801
  0
LINE
  5
220
100
AcDbEntity
  8
1
  6
CONTINUOUS
 62
           2
100
AcDbLine
 10
-66.500364317252
 20
94.434370264789
 11
-71.500364317252
 21
94.434370264789
  0
LINE
  5
21F
100
AcDbEntity
  8
1
  6
CONTINUOUS
 62
           2
100
AcDbLine
 10
-66.500364317252
 20
91.9727186801
 11
-66.500364317252
 21
94.434370264789
  0
LINE
  5
21E
100
AcDbEntity
  8
1
  6
CONTINUOUS
 62
           2
100
AcDbLine
 10
-157.500364317252
 20
85.434370264789
 11
-157.500364317252
 21
78.434370264789
  0
LINE
  5
21D
100
AcDbEntity
  8
1
  6
CONTINUOUS
 62
           2
100
AcDbLine
 10
-127.500364317252
 20
78.434370264789
 11
-157.500364317252
 21
78.434370264789
  0
LINE
  5
21C
100
AcDbEntity
  8
1
  6
CONTINUOUS
 62
           2
100
AcDbLine
 10
-155.000364317252
 20
92.434370264789
 11
-157.500364317252
 21
92.434370264789
  0
LINE
  5
21B
100
AcDbEntity
  8
1
  6
CONTINUOUS
 62
           2
100
AcDbLine
 10
-157.500364317252
 20
85.434370264789
 11
-157.500364317252
 21
92.434370264789
  0
LINE
  5
21A
100
AcDbEntity
  8
1
  6
CONTINUOUS
 62
           2
100
AcDbLine
 10
16.999635682748
 20
92.434370264789
 11
19.499635682748
 21
92.434370264789
  0
LINE
  5
219
100
AcDbEntity
  8
1
  6
CONTINUOUS
 62
           2
100
AcDbLine
 10
19.499635682748
 20
85.434370264789
 11
19.499635682748
 21
92.434370264789
  0
LINE
  5
218
100
AcDbEntity
  8
1
  6
CONTINUOUS
 62
           2
100
AcDbLine
 10
-10.500364317252
 20
78.434370264789
 11
19.499635682748
 21
78.434370264789
  0
LINE
  5
217
100
AcDbEntity
  8
1
  6
CONTINUOUS
 62
           2
100
AcDbLine
 10
19.499635682748
 20
85.434370264789
 11
19.499635682748
 21
78.434370264789
  0
LINE
  5
216
100
AcDbEntity
  8
1
  6
CONTINUOUS
 62
           2
100
AcDbLine
 10
-10.500364317252
 20
92.434370264789
 11
-10.500364317252
 21
96.032446476142
  0
LINE
  5
215
100
AcDbEntity
  8
1
  6
CONTINUOUS
 62
           2
100
AcDbLine
 10
-12.000364317252
 20
96.434370264789
 11
-10.500364317252
 21
96.032446476142
  0
LINE
  5
214
100
AcDbEntity
  8
1
  6
CONTINUOUS
 62
           2
100
AcDbLine
 10
-10.500364317252
 20
92.434370264789
 11
-10.500364317252
 21
85.434370264789
  0
LINE
  5
213
100
AcDbEntity
  8
1
  6
CONTINUOUS
 62
           2
100
AcDbLine
 10
-10.500364317252
 20
85.434370264789
 11
-10.500364317252
 21
78.434370264789
  0
LINE
  5
212
100
AcDbEntity
  8
1
  6
CONTINUOUS
 62
           2
100
AcDbLine
 10
-10.500364317252
 20
74.836294053436
 11
-10.500364317252
 21
78.434370264789
  0
LINE
  5
211
100
AcDbEntity
  8
1
  6
CONTINUOUS
 62
           2
100
AcDbLine
 10
-10.500364317252
 20
74.836294053436
 11
-12.000364317252
 21
74.434370264789
  0
LINE
  5
210
100
AcDbEntity
  8
1
  6
CONTINUOUS
 62
           2
100
AcDbLine
 10
-8.000364317252
 20
92.434370264789
 11
-10.500364317252
 21
92.434370264789
  0
LINE
  5
20F
100
AcDbEntity
  8
1
  6
CONTINUOUS
 62
           2
100
AcDbLine
 10
16.999635682748
 20
92.434370264789
 11
-8.000364317252
 21
92.434370264789
  0
LINE
  5
20E
100
AcDbEntity
  8
1
  6
CONTINUOUS
 62
           2
100
AcDbLine
 10
16.999635682748
 20
94.434370264789
 11
-8.000364317252
 21
94.434370264789
  0
LINE
  5
20D
100
AcDbEntity
  8
1
  6
CONTINUOUS
 62
           2
100
AcDbLine
 10
-8.000364317252
 20
94.434370264789
 11
-8.000364317252
 21
92.434370264789
  0
LINE
  5
20C
100
AcDbEntity
  8
1
  6
CONTINUOUS
 62
           2
100
AcDbLine
 10
16.999635682748
 20
92.434370264789
 11
16.999635682748
 21
94.434370264789
  0
LINE
  5
20B
100
AcDbEntity
  8
1
  6
CONTINUOUS
 62
           2
100
AcDbLine
 10
-127.500364317252
 20
92.434370264789
 11
-130.000364317252
 21
92.434370264789
  0
LINE
  5
20A
100
AcDbEntity
  8
1
  6
CONTINUOUS
 62
           2
100
AcDbLine
 10
-130.000364317252
 20
92.434370264789
 11
-130.000364317252
 21
94.434370264789
  0
LINE
  5
209
100
AcDbEntity
  8
1
  6
CONTINUOUS
 62
           2
100
AcDbLine
 10
-130.000364317252
 20
94.434370264789
 11
-155.000364317252
 21
94.434370264789
  0
LINE
  5
208
100
AcDbEntity
  8
1
  6
CONTINUOUS
 62
           2
100
AcDbLine
 10
-130.000364317252
 20
92.434370264789
 11
-155.000364317252
 21
92.434370264789
  0
LINE
  5
207
100
AcDbEntity
  8
1
  6
CONTINUOUS
 62
           2
100
AcDbLine
 10
-155.000364317252
 20
94.434370264789
 11
-155.000364317252
 21
92.434370264789
  0
LINE
  5
206
100
AcDbEntity
  8
1
  6
CONTINUOUS
 62
           2
100
AcDbLine
 10
-127.500364317252
 20
78.434370264789
 11
-127.500364317252
 21
85.434370264789
  0
LINE
  5
205
100
AcDbEntity
  8
1
  6
CONTINUOUS
 62
           2
100
AcDbLine
 10
-127.500364317252
 20
78.434370264789
 11
-127.500364317252
 21
74.836294053436
  0
LINE
  5
204
100
AcDbEntity
  8
1
  6
CONTINUOUS
 62
           2
100
AcDbLine
 10
-127.500364317252
 20
85.434370264789
 11
-127.500364317252
 21
92.434370264789
  0
LINE
  5
203
100
AcDbEntity
  8
1
  6
CONTINUOUS
 62
           2
100
AcDbLine
 10
-127.500364317252
 20
96.032446476142
 11
-127.500364317252
 21
92.434370264789
  0
LINE
  5
202
100
AcDbEntity
  8
1
  6
CONTINUOUS
 62
           2
100
AcDbLine
 10
-127.500364317252
 20
96.032446476142
 11
-126.000364317252
 21
96.434370264789
  0
LINE
  5
201
100
AcDbEntity
  8
1
  6
CONTINUOUS
 62
           2
100
AcDbLine
 10
-126.000364317252
 20
74.434370264789
 11
-127.500364317252
 21
74.836294053436
  0
LINE
  5
200
100
AcDbEntity
  8
1
  6
CONTINUOUS
 62
           2
100
AcDbLine
 10
-12.000364317252
 20
48.434370264789
 11
-19.000364317252
 21
48.434370264789
  0
LINE
  5
1FF
100
AcDbEntity
  8
1
  6
CONTINUOUS
 62
           2
100
AcDbLine
 10
-12.000364317252
 20
122.434370264789
 11
-19.000364317252
 21
122.434370264789
  0
LINE
  5
1FE
100
AcDbEntity
  8
1
  6
CONTINUOUS
 62
           2
100
AcDbLine
 10
-126.000364317252
 20
48.434370264789
 11
-119.000364317252
 21
48.434370264789
  0
LINE
  5
1FD
100
AcDbEntity
  8
1
  6
CONTINUOUS
 62
           2
100
AcDbLine
 10
-126.000364317252
 20
122.434370264789
 11
-119.000364317252
 21
122.434370264789
  0
LINE
  5
1FC
100
AcDbEntity
  8
1
  6
CONTINUOUS
 62
           2
100
AcDbLine
 10
-126.000364317252
 20
48.434370264789
 11
-126.000364317252
 21
122.434370264789
  0
LINE
  5
1FB
100
AcDbEntity
  8
1
  6
CONTINUOUS
 62
           2
100
AcDbLine
 10
-12.000364317252
 20
48.434370264789
 11
-12.000364317252
 21
122.434370264789
  0
LINE
  5
1FA
100
AcDbEntity
  8
1
  6
CONTINUOUS
 62
           2
100
AcDbLine
 10
-119.000364317252
 20
-127.120293757354
 11
-119.000364317252
 21
-47.120293757354
  0
LINE
  5
1F9
100
AcDbEntity
  8
1
  6
CONTINUOUS
 62
           2
100
AcDbLine
 10
-19.000364317253
 20
-127.120293757354
 11
-119.000364317252
 21
-127.120293757354
  0
LINE
  5
1F8
100
AcDbEntity
  8
1
  6
CONTINUOUS
 62
           2
100
AcDbLine
 10
-19.000364317253
 20
-47.120293757354
 11
-19.000364317253
 21
-127.120293757354
  0
LINE
  5
1F7
100
AcDbEntity
  8
1
  6
DOT_CENTER
 62
           3
100
AcDbLine
 10
-39.000364317253
 20
-57.120293757354
 11
-42.300364317252
 21
-57.120293757354
  0
LINE
  5
1F6
100
AcDbEntity
  8
1
  6
DOT_CENTER
 62
           3
100
AcDbLine
 10
-39.000364317253
 20
-57.120293757354
 11
-39.000364317252
 21
-60.420293757354
  0
LINE
  5
1F5
100
AcDbEntity
  8
1
  6
DOT_CENTER
 62
           3
100
AcDbLine
 10
-95.700364317253
 20
-117.120293757354
 11
-102.300364317252
 21
-117.120293757354
  0
LINE
  5
1F4
100
AcDbEntity
  8
1
  6
DOT_CENTER
 62
           3
100
AcDbLine
 10
-99.000364317252
 20
-113.820293757354
 11
-99.000364317252
 21
-120.420293757354
  0
LINE
  5
1F3
100
AcDbEntity
  8
1
  6
DOT_CENTER
 62
           3
100
AcDbLine
 10
-95.700364317253
 20
-57.120293757354
 11
-102.300364317252
 21
-57.120293757354
  0
LINE
  5
1F2
100
AcDbEntity
  8
1
  6
DOT_CENTER
 62
           3
100
AcDbLine
 10
-99.000364317252
 20
-53.820293757354
 11
-99.000364317252
 21
-60.420293757354
  0
LINE
  5
1F1
100
AcDbEntity
  8
1
  6
DOT_CENTER
 62
           3
100
AcDbLine
 10
-35.700364317253
 20
-57.120293757354
 11
-39.000364317253
 21
-57.120293757354
  0
LINE
  5
1F0
100
AcDbEntity
  8
1
  6
DOT_CENTER
 62
           3
100
AcDbLine
 10
-39.000364317252
 20
-53.820293757354
 11
-39.000364317253
 21
-57.120293757354
  0
LINE
  5
1EF
100
AcDbEntity
  8
1
  6
DOT_CENTER
 62
           3
100
AcDbLine
 10
-35.700364317252
 20
-117.120293757354
 11
-42.300364317252
 21
-117.120293757354
  0
LINE
  5
1EE
100
AcDbEntity
  8
1
  6
DOT_CENTER
 62
           3
100
AcDbLine
 10
-39.000364317252
 20
-113.820293757354
 11
-39.000364317252
 21
-120.420293757354
  0
LINE
  5
1ED
100
AcDbEntity
  8
1
  6
CONTINUOUS
 62
           2
100
AcDbLine
 10
-19.000364317253
 20
-47.120293757354
 11
-119.000364317252
 21
-47.120293757354
  0
LINE
  5
1EC
100
AcDbEntity
  8
1
  6
CONTINUOUS
 62
           2
100
AcDbLine
 10
-10.500364317252
 20
-94.120293757354
 11
19.499635682747
 21
-94.120293757354
  0
LINE
  5
1EB
100
AcDbEntity
  8
1
  6
CONTINUOUS
 62
           2
100
AcDbLine
 10
19.499635682747
 20
-87.120293757354
 11
19.499635682747
 21
-94.120293757354
  0
LINE
  5
1EA
100
AcDbEntity
  8
1
  6
CONTINUOUS
 62
           2
100
AcDbLine
 10
19.499635682747
 20
-87.120293757354
 11
19.499635682747
 21
-80.120293757354
  0
LINE
  5
1E9
100
AcDbEntity
  8
1
  6
CONTINUOUS
 62
           2
100
AcDbLine
 10
-10.500364317252
 20
-80.120293757354
 11
19.499635682747
 21
-80.120293757354
  0
LINE
  5
1E8
100
AcDbEntity
  8
1
  6
CONTINUOUS
 62
           2
100
AcDbLine
 10
-157.500364317252
 20
-87.120293757354
 11
-157.500364317252
 21
-80.120293757354
  0
LINE
  5
1E7
100
AcDbEntity
  8
1
  6
CONTINUOUS
 62
           2
100
AcDbLine
 10
-127.500364317252
 20
-80.120293757354
 11
-157.500364317252
 21
-80.120293757354
  0
LINE
  5
1E6
100
AcDbEntity
  8
1
  6
CONTINUOUS
 62
           2
100
AcDbLine
 10
-127.500364317252
 20
-94.120293757354
 11
-157.500364317252
 21
-94.120293757354
  0
LINE
  5
1E5
100
AcDbEntity
  8
1
  6
CONTINUOUS
 62
           2
100
AcDbLine
 10
-157.500364317252
 20
-87.120293757354
 11
-157.500364317252
 21
-94.120293757354
  0
LINE
  5
1E4
100
AcDbEntity
  8
1
  6
CONTINUOUS
 62
           2
100
AcDbLine
 10
-5.500364317252
 20
-84.620293757354
 11
14.499635682748
 21
-84.620293757354
  0
LINE
  5
1E3
100
AcDbEntity
  8
1
  6
CONTINUOUS
 62
           2
100
AcDbLine
 10
-5.500364317252
 20
-89.620293757354
 11
14.499635682748
 21
-89.620293757354
  0
LINE
  5
1E2
100
AcDbEntity
  8
1
  6
CONTINUOUS
 62
           2
100
AcDbLine
 10
-10.500364317252
 20
-97.718369968707
 11
-12.000364317252
 21
-98.120293757354
  0
LINE
  5
1E1
100
AcDbEntity
  8
1
  6
CONTINUOUS
 62
           2
100
AcDbLine
 10
-10.500364317252
 20
-97.718369968707
 11
-10.500364317252
 21
-87.120293757354
  0
LINE
  5
1E0
100
AcDbEntity
  8
1
  6
CONTINUOUS
 62
           2
100
AcDbLine
 10
-12.000364317252
 20
-76.120293757354
 11
-10.500364317252
 21
-76.522217546001
  0
LINE
  5
1DF
100
AcDbEntity
  8
1
  6
CONTINUOUS
 62
           2
100
AcDbLine
 10
-10.500364317252
 20
-87.120293757354
 11
-10.500364317252
 21
-76.522217546001
  0
LINE
  5
1DE
100
AcDbEntity
  8
1
  6
CONTINUOUS
 62
           2
100
AcDbLine
 10
-152.500364317252
 20
-84.620293757354
 11
-132.500364317252
 21
-84.620293757354
  0
LINE
  5
1DD
100
AcDbEntity
  8
1
  6
CONTINUOUS
 62
           2
100
AcDbLine
 10
-152.500364317252
 20
-89.620293757354
 11
-132.500364317252
 21
-89.620293757354
  0
LINE
  5
1DC
100
AcDbEntity
  8
1
  6
CONTINUOUS
 62
           2
100
AcDbLine
 10
-126.000364317252
 20
-98.120293757354
 11
-127.500364317252
 21
-97.718369968707
  0
LINE
  5
1DB
100
AcDbEntity
  8
1
  6
CONTINUOUS
 62
           2
100
AcDbLine
 10
-127.500364317252
 20
-87.120293757354
 11
-127.500364317252
 21
-97.718369968707
  0
LINE
  5
1DA
100
AcDbEntity
  8
1
  6
CONTINUOUS
 62
           2
100
AcDbLine
 10
-127.500364317252
 20
-76.522217546001
 11
-126.000364317252
 21
-76.120293757354
  0
LINE
  5
1D9
100
AcDbEntity
  8
1
  6
CONTINUOUS
 62
           2
100
AcDbLine
 10
-127.500364317252
 20
-76.522217546001
 11
-127.500364317252
 21
-87.120293757354
  0
LINE
  5
1D8
100
AcDbEntity
  8
1
  6
CONTINUOUS
 62
           2
100
AcDbLine
 10
-32.000364317252
 20
-127.120293757354
 11
-32.000364317253
 21
-135.120293757354
  0
LINE
  5
1D7
100
AcDbEntity
  8
1
  6
CONTINUOUS
 62
           2
100
AcDbLine
 10
-106.000364317253
 20
-135.120293757354
 11
-106.000364317253
 21
-127.120293757354
  0
LINE
  5
1D6
100
AcDbEntity
  8
1
  6
CONTINUOUS
 62
           2
100
AcDbLine
 10
-32.000364317253
 20
-135.120293757354
 11
-106.000364317253
 21
-135.120293757354
  0
LINE
  5
1D5
100
AcDbEntity
  8
1
  6
CONTINUOUS
 62
           2
100
AcDbLine
 10
-19.000364317253
 20
-124.120293757354
 11
-12.000364317252
 21
-124.120293757354
  0
LINE
  5
1D4
100
AcDbEntity
  8
1
  6
CONTINUOUS
 62
           2
100
AcDbLine
 10
-12.000364317252
 20
-50.120293757354
 11
-19.000364317253
 21
-50.120293757354
  0
LINE
  5
1D3
100
AcDbEntity
  8
1
  6
CONTINUOUS
 62
           2
100
AcDbLine
 10
-126.000364317252
 20
-124.120293757354
 11
-119.000364317252
 21
-124.120293757354
  0
LINE
  5
1D2
100
AcDbEntity
  8
1
  6
CONTINUOUS
 62
           2
100
AcDbLine
 10
-126.000364317252
 20
-50.120293757354
 11
-119.000364317252
 21
-50.120293757354
  0
LINE
  5
1D1
100
AcDbEntity
  8
1
  6
CONTINUOUS
 62
           2
100
AcDbLine
 10
-126.000364317252
 20
-124.120293757354
 11
-126.000364317252
 21
-50.120293757354
  0
LINE
  5
1D0
100
AcDbEntity
  8
1
  6
CONTINUOUS
 62
           2
100
AcDbLine
 10
-12.000364317252
 20
-124.120293757354
 11
-12.000364317252
 21
-50.120293757354
  0
LINE
  5
1CF
100
AcDbEntity
  8
1
  6
CONTINUOUS
 62
           2
100
AcDbLine
 10
-42.476500709876
 20
-135.120293757354
 11
-42.476500709876
 21
-139.620293757354
  0
LINE
  5
1CE
100
AcDbEntity
  8
1
  6
CONTINUOUS
 62
           2
100
AcDbLine
 10
-42.976500709876
 20
-140.120293757354
 11
-50.476500709876
 21
-140.120293757354
  0
LINE
  5
1CD
100
AcDbEntity
  8
1
  6
CONTINUOUS
 62
           2
100
AcDbLine
 10
-50.976500709876
 20
-139.620293757354
 11
-50.976500709876
 21
-135.120293757354
  0
LINE
  5
1CC
100
AcDbEntity
  8
1
  6
DOT_CENTER
 62
           3
100
AcDbLine
 10
-46.726500709876
 20
-126.320293757354
 11
-46.726500709876
 21
-140.620293757354
  0
LINE
  5
1CB
100
AcDbEntity
  8
1
  6
DOT_CENTER
 62
           3
100
AcDbLine
 10
-91.274227924628
 20
-140.620293757354
 11
-91.274227924628
 21
-126.320293757354
  0
LINE
  5
1CA
100
AcDbEntity
  8
1
  6
CONTINUOUS
 62
           2
100
AcDbLine
 10
-87.024227924628
 20
-135.120293757354
 11
-87.024227924628
 21
-139.620293757354
  0
LINE
  5
1C9
100
AcDbEntity
  8
1
  6
CONTINUOUS
 62
           2
100
AcDbLine
 10
-87.524227924628
 20
-140.120293757354
 11
-95.024227924628
 21
-140.120293757354
  0
LINE
  5
1C8
100
AcDbEntity
  8
1
  6
CONTINUOUS
 62
           2
100
AcDbLine
 10
-95.524227924628
 20
-139.620293757354
 11
-95.524227924628
 21
-135.120293757354
  0
LINE
  5
1C7
100
AcDbEntity
  8
1
  6
DOT_CENTER
 62
           3
100
AcDbLine
 10
236.413516471511
 20
107.708233872165
 11
250.713516471511
 21
107.708233872165
  0
LINE
  5
1C6
100
AcDbEntity
  8
1
  6
CONTINUOUS
 62
           2
100
AcDbLine
 10
249.713516471511
 20
103.458233872165
 11
245.213516471511
 21
103.458233872165
  0
LINE
  5
1C5
100
AcDbEntity
  8
1
  6
CONTINUOUS
 62
           2
100
AcDbLine
 10
250.213516471511
 20
111.458233872165
 11
250.213516471511
 21
103.958233872165
  0
LINE
  5
1C4
100
AcDbEntity
  8
1
  6
CONTINUOUS
 62
           2
100
AcDbLine
 10
245.213516471511
 20
111.958233872165
 11
249.713516471511
 21
111.958233872165
  0
LINE
  5
1C3
100
AcDbEntity
  8
1
  6
CONTINUOUS
 62
           2
100
AcDbLine
 10
249.713516471511
 20
58.910506657413
 11
245.213516471511
 21
58.910506657413
  0
LINE
  5
1C2
100
AcDbEntity
  8
1
  6
CONTINUOUS
 62
           2
100
AcDbLine
 10
250.213516471511
 20
66.910506657413
 11
250.213516471511
 21
59.410506657413
  0
LINE
  5
1C1
100
AcDbEntity
  8
1
  6
CONTINUOUS
 62
           2
100
AcDbLine
 10
245.213516471511
 20
67.410506657413
 11
249.713516471511
 21
67.410506657413
  0
LINE
  5
1C0
100
AcDbEntity
  8
1
  6
DOT_CENTER
 62
           3
100
AcDbLine
 10
250.713516471511
 20
63.160506657413
 11
236.413516471511
 21
63.160506657413
  0
LINE
  5
1BF
100
AcDbEntity
  8
1
  6
CONTINUOUS
 62
           2
100
AcDbLine
 10
-46.726500709876
 20
65.469907734171
 11
-48.726500709876
 21
64.315207195792
  0
LINE
  5
1BE
100
AcDbEntity
  8
1
  6
CONTINUOUS
 62
           2
100
AcDbLine
 10
-48.726500709876
 20
64.315207195792
 11
-48.726500709876
 21
62.005806119033
  0
LINE
  5
1BD
100
AcDbEntity
  8
1
  6
CONTINUOUS
 62
           2
100
AcDbLine
 10
-48.726500709876
 20
62.005806119033
 11
-46.726500709876
 21
60.851105580654
  0
LINE
  5
1BC
100
AcDbEntity
  8
1
  6
CONTINUOUS
 62
           2
100
AcDbLine
 10
-46.726500709876
 20
60.851105580654
 11
-44.726500709876
 21
62.005806119033
  0
LINE
  5
1BB
100
AcDbEntity
  8
1
  6
CONTINUOUS
 62
           2
100
AcDbLine
 10
-44.726500709876
 20
62.005806119033
 11
-44.726500709876
 21
64.315207195792
  0
LINE
  5
1BA
100
AcDbEntity
  8
1
  6
CONTINUOUS
 62
           2
100
AcDbLine
 10
-44.726500709876
 20
64.315207195792
 11
-46.726500709876
 21
65.469907734171
  0
LINE
  5
1B9
100
AcDbEntity
  8
1
  6
DOT_CENTER
 62
           3
100
AcDbLine
 10
-46.726500709876
 20
68.260506657413
 11
-46.726500709876
 21
58.060506657413
  0
LINE
  5
1B8
100
AcDbEntity
  8
1
  6
DOT_CENTER
 62
           3
100
AcDbLine
 10
-51.826500709876
 20
63.160506657413
 11
-41.626500709876
 21
63.160506657413
  0
LINE
  5
1B7
100
AcDbEntity
  8
1
  6
CONTINUOUS
 62
           2
100
AcDbLine
 10
-91.274227924629
 20
65.469907734171
 11
-93.274227924629
 21
64.315207195792
  0
LINE
  5
1B6
100
AcDbEntity
  8
1
  6
CONTINUOUS
 62
           2
100
AcDbLine
 10
-93.274227924629
 20
64.315207195792
 11
-93.274227924629
 21
62.005806119033
  0
LINE
  5
1B5
100
AcDbEntity
  8
1
  6
CONTINUOUS
 62
           2
100
AcDbLine
 10
-93.274227924629
 20
62.005806119033
 11
-91.274227924629
 21
60.851105580654
  0
LINE
  5
1B4
100
AcDbEntity
  8
1
  6
CONTINUOUS
 62
           2
100
AcDbLine
 10
-91.274227924629
 20
60.851105580654
 11
-89.274227924629
 21
62.005806119033
  0
LINE
  5
1B3
100
AcDbEntity
  8
1
  6
CONTINUOUS
 62
           2
100
AcDbLine
 10
-89.274227924629
 20
62.005806119033
 11
-89.274227924629
 21
64.315207195792
  0
LINE
  5
1B2
100
AcDbEntity
  8
1
  6
CONTINUOUS
 62
           2
100
AcDbLine
 10
-89.274227924629
 20
64.315207195792
 11
-91.274227924629
 21
65.469907734171
  0
LINE
  5
1B1
100
AcDbEntity
  8
1
  6
DOT_CENTER
 62
           3
100
AcDbLine
 10
-91.274227924629
 20
68.260506657413
 11
-91.274227924629
 21
58.060506657413
  0
LINE
  5
1B0
100
AcDbEntity
  8
1
  6
DOT_CENTER
 62
           3
100
AcDbLine
 10
-96.374227924629
 20
63.160506657413
 11
-86.174227924629
 21
63.160506657413
  0
LINE
  5
1AF
100
AcDbEntity
  8
1
  6
CONTINUOUS
 62
           2
100
AcDbLine
 10
-91.274227924629
 20
110.017634948924
 11
-93.274227924629
 21
108.862934410544
  0
LINE
  5
1AE
100
AcDbEntity
  8
1
  6
CONTINUOUS
 62
           2
100
AcDbLine
 10
-93.274227924629
 20
108.862934410544
 11
-93.274227924629
 21
106.553533333786
  0
LINE
  5
1AD
100
AcDbEntity
  8
1
  6
CONTINUOUS
 62
           2
100
AcDbLine
 10
-93.274227924629
 20
106.553533333786
 11
-91.274227924629
 21
105.398832795407
  0
LINE
  5
1AC
100
AcDbEntity
  8
1
  6
CONTINUOUS
 62
           2
100
AcDbLine
 10
-91.274227924629
 20
105.398832795407
 11
-89.274227924629
 21
106.553533333786
  0
LINE
  5
1AB
100
AcDbEntity
  8
1
  6
CONTINUOUS
 62
           2
100
AcDbLine
 10
-89.274227924629
 20
106.553533333786
 11
-89.274227924629
 21
108.862934410544
  0
LINE
  5
1AA
100
AcDbEntity
  8
1
  6
CONTINUOUS
 62
           2
100
AcDbLine
 10
-89.274227924629
 20
108.862934410544
 11
-91.274227924629
 21
110.017634948924
  0
LINE
  5
1A9
100
AcDbEntity
  8
1
  6
DOT_CENTER
 62
           3
100
AcDbLine
 10
-91.274227924629
 20
112.808233872165
 11
-91.274227924629
 21
102.608233872165
  0
LINE
  5
1A8
100
AcDbEntity
  8
1
  6
DOT_CENTER
 62
           3
100
AcDbLine
 10
-96.374227924629
 20
107.708233872165
 11
-86.174227924629
 21
107.708233872165
  0
LINE
  5
1A7
100
AcDbEntity
  8
1
  6
CONTINUOUS
 62
           2
100
AcDbLine
 10
-46.726500709876
 20
110.017634948924
 11
-48.726500709876
 21
108.862934410544
  0
LINE
  5
1A6
100
AcDbEntity
  8
1
  6
CONTINUOUS
 62
           2
100
AcDbLine
 10
-48.726500709876
 20
108.862934410544
 11
-48.726500709876
 21
106.553533333786
  0
LINE
  5
1A5
100
AcDbEntity
  8
1
  6
CONTINUOUS
 62
           2
100
AcDbLine
 10
-48.726500709876
 20
106.553533333786
 11
-46.726500709876
 21
105.398832795407
  0
LINE
  5
1A4
100
AcDbEntity
  8
1
  6
CONTINUOUS
 62
           2
100
AcDbLine
 10
-46.726500709876
 20
105.398832795407
 11
-44.726500709876
 21
106.553533333786
  0
LINE
  5
1A3
100
AcDbEntity
  8
1
  6
CONTINUOUS
 62
           2
100
AcDbLine
 10
-44.726500709876
 20
106.553533333786
 11
-44.726500709876
 21
108.862934410544
  0
LINE
  5
1A2
100
AcDbEntity
  8
1
  6
CONTINUOUS
 62
           2
100
AcDbLine
 10
-44.726500709876
 20
108.862934410544
 11
-46.726500709876
 21
110.017634948924
  0
LINE
  5
1A1
100
AcDbEntity
  8
1
  6
DOT_CENTER
 62
           3
100
AcDbLine
 10
-46.726500709876
 20
112.808233872165
 11
-46.726500709876
 21
102.608233872165
  0
LINE
  5
1A0
100
AcDbEntity
  8
1
  6
DOT_CENTER
 62
           3
100
AcDbLine
 10
-51.826500709876
 20
107.708233872165
 11
-41.626500709876
 21
107.708233872165
  0
LINE
  5
19F
100
AcDbEntity
  8
1
  6
CONTINUOUS
 62
           3
100
AcDbLine
 10
-99.000364317252
 20
-71.531836489233
 11
-93.000364317252
 21
-74.995938104371
  0
LINE
  5
19E
100
AcDbEntity
  8
1
  6
CONTINUOUS
 62
           3
100
AcDbLine
 10
-93.000364317252
 20
-74.995938104371
 11
-93.000364317252
 21
-99.244649410336
  0
LINE
  5
19D
100
AcDbEntity
  8
1
  6
CONTINUOUS
 62
           3
100
AcDbLine
 10
-93.000364317252
 20
-99.244649410336
 11
-99.000364317252
 21
-102.708751025474
  0
LINE
  5
19C
100
AcDbEntity
  8
1
  6
CONTINUOUS
 62
           3
100
AcDbLine
 10
-99.000364317252
 20
-102.708751025474
 11
-99.000364317252
 21
-71.531836489233
  0
LINE
  5
19B
100
AcDbEntity
  8
1
  6
CONTINUOUS
 62
           3
100
AcDbLine
 10
-96.000364317252
 20
-104.440801833043
 11
-85.608059471839
 21
-98.440801833043
  0
LINE
  5
19A
100
AcDbEntity
  8
1
  6
CONTINUOUS
 62
           3
100
AcDbLine
 10
-96.000364317252
 20
-104.440801833043
 11
-42.000364317254
 21
-104.440801833043
  0
LINE
  5
199
100
AcDbEntity
  8
1
  6
CONTINUOUS
 62
           3
100
AcDbLine
 10
-85.608059471839
 20
-98.440801833043
 11
-52.392669162667
 21
-98.440801833043
  0
LINE
  5
198
100
AcDbEntity
  8
1
  6
CONTINUOUS
 62
           3
100
AcDbLine
 10
-52.392669162667
 20
-98.440801833043
 11
-42.000364317254
 21
-104.440801833043
  0
ENDBLK
  5
298
100
AcDbEntity
  8
0
100
AcDbBlockEnd
  0
BLOCK
  5
2A4
100
AcDbEntity
  8
0
100
AcDbBlockBegin
  2
*D2
 70
           1
 10
0.0
 20
0.0
 30
0.0
  3
*D2
  1

  0
LINE
  5
2A5
100
AcDbEntity
  8
0
  6
CONTINUOUS
 62
           3
100
AcDbLine
 10
167.213516471511
 20
136.779993011022
 11
227.213516471511
 21
136.779993011022
  0
LINE
  5
2A6
100
AcDbEntity
  8
0
  6
CONTINUOUS
 62
           3
100
AcDbLine
 10
167.213516471511
 20
118.734370264789
 11
167.213516471511
 21
139.779993011022
  0
LINE
  5
2A7
100
AcDbEntity
  8
0
  6
CONTINUOUS
 62
           3
100
AcDbLine
 10
227.213516471511
 20
118.734370264789
 11
227.213516471511
 21
139.779993011022
  0
LINE
  5
2A8
100
AcDbEntity
  8
0
 62
           3
100
AcDbLine
 10
167.213516471511
 20
136.779993011022
 11
171.713516471511
 21
137.372429250165
  0
LINE
  5
2A9
100
AcDbEntity
  8
0
 62
           3
100
AcDbLine
 10
167.213516471511
 20
136.779993011022
 11
171.713516471511
 21
136.187556771878
  0
LINE
  5
2AA
100
AcDbEntity
  8
0
 62
           3
100
AcDbLine
 10
171.713516471511
 20
137.372429250165
 11
171.713516471511
 21
136.187556771878
  0
LINE
  5
2AB
100
AcDbEntity
  8
0
 62
           3
100
AcDbLine
 10
227.213516471511
 20
136.779993011022
 11
222.713516471511
 21
136.187556771878
  0
LINE
  5
2AC
100
AcDbEntity
  8
0
 62
           3
100
AcDbLine
 10
227.213516471511
 20
136.779993011022
 11
222.713516471511
 21
137.372429250165
  0
LINE
  5
2AD
100
AcDbEntity
  8
0
 62
           3
100
AcDbLine
 10
222.713516471511
 20
136.187556771878
 11
222.713516471511
 21
137.372429250165
  0
TEXT
  5
2AE
100
AcDbEntity
  8
0
 62
           2
100
AcDbText
 10
193.212733692645
 20
139.779993011022
 40
4.5
  1
60
 41
0.9
  7
CONVERTER_3
100
AcDbText
  0
ENDBLK
  5
2AF
100
AcDbEntity
  8
0
100
AcDbBlockEnd
  0
BLOCK
  5
2B5
100
AcDbEntity
  8
0
100
AcDbBlockBegin
  2
*D5
 70
           1
 10
0.0
 20
0.0
 30
0.0
  3
*D5
  1

  0
LINE
  5
2B6
100
AcDbEntity
  8
0
  6
CONTINUOUS
 62
           3
100
AcDbLine
 10
148.188712166227
 20
55.434370264789
 11
148.188712166227
 21
115.434370264789
  0
LINE
  5
2B7
100
AcDbEntity
  8
0
  6
CONTINUOUS
 62
           3
100
AcDbLine
 10
163.913516471511
 20
55.434370264789
 11
145.188712166227
 21
55.434370264789
  0
LINE
  5
2B8
100
AcDbEntity
  8
0
  6
CONTINUOUS
 62
           3
100
AcDbLine
 10
163.913516471511
 20
115.434370264789
 11
145.188712166227
 21
115.434370264789
  0
LINE
  5
2B9
100
AcDbEntity
  8
0
 62
           3
100
AcDbLine
 10
148.188712166227
 20
55.434370264789
 11
147.596275927084
 21
59.934370264789
  0
LINE
  5
2BA
100
AcDbEntity
  8
0
 62
           3
100
AcDbLine
 10
148.188712166227
 20
55.434370264789
 11
148.78114840537
 21
59.934370264789
  0
LINE
  5
2BB
100
AcDbEntity
  8
0
 62
           3
100
AcDbLine
 10
147.596275927084
 20
59.934370264789
 11
148.78114840537
 21
59.934370264789
  0
LINE
  5
2BC
100
AcDbEntity
  8
0
 62
           3
100
AcDbLine
 10
148.188712166227
 20
115.434370264789
 11
148.78114840537
 21
110.934370264789
  0
LINE
  5
2BD
100
AcDbEntity
  8
0
 62
           3
100
AcDbLine
 10
148.188712166227
 20
115.434370264789
 11
147.596275927084
 21
110.934370264789
  0
LINE
  5
2BE
100
AcDbEntity
  8
0
 62
           3
100
AcDbLine
 10
148.78114840537
 20
110.934370264789
 11
147.596275927084
 21
110.934370264789
  0
MTEXT
  5
2BF
100
AcDbEntity
  8
0
 62
           2
100
AcDbMText
 10
145.188712166227
 20
81.728378529613
 30
0.0
 40
4.5
 41
0.0
 71
           7
 72
           1
  1
60
  7
CONVERTER_3
 11
0.0
 21
1.0
 31
0.0
  0
ENDBLK
  5
2C0
100
AcDbEntity
  8
0
100
AcDbBlockEnd
  0
BLOCK
  5
2C6
100
AcDbEntity
  8
0
100
AcDbBlockBegin
  2
*D8
 70
           1
 10
0.0
 20
0.0
 30
0.0
  3
*D8
  1

  0
LINE
  5
2C7
100
AcDbEntity
  8
0
  6
CONTINUOUS
 62
           3
100
AcDbLine
 10
-99.000364317252
 20
136.779993011022
 11
-39.000364317252
 21
136.779993011022
  0
LINE
  5
2C8
100
AcDbEntity
  8
0
  6
CONTINUOUS
 62
           3
100
AcDbLine
 10
-99.000364317252
 20
118.734370264789
 11
-99.000364317252
 21
139.779993011022
  0
LINE
  5
2C9
100
AcDbEntity
  8
0
  6
CONTINUOUS
 62
           3
100
AcDbLine
 10
-39.000364317252
 20
118.734370264789
 11
-39.000364317252
 21
139.779993011022
  0
LINE
  5
2CA
100
AcDbEntity
  8
0
 62
           3
100
AcDbLine
 10
-99.000364317252
 20
136.779993011022
 11
-94.500364317252
 21
137.372429250165
  0
LINE
  5
2CB
100
AcDbEntity
  8
0
 62
           3
100
AcDbLine
 10
-99.000364317252
 20
136.779993011022
 11
-94.500364317252
 21
136.187556771878
  0
LINE
  5
2CC
100
AcDbEntity
  8
0
 62
           3
100
AcDbLine
 10
-94.500364317252
 20
137.372429250165
 11
-94.500364317252
 21
136.187556771878
  0
LINE
  5
2CD
100
AcDbEntity
  8
0
 62
           3
100
AcDbLine
 10
-39.000364317252
 20
136.779993011022
 11
-43.500364317252
 21
136.187556771878
  0
LINE
  5
2CE
100
AcDbEntity
  8
0
 62
           3
100
AcDbLine
 10
-39.000364317252
 20
136.779993011022
 11
-43.500364317252
 21
137.372429250165
  0
LINE
  5
2CF
100
AcDbEntity
  8
0
 62
           3
100
AcDbLine
 10
-43.500364317252
 20
136.187556771878
 11
-43.500364317252
 21
137.372429250165
  0
TEXT
  5
2D0
100
AcDbEntity
  8
0
 62
           2
100
AcDbText
 10
-73.571486675004
 20
139.779993011022
 40
4.5
  1
60
 41
0.9
  7
CONVERTER_3
100
AcDbText
  0
ENDBLK
  5
2D1
100
AcDbEntity
  8
0
100
AcDbBlockEnd
  0
BLOCK
  5
2D7
100
AcDbEntity
  8
0
100
AcDbBlockBegin
  2
*D11
 70
           1
 10
0.0
 20
0.0
 30
0.0
  3
*D11
  1

  0
LINE
  5
2D8
100
AcDbEntity
  8
0
  6
CONTINUOUS
 62
           3
100
AcDbLine
 10
35.363102366092
 20
55.434370264789
 11
35.363102366092
 21
115.434370264789
  0
LINE
  5
2D9
100
AcDbEntity
  8
0
  6
CONTINUOUS
 62
           3
100
AcDbLine
 10
-35.700364317252
 20
55.434370264789
 11
38.363102366092
 21
55.434370264789
  0
LINE
  5
2DA
100
AcDbEntity
  8
0
  6
CONTINUOUS
 62
           3
100
AcDbLine
 10
-35.700364317252
 20
115.434370264789
 11
38.363102366092
 21
115.434370264789
  0
LINE
  5
2DB
100
AcDbEntity
  8
0
 62
           3
100
AcDbLine
 10
35.363102366092
 20
55.434370264789
 11
34.770666126948
 21
59.934370264789
  0
LINE
  5
2DC
100
AcDbEntity
  8
0
 62
           3
100
AcDbLine
 10
35.363102366092
 20
55.434370264789
 11
35.955538605235
 21
59.934370264789
  0
LINE
  5
2DD
100
AcDbEntity
  8
0
 62
           3
100
AcDbLine
 10
34.770666126948
 20
59.934370264789
 11
35.955538605235
 21
59.934370264789
  0
LINE
  5
2DE
100
AcDbEntity
  8
0
 62
           3
100
AcDbLine
 10
35.363102366092
 20
115.434370264789
 11
35.955538605235
 21
110.934370264789
  0
LINE
  5
2DF
100
AcDbEntity
  8
0
 62
           3
100
AcDbLine
 10
35.363102366092
 20
115.434370264789
 11
34.770666126948
 21
110.934370264789
  0
LINE
  5
2E0
100
AcDbEntity
  8
0
 62
           3
100
AcDbLine
 10
35.955538605235
 20
110.934370264789
 11
34.770666126948
 21
110.934370264789
  0
MTEXT
  5
2E1
100
AcDbEntity
  8
0
 62
           2
100
AcDbMText
 10
32.363102366092
 20
82.304813588939
 30
0.0
 40
4.5
 41
0.0
 71
           7
 72
           1
  1
60
  7
CONVERTER_3
 11
0.0
 21
1.0
 31
0.0
  0
ENDBLK
  5
2E2
100
AcDbEntity
  8
0
100
AcDbBlockEnd
  0
BLOCK
  5
2E8
100
AcDbEntity
  8
0
100
AcDbBlockBegin
  2
*D14
 70
           1
 10
0.0
 20
0.0
 30
0.0
  3
*D14
  1

  0
LINE
  5
2E9
100
AcDbEntity
  8
0
  6
CONTINUOUS
 62
           3
100
AcDbLine
 10
48.435362640064
 20
45.434370264789
 11
48.435362640064
 21
125.434370264789
  0
LINE
  5
2EA
100
AcDbEntity
  8
0
  6
CONTINUOUS
 62
           3
100
AcDbLine
 10
-19.000364317252
 20
45.434370264789
 11
51.435362640064
 21
45.434370264789
  0
LINE
  5
2EB
100
AcDbEntity
  8
0
  6
CONTINUOUS
 62
           3
100
AcDbLine
 10
-19.000364317252
 20
125.434370264789
 11
51.435362640064
 21
125.434370264789
  0
LINE
  5
2EC
100
AcDbEntity
  8
0
 62
           3
100
AcDbLine
 10
48.435362640064
 20
45.434370264789
 11
47.842926400921
 21
49.934370264789
  0
LINE
  5
2ED
100
AcDbEntity
  8
0
 62
           3
100
AcDbLine
 10
48.435362640064
 20
45.434370264789
 11
49.027798879208
 21
49.934370264789
  0
LINE
  5
2EE
100
AcDbEntity
  8
0
 62
           3
100
AcDbLine
 10
47.842926400921
 20
49.934370264789
 11
49.027798879208
 21
49.934370264789
  0
LINE
  5
2EF
100
AcDbEntity
  8
0
 62
           3
100
AcDbLine
 10
48.435362640064
 20
125.434370264789
 11
49.027798879208
 21
120.934370264789
  0
LINE
  5
2F0
100
AcDbEntity
  8
0
 62
           3
100
AcDbLine
 10
48.435362640064
 20
125.434370264789
 11
47.842926400921
 21
120.934370264789
  0
LINE
  5
2F1
100
AcDbEntity
  8
0
 62
           3
100
AcDbLine
 10
49.027798879208
 20
120.934370264789
 11
47.842926400921
 21
120.934370264789
  0
MTEXT
  5
2F2
100
AcDbEntity
  8
0
 62
           2
100
AcDbMText
 10
45.435362640064
 20
82.838375232774
 30
0.0
 40
4.5
 41
0.0
 71
           7
 72
           1
  1
80
  7
CONVERTER_3
 11
0.0
 21
1.0
 31
0.0
  0
ENDBLK
  5
2F3
100
AcDbEntity
  8
0
100
AcDbBlockEnd
  0
BLOCK
  5
2F9
100
AcDbEntity
  8
0
100
AcDbBlockBegin
  2
*D17
 70
           1
 10
0.0
 20
0.0
 30
0.0
  3
*D17
  1

  0
LINE
  5
2FA
100
AcDbEntity
  8
0
  6
CONTINUOUS
 62
           3
100
AcDbLine
 10
-99.000364317253
 20
-37.628731804763
 11
-39.000364317252
 21
-37.628731804763
  0
LINE
  5
2FB
100
AcDbEntity
  8
0
  6
CONTINUOUS
 62
           3
100
AcDbLine
 10
-99.000364317253
 20
-53.820293757354
 11
-99.000364317253
 21
-34.628731804763
  0
LINE
  5
2FC
100
AcDbEntity
  8
0
  6
CONTINUOUS
 62
           3
100
AcDbLine
 10
-39.000364317252
 20
-53.820293757354
 11
-39.000364317252
 21
-34.628731804763
  0
LINE
  5
2FD
100
AcDbEntity
  8
0
 62
           3
100
AcDbLine
 10
-99.000364317253
 20
-37.628731804763
 11
-94.500364317253
 21
-37.03629556562
  0
LINE
  5
2FE
100
AcDbEntity
  8
0
 62
           3
100
AcDbLine
 10
-99.000364317253
 20
-37.628731804763
 11
-94.500364317253
 21
-38.221168043906
  0
LINE
  5
2FF
100
AcDbEntity
  8
0
 62
           3
100
AcDbLine
 10
-94.500364317253
 20
-37.03629556562
 11
-94.500364317253
 21
-38.221168043906
  0
LINE
  5
300
100
AcDbEntity
  8
0
 62
           3
100
AcDbLine
 10
-39.000364317252
 20
-37.628731804763
 11
-43.500364317252
 21
-38.221168043906
  0
LINE
  5
301
100
AcDbEntity
  8
0
 62
           3
100
AcDbLine
 10
-39.000364317252
 20
-37.628731804763
 11
-43.500364317252
 21
-37.03629556562
  0
LINE
  5
302
100
AcDbEntity
  8
0
 62
           3
100
AcDbLine
 10
-43.500364317252
 20
-38.221168043906
 11
-43.500364317252
 21
-37.03629556562
  0
TEXT
  5
303
100
AcDbEntity
  8
0
 62
           2
100
AcDbText
 10
-72.291928657541
 20
-34.628731804763
 40
4.5
  1
60
 41
0.9
  7
CONVERTER_3
100
AcDbText
  0
ENDBLK
  5
304
100
AcDbEntity
  8
0
100
AcDbBlockEnd
  0
BLOCK
  5
30A
100
AcDbEntity
  8
0
100
AcDbBlockBegin
  2
*D20
 70
           1
 10
0.0
 20
0.0
 30
0.0
  3
*D20
  1

  0
LINE
  5
30B
100
AcDbEntity
  8
0
  6
CONTINUOUS
 62
           3
100
AcDbLine
 10
-119.000364317252
 20
-27.061866525239
 11
-19.000364317252
 21
-27.061866525239
  0
LINE
  5
30C
100
AcDbEntity
  8
0
  6
CONTINUOUS
 62
           3
100
AcDbLine
 10
-119.000364317252
 20
-47.120293757354
 11
-119.000364317252
 21
-24.061866525239
  0
LINE
  5
30D
100
AcDbEntity
  8
0
  6
CONTINUOUS
 62
           3
100
AcDbLine
 10
-19.000364317252
 20
-47.120293757354
 11
-19.000364317252
 21
-24.061866525239
  0
LINE
  5
30E
100
AcDbEntity
  8
0
 62
           3
100
AcDbLine
 10
-119.000364317252
 20
-27.061866525239
 11
-114.500364317252
 21
-26.469430286096
  0
LINE
  5
30F
100
AcDbEntity
  8
0
 62
           3
100
AcDbLine
 10
-119.000364317252
 20
-27.061866525239
 11
-114.500364317252
 21
-27.654302764383
  0
LINE
  5
310
100
AcDbEntity
  8
0
 62
           3
100
AcDbLine
 10
-114.500364317252
 20
-26.469430286096
 11
-114.500364317252
 21
-27.654302764383
  0
LINE
  5
311
100
AcDbEntity
  8
0
 62
           3
100
AcDbLine
 10
-19.000364317252
 20
-27.061866525239
 11
-23.500364317252
 21
-27.654302764383
  0
LINE
  5
312
100
AcDbEntity
  8
0
 62
           3
100
AcDbLine
 10
-19.000364317252
 20
-27.061866525239
 11
-23.500364317252
 21
-26.469430286096
  0
LINE
  5
313
100
AcDbEntity
  8
0
 62
           3
100
AcDbLine
 10
-23.500364317252
 20
-27.654302764383
 11
-23.500364317252
 21
-26.469430286096
  0
TEXT
  5
314
100
AcDbEntity
  8
0
 62
           2
100
AcDbText
 10
-74.115071879013
 20
-24.061866525239
 40
4.5
  1
100
 41
0.9
  7
CONVERTER_3
100
AcDbText
  0
ENDBLK
  5
315
100
AcDbEntity
  8
0
100
AcDbBlockEnd
  0
BLOCK
  5
31B
100
AcDbEntity
  8
0
100
AcDbBlockBegin
  2
*D23
 70
           1
 10
0.0
 20
0.0
 30
0.0
  3
*D23
  1

  0
LINE
  5
31C
100
AcDbEntity
  8
0
  6
CONTINUOUS
 62
           3
100
AcDbLine
 10
-126.000364317252
 20
-13.112073873264
 11
-69.000364317252
 21
-13.112073873264
  0
LINE
  5
31D
100
AcDbEntity
  8
0
  6
CONTINUOUS
 62
           3
100
AcDbLine
 10
-126.000364317252
 20
-50.120293757354
 11
-126.000364317252
 21
-10.112073873264
  0
LINE
  5
31E
100
AcDbEntity
  8
0
  6
CONTINUOUS
 62
           3
100
AcDbLine
 10
-69.000364317252
 20
-16.772471266966
 11
-69.000364317252
 21
-10.112073873264
  0
LINE
  5
31F
100
AcDbEntity
  8
0
  6
CONTINUOUS
 62
           3
100
AcDbLine
 10
-69.000364317252
 20
-45.756478888941
 11
-69.000364317252
 21
-41.49163823014
  0
LINE
  5
320
100
AcDbEntity
  8
0
 62
           3
100
AcDbLine
 10
-69.000364317252
 20
-13.112073873264
 11
-73.500364317252
 21
-13.704510112407
  0
LINE
  5
321
100
AcDbEntity
  8
0
 62
           3
100
AcDbLine
 10
-69.000364317252
 20
-13.112073873264
 11
-73.500364317252
 21
-12.519637634121
  0
LINE
  5
322
100
AcDbEntity
  8
0
 62
           3
100
AcDbLine
 10
-73.500364317252
 20
-13.704510112407
 11
-73.500364317252
 21
-12.519637634121
  0
LINE
  5
323
100
AcDbEntity
  8
0
 62
           3
100
AcDbLine
 10
-126.000364317252
 20
-13.112073873264
 11
-121.500364317252
 21
-12.519637634121
  0
LINE
  5
324
100
AcDbEntity
  8
0
 62
           3
100
AcDbLine
 10
-126.000364317252
 20
-13.112073873264
 11
-121.500364317252
 21
-13.704510112407
  0
LINE
  5
325
100
AcDbEntity
  8
0
 62
           3
100
AcDbLine
 10
-121.500364317252
 20
-12.519637634121
 11
-121.500364317252
 21
-13.704510112407
  0
TEXT
  5
326
100
AcDbEntity
  8
0
 62
           2
100
AcDbText
 10
-101.620742450019
 20
-10.112073873264
 40
4.5
  1
57
 41
0.9
  7
CONVERTER_3
100
AcDbText
  0
ENDBLK
  5
327
100
AcDbEntity
  8
0
100
AcDbBlockEnd
  0
BLOCK
  5
32D
100
AcDbEntity
  8
0
100
AcDbBlockBegin
  2
*D26
 70
           1
 10
0.0
 20
0.0
 30
0.0
  3
*D26
  1

  0
LINE
  5
32E
100
AcDbEntity
  8
0
  6
CONTINUOUS
 62
           3
100
AcDbLine
 10
-69.000364317252
 20
-0.402626043696
 11
19.499635682747
 21
-0.402626043696
  0
LINE
  5
32F
100
AcDbEntity
  8
0
  6
CONTINUOUS
 62
           3
100
AcDbLine
 10
-69.000364317252
 20
-16.772471266966
 11
-69.000364317252
 21
2.597373956304
  0
LINE
  5
330
100
AcDbEntity
  8
0
  6
CONTINUOUS
 62
           3
100
AcDbLine
 10
-69.000364317252
 20
-45.756478888941
 11
-69.000364317252
 21
-41.49163823014
  0
LINE
  5
331
100
AcDbEntity
  8
0
  6
CONTINUOUS
 62
           3
100
AcDbLine
 10
19.499635682747
 20
-80.120293757354
 11
19.499635682747
 21
2.597373956304
  0
LINE
  5
332
100
AcDbEntity
  8
0
 62
           3
100
AcDbLine
 10
-69.000364317252
 20
-0.402626043696
 11
-64.500364317252
 21
0.189810195447
  0
LINE
  5
333
100
AcDbEntity
  8
0
 62
           3
100
AcDbLine
 10
-69.000364317252
 20
-0.402626043696
 11
-64.500364317252
 21
-0.99506228284
  0
LINE
  5
334
100
AcDbEntity
  8
0
 62
           3
100
AcDbLine
 10
-64.500364317252
 20
0.189810195447
 11
-64.500364317252
 21
-0.99506228284
  0
LINE
  5
335
100
AcDbEntity
  8
0
 62
           3
100
AcDbLine
 10
19.499635682747
 20
-0.402626043696
 11
14.999635682747
 21
-0.99506228284
  0
LINE
  5
336
100
AcDbEntity
  8
0
 62
           3
100
AcDbLine
 10
19.499635682747
 20
-0.402626043696
 11
14.999635682747
 21
0.189810195447
  0
LINE
  5
337
100
AcDbEntity
  8
0
 62
           3
100
AcDbLine
 10
14.999635682747
 20
-0.99506228284
 11
14.999635682747
 21
0.189810195447
  0
TEXT
  5
338
100
AcDbEntity
  8
0
 62
           2
100
AcDbText
 10
-31.138038082469
 20
3.047373956304
 40
4.5
  1
88,5
 41
0.9
  7
CONVERTER_3
100
AcDbText
  0
ENDBLK
  5
339
100
AcDbEntity
  8
0
100
AcDbBlockEnd
  0
BLOCK
  5
33F
100
AcDbEntity
  8
0
100
AcDbBlockBegin
  2
*D29
 70
           1
 10
0.0
 20
0.0
 30
0.0
  3
*D29
  1

  0
LINE
  5
340
100
AcDbEntity
  8
0
  6
CONTINUOUS
 62
           3
100
AcDbLine
 10
-157.500364317252
 20
-0.402626043696
 11
-69.000364317252
 21
-0.402626043696
  0
LINE
  5
341
100
AcDbEntity
  8
0
  6
CONTINUOUS
 62
           3
100
AcDbLine
 10
-157.500364317252
 20
-80.120293757354
 11
-157.500364317252
 21
2.597373956304
  0
LINE
  5
342
100
AcDbEntity
  8
0
  6
CONTINUOUS
 62
           3
100
AcDbLine
 10
-69.000364317252
 20
-16.772471266966
 11
-69.000364317252
 21
2.597373956304
  0
LINE
  5
343
100
AcDbEntity
  8
0
  6
CONTINUOUS
 62
           3
100
AcDbLine
 10
-69.000364317252
 20
-45.756478888941
 11
-69.000364317252
 21
-41.49163823014
  0
LINE
  5
344
100
AcDbEntity
  8
0
 62
           3
100
AcDbLine
 10
-69.000364317252
 20
-0.402626043696
 11
-73.500364317252
 21
-0.99506228284
  0
LINE
  5
345
100
AcDbEntity
  8
0
 62
           3
100
AcDbLine
 10
-69.000364317252
 20
-0.402626043696
 11
-73.500364317252
 21
0.189810195447
  0
LINE
  5
346
100
AcDbEntity
  8
0
 62
           3
100
AcDbLine
 10
-73.500364317252
 20
-0.99506228284
 11
-73.500364317252
 21
0.189810195447
  0
LINE
  5
347
100
AcDbEntity
  8
0
 62
           3
100
AcDbLine
 10
-157.500364317252
 20
-0.402626043696
 11
-153.000364317252
 21
0.189810195447
  0
LINE
  5
348
100
AcDbEntity
  8
0
 62
           3
100
AcDbLine
 10
-157.500364317252
 20
-0.402626043696
 11
-153.000364317252
 21
-0.99506228284
  0
LINE
  5
349
100
AcDbEntity
  8
0
 62
           3
100
AcDbLine
 10
-153.000364317252
 20
0.189810195447
 11
-153.000364317252
 21
-0.99506228284
  0
TEXT
  5
34A
100
AcDbEntity
  8
0
 62
           2
100
AcDbText
 10
-120.529444193481
 20
3.047373956304
 40
4.5
  1
88,5
 41
0.9
  7
CONVERTER_3
100
AcDbText
  0
ENDBLK
  5
34B
100
AcDbEntity
  8
0
100
AcDbBlockEnd
  0
BLOCK
  5
351
100
AcDbEntity
  8
0
100
AcDbBlockBegin
  2
*D32
 70
           1
 10
0.0
 20
0.0
 30
0.0
  3
*D32
  1

  0
LINE
  5
352
100
AcDbEntity
  8
0
  6
CONTINUOUS
 62
           3
100
AcDbLine
 10
-167.878545220879
 20
-94.120293757354
 11
-167.878545220879
 21
-80.120293757354
  0
LINE
  5
353
100
AcDbEntity
  8
0
  6
CONTINUOUS
 62
           3
100
AcDbLine
 10
-167.878545220879
 20
-80.120293757354
 11
-167.878545220879
 21
-59.118663003313
  0
LINE
  5
354
100
AcDbEntity
  8
0
  6
CONTINUOUS
 62
           3
100
AcDbLine
 10
-157.500364317252
 20
-94.120293757354
 11
-170.878545220879
 21
-94.120293757354
  0
LINE
  5
355
100
AcDbEntity
  8
0
  6
CONTINUOUS
 62
           3
100
AcDbLine
 10
-157.500364317252
 20
-80.120293757354
 11
-170.878545220879
 21
-80.120293757354
  0
LINE
  5
356
100
AcDbEntity
  8
0
 62
           3
100
AcDbLine
 10
-167.878545220879
 20
-94.120293757354
 11
-168.470981460022
 21
-89.620293757354
  0
LINE
  5
357
100
AcDbEntity
  8
0
 62
           3
100
AcDbLine
 10
-167.878545220879
 20
-94.120293757354
 11
-167.286108981736
 21
-89.620293757354
  0
LINE
  5
358
100
AcDbEntity
  8
0
 62
           3
100
AcDbLine
 10
-168.470981460022
 20
-89.620293757354
 11
-167.286108981736
 21
-89.620293757354
  0
LINE
  5
359
100
AcDbEntity
  8
0
 62
           3
100
AcDbLine
 10
-167.878545220879
 20
-80.120293757354
 11
-167.286108981736
 21
-84.620293757354
  0
LINE
  5
35A
100
AcDbEntity
  8
0
 62
           3
100
AcDbLine
 10
-167.878545220879
 20
-80.120293757354
 11
-168.470981460022
 21
-84.620293757354
  0
LINE
  5
35B
100
AcDbEntity
  8
0
 62
           3
100
AcDbLine
 10
-167.286108981736
 20
-84.620293757354
 11
-168.470981460022
 21
-84.620293757354
  0
MTEXT
  5
35C
100
AcDbEntity
  8
0
 62
           2
100
AcDbMText
 10
-172.003545220879
 20
-74.508663003313
 30
0.0
 40
4.5
 41
0.0
 71
           7
 72
           1
  1
\C2;Ø\C2;\C2;14\C3;\H2.700000;\S^ k6;
  7
CONVERTER_3
 11
0.0
 21
1.0
 31
0.0
  0
ENDBLK
  5
35D
100
AcDbEntity
  8
0
100
AcDbBlockEnd
  0
BLOCK
  5
363
100
AcDbEntity
  8
0
100
AcDbBlockBegin
  2
*D35
 70
           1
 10
0.0
 20
0.0
 30
0.0
  3
*D35
  1

  0
LINE
  5
364
100
AcDbEntity
  8
0
  6
CONTINUOUS
 62
           3
100
AcDbLine
 10
-183.080746786437
 20
-124.120293757354
 11
-183.080746786437
 21
-50.120293757354
  0
LINE
  5
365
100
AcDbEntity
  8
0
  6
CONTINUOUS
 62
           3
100
AcDbLine
 10
-126.000364317252
 20
-124.120293757354
 11
-186.080746786437
 21
-124.120293757354
  0
LINE
  5
366
100
AcDbEntity
  8
0
  6
CONTINUOUS
 62
           3
100
AcDbLine
 10
-126.000364317252
 20
-50.120293757354
 11
-186.080746786437
 21
-50.120293757354
  0
LINE
  5
367
100
AcDbEntity
  8
0
 62
           3
100
AcDbLine
 10
-183.080746786437
 20
-124.120293757354
 11
-183.67318302558
 21
-119.620293757354
  0
LINE
  5
368
100
AcDbEntity
  8
0
 62
           3
100
AcDbLine
 10
-183.080746786437
 20
-124.120293757354
 11
-182.488310547294
 21
-119.620293757354
  0
LINE
  5
369
100
AcDbEntity
  8
0
 62
           3
100
AcDbLine
 10
-183.67318302558
 20
-119.620293757354
 11
-182.488310547294
 21
-119.620293757354
  0
LINE
  5
36A
100
AcDbEntity
  8
0
 62
           3
100
AcDbLine
 10
-183.080746786437
 20
-50.120293757354
 11
-182.488310547294
 21
-54.620293757354
  0
LINE
  5
36B
100
AcDbEntity
  8
0
 62
           3
100
AcDbLine
 10
-183.080746786437
 20
-50.120293757354
 11
-183.67318302558
 21
-54.620293757354
  0
LINE
  5
36C
100
AcDbEntity
  8
0
 62
           3
100
AcDbLine
 10
-182.488310547294
 20
-54.620293757354
 11
-183.67318302558
 21
-54.620293757354
  0
MTEXT
  5
36D
100
AcDbEntity
  8
0
 62
           2
100
AcDbMText
 10
-187.205746786437
 20
-93.100101359477
 30
0.0
 40
4.5
 41
0.0
 71
           7
 72
           1
  1
\C2;Ø\C2;\C2;74\C3;\H2.700000;\S^ h8;
  7
CONVERTER_3
 11
0.0
 21
1.0
 31
0.0
  0
ENDBLK
  5
36E
100
AcDbEntity
  8
0
100
AcDbBlockEnd
  0
BLOCK
  5
374
100
AcDbEntity
  8
0
100
AcDbBlockBegin
  2
*D38
 70
           1
 10
0.0
 20
0.0
 30
0.0
  3
*D38
  1

  0
LINE
  5
375
100
AcDbEntity
  8
0
  6
CONTINUOUS
 62
           3
100
AcDbLine
 10
-157.500364317252
 20
-37.628731804763
 11
-127.500364317252
 21
-37.628731804763
  0
LINE
  5
376
100
AcDbEntity
  8
0
  6
CONTINUOUS
 62
           3
100
AcDbLine
 10
-157.500364317252
 20
-80.120293757354
 11
-157.500364317252
 21
-34.628731804763
  0
LINE
  5
377
100
AcDbEntity
  8
0
  6
CONTINUOUS
 62
           3
100
AcDbLine
 10
-127.500364317252
 20
-76.522217546001
 11
-127.500364317252
 21
-34.628731804763
  0
LINE
  5
378
100
AcDbEntity
  8
0
 62
           3
100
AcDbLine
 10
-157.500364317252
 20
-37.628731804763
 11
-153.000364317252
 21
-37.03629556562
  0
LINE
  5
379
100
AcDbEntity
  8
0
 62
           3
100
AcDbLine
 10
-157.500364317252
 20
-37.628731804763
 11
-153.000364317252
 21
-38.221168043906
  0
LINE
  5
37A
100
AcDbEntity
  8
0
 62
           3
100
AcDbLine
 10
-153.000364317252
 20
-37.03629556562
 11
-153.000364317252
 21
-38.221168043906
  0
LINE
  5
37B
100
AcDbEntity
  8
0
 62
           3
100
AcDbLine
 10
-127.500364317252
 20
-37.628731804763
 11
-132.000364317252
 21
-38.221168043906
  0
LINE
  5
37C
100
AcDbEntity
  8
0
 62
           3
100
AcDbLine
 10
-127.500364317252
 20
-37.628731804763
 11
-132.000364317252
 21
-37.03629556562
  0
LINE
  5
37D
100
AcDbEntity
  8
0
 62
           3
100
AcDbLine
 10
-132.000364317252
 20
-38.221168043906
 11
-132.000364317252
 21
-37.03629556562
  0
TEXT
  5
37E
100
AcDbEntity
  8
0
 62
           2
100
AcDbText
 10
-144.995032500722
 20
-34.628731804763
 40
4.5
  1
30
 41
0.9
  7
CONVERTER_3
100
AcDbText
  0
ENDBLK
  5
37F
100
AcDbEntity
  8
0
100
AcDbBlockEnd
  0
BLOCK
  5
385
100
AcDbEntity
  8
0
100
AcDbBlockBegin
  2
*D41
 70
           1
 10
0.0
 20
0.0
 30
0.0
  3
*D41
  1

  0
LINE
  5
386
100
AcDbEntity
  8
0
  6
CONTINUOUS
 62
           3
100
AcDbLine
 10
-10.500364317253
 20
-37.628731804763
 11
19.499635682747
 21
-37.628731804763
  0
LINE
  5
387
100
AcDbEntity
  8
0
  6
CONTINUOUS
 62
           3
100
AcDbLine
 10
-10.500364317253
 20
-76.522217546001
 11
-10.500364317253
 21
-34.628731804763
  0
LINE
  5
388
100
AcDbEntity
  8
0
  6
CONTINUOUS
 62
           3
100
AcDbLine
 10
19.499635682747
 20
-80.120293757354
 11
19.499635682747
 21
-34.628731804763
  0
LINE
  5
389
100
AcDbEntity
  8
0
 62
           3
100
AcDbLine
 10
19.499635682747
 20
-37.628731804763
 11
14.999635682747
 21
-38.221168043906
  0
LINE
  5
38A
100
AcDbEntity
  8
0
 62
           3
100
AcDbLine
 10
19.499635682747
 20
-37.628731804763
 11
14.999635682747
 21
-37.03629556562
  0
LINE
  5
38B
100
AcDbEntity
  8
0
 62
           3
100
AcDbLine
 10
14.999635682747
 20
-38.221168043906
 11
14.999635682747
 21
-37.03629556562
  0
LINE
  5
38C
100
AcDbEntity
  8
0
 62
           3
100
AcDbLine
 10
-10.500364317253
 20
-37.628731804763
 11
-6.000364317253
 21
-37.03629556562
  0
LINE
  5
38D
100
AcDbEntity
  8
0
 62
           3
100
AcDbLine
 10
-10.500364317253
 20
-37.628731804763
 11
-6.000364317253
 21
-38.221168043906
  0
LINE
  5
38E
100
AcDbEntity
  8
0
 62
           3
100
AcDbLine
 10
-6.000364317253
 20
-37.03629556562
 11
-6.000364317253
 21
-38.221168043906
  0
TEXT
  5
38F
100
AcDbEntity
  8
0
 62
           2
100
AcDbText
 10
-1.754647508255
 20
-34.628731804763
 40
4.5
  1
30
 41
0.9
  7
CONVERTER_3
100
AcDbText
  0
ENDBLK
  5
390
100
AcDbEntity
  8
0
100
AcDbBlockEnd
  0
BLOCK
  5
396
100
AcDbEntity
  8
0
100
AcDbBlockBegin
  2
*D44
 70
           1
 10
0.0
 20
0.0
 30
0.0
  3
*D44
  1

  0
LINE
  5
397
100
AcDbEntity
  8
0
  6
CONTINUOUS
 62
           3
100
AcDbLine
 10
-110.000364317252
 20
-27.061866525239
 11
-119.000364317252
 21
-27.061866525239
  0
LINE
  5
398
100
AcDbEntity
  8
0
  6
CONTINUOUS
 62
           3
100
AcDbLine
 10
-126.000364317252
 20
-27.061866525239
 11
-119.000364317252
 21
-27.061866525239
  0
LINE
  5
399
100
AcDbEntity
  8
0
  6
CONTINUOUS
 62
           3
100
AcDbLine
 10
-126.000364317252
 20
-27.061866525239
 11
-135.833471393688
 21
-27.061866525239
  0
LINE
  5
39A
100
AcDbEntity
  8
0
  6
CONTINUOUS
 62
           3
100
AcDbLine
 10
-126.000364317252
 20
-50.120293757354
 11
-126.000364317252
 21
-24.061866525239
  0
LINE
  5
39B
100
AcDbEntity
  8
0
  6
CONTINUOUS
 62
           3
100
AcDbLine
 10
-119.000364317252
 20
-47.120293757354
 11
-119.000364317252
 21
-24.061866525239
  0
LINE
  5
39C
100
AcDbEntity
  8
0
 62
           3
100
AcDbLine
 10
-119.000364317252
 20
-27.061866525239
 11
-114.500364317252
 21
-26.469430286096
  0
LINE
  5
39D
100
AcDbEntity
  8
0
 62
           3
100
AcDbLine
 10
-119.000364317252
 20
-27.061866525239
 11
-114.500364317252
 21
-27.654302764383
  0
LINE
  5
39E
100
AcDbEntity
  8
0
 62
           3
100
AcDbLine
 10
-114.500364317252
 20
-26.469430286096
 11
-114.500364317252
 21
-27.654302764383
  0
LINE
  5
39F
100
AcDbEntity
  8
0
 62
           3
100
AcDbLine
 10
-126.000364317252
 20
-27.061866525239
 11
-130.500364317252
 21
-27.654302764383
  0
LINE
  5
3A0
100
AcDbEntity
  8
0
 62
           3
100
AcDbLine
 10
-126.000364317252
 20
-27.061866525239
 11
-130.500364317252
 21
-26.469430286096
  0
LINE
  5
3A1
100
AcDbEntity
  8
0
 62
           3
100
AcDbLine
 10
-130.500364317252
 20
-27.654302764383
 11
-130.500364317252
 21
-26.469430286096
  0
TEXT
  5
3A2
100
AcDbEntity
  8
0
 62
           2
100
AcDbText
 10
-135.833471393688
 20
-24.061866525239
 40
4.5
  1
7
 41
0.9
  7
CONVERTER_3
100
AcDbText
  0
ENDBLK
  5
3A3
100
AcDbEntity
  8
0
100
AcDbBlockEnd
  0
BLOCK
  5
3A9
100
AcDbEntity
  8
0
100
AcDbBlockBegin
  2
*D47
 70
           1
 10
0.0
 20
0.0
 30
0.0
  3
*D47
  1

  0
LINE
  5
3AA
100
AcDbEntity
  8
0
  6
CONTINUOUS
 62
           3
100
AcDbLine
 10
-95.000364317253
 20
-159.693304229666
 11
-43.000364317253
 21
-159.693304229666
  0
LINE
  5
3AB
100
AcDbEntity
  8
0
  6
CONTINUOUS
 62
           3
100
AcDbLine
 10
-95.000364317253
 20
-166.120293757354
 11
-95.000364317253
 21
-156.693304229666
  0
LINE
  5
3AC
100
AcDbEntity
  8
0
  6
CONTINUOUS
 62
           3
100
AcDbLine
 10
-43.000364317253
 20
-166.120293757354
 11
-43.000364317253
 21
-156.693304229666
  0
LINE
  5
3AD
100
AcDbEntity
  8
0
 62
           3
100
AcDbLine
 10
-43.000364317253
 20
-159.693304229666
 11
-47.500364317253
 21
-160.285740468809
  0
LINE
  5
3AE
100
AcDbEntity
  8
0
 62
           3
100
AcDbLine
 10
-43.000364317253
 20
-159.693304229666
 11
-47.500364317253
 21
-159.100867990523
  0
LINE
  5
3AF
100
AcDbEntity
  8
0
 62
           3
100
AcDbLine
 10
-47.500364317253
 20
-160.285740468809
 11
-47.500364317253
 21
-159.100867990523
  0
LINE
  5
3B0
100
AcDbEntity
  8
0
 62
           3
100
AcDbLine
 10
-95.000364317253
 20
-159.693304229666
 11
-90.500364317253
 21
-159.100867990523
  0
LINE
  5
3B1
100
AcDbEntity
  8
0
 62
           3
100
AcDbLine
 10
-95.000364317253
 20
-159.693304229666
 11
-90.500364317253
 21
-160.285740468809
  0
LINE
  5
3B2
100
AcDbEntity
  8
0
 62
           3
100
AcDbLine
 10
-90.500364317253
 20
-159.100867990523
 11
-90.500364317253
 21
-160.285740468809
  0
MTEXT
  5
3B3
100
AcDbEntity
  8
0
 62
           2
100
AcDbMText
 10
-61.407822781218
 20
-156.693304229666
 30
0.0
 40
4.5
 41
0.0
 71
           7
 72
           1
  1
\C2;Ø\C2;52
  7
CONVERTER_3
  0
ENDBLK
  5
3B4
100
AcDbEntity
  8
0
100
AcDbBlockEnd
  0
BLOCK
  5
3BA
100
AcDbEntity
  8
0
100
AcDbBlockBegin
  2
*D50
 70
           1
 10
0.0
 20
0.0
 30
0.0
  3
*D50
  1

  0
LINE
  5
3BB
100
AcDbEntity
  8
0
  6
CONTINUOUS
 62
           3
100
AcDbLine
 10
-76.000364317253
 20
-213.481774549301
 11
-62.000364317253
 21
-213.481774549301
  0
LINE
  5
3BC
100
AcDbEntity
  8
0
  6
CONTINUOUS
 62
           3
100
AcDbLine
 10
-62.000364317253
 20
-213.481774549301
 11
-38.313696884283
 21
-213.481774549301
  0
LINE
  5
3BD
100
AcDbEntity
  8
0
  6
CONTINUOUS
 62
           3
100
AcDbLine
 10
-76.000364317253
 20
-197.120293757354
 11
-76.000364317253
 21
-216.481774549301
  0
LINE
  5
3BE
100
AcDbEntity
  8
0
  6
CONTINUOUS
 62
           3
100
AcDbLine
 10
-62.000364317253
 20
-197.120293757354
 11
-62.000364317253
 21
-216.481774549301
  0
LINE
  5
3BF
100
AcDbEntity
  8
0
 62
           3
100
AcDbLine
 10
-76.000364317253
 20
-213.481774549301
 11
-71.500364317253
 21
-212.889338310158
  0
LINE
  5
3C0
100
AcDbEntity
  8
0
 62
           3
100
AcDbLine
 10
-76.000364317253
 20
-213.481774549301
 11
-71.500364317253
 21
-214.074210788444
  0
LINE
  5
3C1
100
AcDbEntity
  8
0
 62
           3
100
AcDbLine
 10
-71.500364317253
 20
-212.889338310158
 11
-71.500364317253
 21
-214.074210788444
  0
LINE
  5
3C2
100
AcDbEntity
  8
0
 62
           3
100
AcDbLine
 10
-62.000364317253
 20
-213.481774549301
 11
-66.500364317253
 21
-214.074210788444
  0
LINE
  5
3C3
100
AcDbEntity
  8
0
 62
           3
100
AcDbLine
 10
-62.000364317253
 20
-213.481774549301
 11
-66.500364317253
 21
-212.889338310158
  0
LINE
  5
3C4
100
AcDbEntity
  8
0
 62
           3
100
AcDbLine
 10
-66.500364317253
 20
-214.074210788444
 11
-66.500364317253
 21
-212.889338310158
  0
MTEXT
  5
3C5
100
AcDbEntity
  8
0
 62
           2
100
AcDbMText
 10
-53.703696884283
 20
-209.356774549301
 30
0.0
 40
4.5
 41
0.0
 71
           7
 72
           1
  1
\C2;Ø\C2;\C2;14\C3;\H2.700000;\S^ k6;
  7
CONVERTER_3
  0
ENDBLK
  5
3C6
100
AcDbEntity
  8
0
100
AcDbBlockEnd
  0
BLOCK
  5
3CC
100
AcDbEntity
  8
0
100
AcDbBlockBegin
  2
*D53
 70
           1
 10
0.0
 20
0.0
 30
0.0
  3
*D53
  1

  0
LINE
  5
3CD
100
AcDbEntity
  8
0
  6
CONTINUOUS
 62
           3
100
AcDbLine
 10
-106.000364317253
 20
-232.256725625621
 11
-32.000364317253
 21
-232.256725625621
  0
LINE
  5
3CE
100
AcDbEntity
  8
0
  6
CONTINUOUS
 62
           3
100
AcDbLine
 10
-106.000364317253
 20
-135.120293757354
 11
-106.000364317253
 21
-235.256725625621
  0
LINE
  5
3CF
100
AcDbEntity
  8
0
  6
CONTINUOUS
 62
           3
100
AcDbLine
 10
-32.000364317253
 20
-135.120293757354
 11
-32.000364317253
 21
-235.256725625621
  0
LINE
  5
3D0
100
AcDbEntity
  8
0
 62
           3
100
AcDbLine
 10
-106.000364317253
 20
-232.256725625621
 11
-101.500364317253
 21
-231.664289386478
  0
LINE
  5
3D1
100
AcDbEntity
  8
0
 62
           3
100
AcDbLine
 10
-106.000364317253
 20
-232.256725625621
 11
-101.500364317253
 21
-232.849161864764
  0
LINE
  5
3D2
100
AcDbEntity
  8
0
 62
           3
100
AcDbLine
 10
-101.500364317253
 20
-231.664289386478
 11
-101.500364317253
 21
-232.849161864764
  0
LINE
  5
3D3
100
AcDbEntity
  8
0
 62
           3
100
AcDbLine
 10
-32.000364317253
 20
-232.256725625621
 11
-36.500364317253
 21
-232.849161864764
  0
LINE
  5
3D4
100
AcDbEntity
  8
0
 62
           3
100
AcDbLine
 10
-32.000364317253
 20
-232.256725625621
 11
-36.500364317253
 21
-231.664289386478
  0
LINE
  5
3D5
100
AcDbEntity
  8
0
 62
           3
100
AcDbLine
 10
-36.500364317253
 20
-232.849161864764
 11
-36.500364317253
 21
-231.664289386478
  0
MTEXT
  5
3D6
100
AcDbEntity
  8
0
 62
           2
100
AcDbMText
 10
-73.153647960604
 20
-228.131725625621
 30
0.0
 40
4.5
 41
0.0
 71
           7
 72
           1
  1
\C2;Ø\C2;\C2;74\C3;\H2.700000;\S^ h8;
  7
CONVERTER_3
  0
ENDBLK
  5
3D7
100
AcDbEntity
  8
0
100
AcDbBlockEnd
  0
BLOCK
  5
3DD
100
AcDbEntity
  8
0
100
AcDbBlockBegin
  2
*D56
 70
           1
 10
0.0
 20
0.0
 30
0.0
  3
*D56
  1

  0
LINE
  5
3DE
100
AcDbEntity
  8
0
  6
CONTINUOUS
 62
           3
100
AcDbLine
 10
34.534782775327
 20
-117.120293757354
 11
34.534782775327
 21
-57.120293757354
  0
LINE
  5
3DF
100
AcDbEntity
  8
0
  6
CONTINUOUS
 62
           3
100
AcDbLine
 10
-35.700364317252
 20
-117.120293757354
 11
37.534782775327
 21
-117.120293757354
  0
LINE
  5
3E0
100
AcDbEntity
  8
0
  6
CONTINUOUS
 62
           3
100
AcDbLine
 10
-35.700364317253
 20
-57.120293757354
 11
37.534782775327
 21
-57.120293757354
  0
LINE
  5
3E1
100
AcDbEntity
  8
0
 62
           3
100
AcDbLine
 10
34.534782775327
 20
-117.120293757354
 11
33.942346536184
 21
-112.620293757354
  0
LINE
  5
3E2
100
AcDbEntity
  8
0
 62
           3
100
AcDbLine
 10
34.534782775327
 20
-117.120293757354
 11
35.12721901447
 21
-112.620293757354
  0
LINE
  5
3E3
100
AcDbEntity
  8
0
 62
           3
100
AcDbLine
 10
33.942346536184
 20
-112.620293757354
 11
35.12721901447
 21
-112.620293757354
  0
LINE
  5
3E4
100
AcDbEntity
  8
0
 62
           3
100
AcDbLine
 10
34.534782775327
 20
-57.120293757354
 11
35.12721901447
 21
-61.620293757354
  0
LINE
  5
3E5
100
AcDbEntity
  8
0
 62
           3
100
AcDbLine
 10
34.534782775327
 20
-57.120293757354
 11
33.942346536184
 21
-61.620293757354
  0
LINE
  5
3E6
100
AcDbEntity
  8
0
 62
           3
100
AcDbLine
 10
35.12721901447
 20
-61.620293757354
 11
33.942346536184
 21
-61.620293757354
  0
MTEXT
  5
3E7
100
AcDbEntity
  8
0
 62
           2
100
AcDbMText
 10
31.534782775327
 20
-91.045781546869
 30
0.0
 40
4.5
 41
0.0
 71
           7
 72
           1
  1
60
  7
CONVERTER_3
 11
0.0
 21
1.0
 31
0.0
  0
ENDBLK
  5
3E8
100
AcDbEntity
  8
0
100
AcDbBlockEnd
  0
BLOCK
  5
3EE
100
AcDbEntity
  8
0
100
AcDbBlockBegin
  2
*D59
 70
           1
 10
0.0
 20
0.0
 30
0.0
  3
*D59
  1

  0
LINE
  5
3EF
100
AcDbEntity
  8
0
  6
CONTINUOUS
 62
           3
100
AcDbLine
 10
45.759879140149
 20
-127.120293757354
 11
45.759879140149
 21
-47.120293757354
  0
LINE
  5
3F0
100
AcDbEntity
  8
0
  6
CONTINUOUS
 62
           3
100
AcDbLine
 10
-19.000364317253
 20
-127.120293757354
 11
48.759879140149
 21
-127.120293757354
  0
LINE
  5
3F1
100
AcDbEntity
  8
0
  6
CONTINUOUS
 62
           3
100
AcDbLine
 10
-19.000364317253
 20
-47.120293757354
 11
48.759879140149
 21
-47.120293757354
  0
LINE
  5
3F2
100
AcDbEntity
  8
0
 62
           3
100
AcDbLine
 10
45.759879140149
 20
-127.120293757354
 11
45.167442901006
 21
-122.620293757354
  0
LINE
  5
3F3
100
AcDbEntity
  8
0
 62
           3
100
AcDbLine
 10
45.759879140149
 20
-127.120293757354
 11
46.352315379292
 21
-122.620293757354
  0
LINE
  5
3F4
100
AcDbEntity
  8
0
 62
           3
100
AcDbLine
 10
45.167442901006
 20
-122.620293757354
 11
46.352315379292
 21
-122.620293757354
  0
LINE
  5
3F5
100
AcDbEntity
  8
0
 62
           3
100
AcDbLine
 10
45.759879140149
 20
-47.120293757354
 11
46.352315379292
 21
-51.620293757354
  0
LINE
  5
3F6
100
AcDbEntity
  8
0
 62
           3
100
AcDbLine
 10
45.759879140149
 20
-47.120293757354
 11
45.167442901006
 21
-51.620293757354
  0
LINE
  5
3F7
100
AcDbEntity
  8
0
 62
           3
100
AcDbLine
 10
46.352315379292
 20
-51.620293757354
 11
45.167442901006
 21
-51.620293757354
  0
MTEXT
  5
3F8
100
AcDbEntity
  8
0
 62
           2
100
AcDbMText
 10
42.759879140149
 20
-91.045781546869
 30
0.0
 40
4.5
 41
0.0
 71
           7
 72
           1
  1
80
  7
CONVERTER_3
 11
0.0
 21
1.0
 31
0.0
  0
ENDBLK
  5
3F9
100
AcDbEntity
  8
0
100
AcDbBlockEnd
  0
BLOCK
  5
3FF
100
AcDbEntity
  8
0
100
AcDbBlockBegin
  2
*D62
 70
           1
 10
0.0
 20
0.0
 30
0.0
  3
*D62
  1

  0
LINE
  5
400
100
AcDbEntity
  8
0
  6
CONTINUOUS
 62
           3
100
AcDbLine
 10
72.661403186879
 20
-197.120293757354
 11
72.661403186879
 21
-87.120293757354
  0
LINE
  5
401
100
AcDbEntity
  8
0
  6
CONTINUOUS
 62
           3
100
AcDbLine
 10
-62.000364317253
 20
-197.120293757354
 11
75.661403186879
 21
-197.120293757354
  0
LINE
  5
402
100
AcDbEntity
  8
0
  6
CONTINUOUS
 62
           3
100
AcDbLine
 10
53.126786471782
 20
-87.120293757354
 11
75.661403186879
 21
-87.120293757354
  0
LINE
  5
403
100
AcDbEntity
  8
0
 62
           3
100
AcDbLine
 10
72.661403186879
 20
-87.120293757354
 11
73.253839426022
 21
-91.620293757354
  0
LINE
  5
404
100
AcDbEntity
  8
0
 62
           3
100
AcDbLine
 10
72.661403186879
 20
-87.120293757354
 11
72.068966947736
 21
-91.620293757354
  0
LINE
  5
405
100
AcDbEntity
  8
0
 62
           3
100
AcDbLine
 10
73.253839426022
 20
-91.620293757354
 11
72.068966947736
 21
-91.620293757354
  0
LINE
  5
406
100
AcDbEntity
  8
0
 62
           3
100
AcDbLine
 10
72.661403186879
 20
-197.120293757354
 11
72.068966947736
 21
-192.620293757354
  0
LINE
  5
407
100
AcDbEntity
  8
0
 62
           3
100
AcDbLine
 10
72.661403186879
 20
-197.120293757354
 11
73.253839426022
 21
-192.620293757354
  0
LINE
  5
408
100
AcDbEntity
  8
0
 62
           3
100
AcDbLine
 10
72.068966947736
 20
-192.620293757354
 11
73.253839426022
 21
-192.620293757354
  0
MTEXT
  5
409
100
AcDbEntity
  8
0
 62
           2
100
AcDbMText
 10
69.661403186879
 20
-152.878203120729
 30
0.0
 40
4.5
 41
0.0
 71
           7
 72
           1
  1
110
  7
CONVERTER_3
 11
0.0
 21
1.0
 31
0.0
  0
ENDBLK
  5
40A
100
AcDbEntity
  8
0
100
AcDbBlockEnd
  0
BLOCK
  5
410
100
AcDbEntity
  8
0
100
AcDbBlockBegin
  2
*D65
 70
           1
 10
0.0
 20
0.0
 30
0.0
  3
*D65
  1

  0
LINE
  5
411
100
AcDbEntity
  8
0
  6
CONTINUOUS
 62
           3
100
AcDbLine
 10
59.307409235624
 20
-197.120293757354
 11
59.307409235624
 21
-167.120293757354
  0
LINE
  5
412
100
AcDbEntity
  8
0
  6
CONTINUOUS
 62
           3
100
AcDbLine
 10
-62.000364317253
 20
-197.120293757354
 11
62.307409235624
 21
-197.120293757354
  0
LINE
  5
413
100
AcDbEntity
  8
0
  6
CONTINUOUS
 62
           3
100
AcDbLine
 10
-62.000364317253
 20
-167.120293757354
 11
62.307409235624
 21
-167.120293757354
  0
LINE
  5
414
100
AcDbEntity
  8
0
 62
           3
100
AcDbLine
 10
59.307409235624
 20
-197.120293757354
 11
58.714972996481
 21
-192.620293757354
  0
LINE
  5
415
100
AcDbEntity
  8
0
 62
           3
100
AcDbLine
 10
59.307409235624
 20
-197.120293757354
 11
59.899845474768
 21
-192.620293757354
  0
LINE
  5
416
100
AcDbEntity
  8
0
 62
           3
100
AcDbLine
 10
58.714972996481
 20
-192.620293757354
 11
59.899845474768
 21
-192.620293757354
  0
LINE
  5
417
100
AcDbEntity
  8
0
 62
           3
100
AcDbLine
 10
59.307409235624
 20
-167.120293757354
 11
59.899845474768
 21
-171.620293757354
  0
LINE
  5
418
100
AcDbEntity
  8
0
 62
           3
100
AcDbLine
 10
59.307409235624
 20
-167.120293757354
 11
58.714972996481
 21
-171.620293757354
  0
LINE
  5
419
100
AcDbEntity
  8
0
 62
           3
100
AcDbLine
 10
59.899845474768
 20
-171.620293757354
 11
58.714972996481
 21
-171.620293757354
  0
MTEXT
  5
41A
100
AcDbEntity
  8
0
 62
           2
100
AcDbMText
 10
56.307409235624
 20
-184.961748456671
 30
0.0
 40
4.5
 41
0.0
 71
           7
 72
           1
  1
30
  7
CONVERTER_3
 11
0.0
 21
1.0
 31
0.0
  0
ENDBLK
  5
41B
100
AcDbEntity
  8
0
100
AcDbBlockEnd
  0
BLOCK
  5
421
100
AcDbEntity
  8
0
100
AcDbBlockBegin
  2
*D68
 70
           1
 10
0.0
 20
0.0
 30
0.0
  3
*D68
  1

  0
LINE
  5
422
100
AcDbEntity
  8
0
  6
CONTINUOUS
 62
           3
100
AcDbLine
 10
45.759879140149
 20
-118.120293757354
 11
45.759879140149
 21
-127.120293757354
  0
LINE
  5
423
100
AcDbEntity
  8
0
  6
CONTINUOUS
 62
           3
100
AcDbLine
 10
45.759879140149
 20
-135.120293757354
 11
45.759879140149
 21
-127.120293757354
  0
LINE
  5
424
100
AcDbEntity
  8
0
  6
CONTINUOUS
 62
           3
100
AcDbLine
 10
45.759879140149
 20
-135.120293757354
 11
45.759879140149
 21
-144.759191082539
  0
LINE
  5
425
100
AcDbEntity
  8
0
  6
CONTINUOUS
 62
           3
100
AcDbLine
 10
-32.000364317253
 20
-135.120293757354
 11
48.759879140149
 21
-135.120293757354
  0
LINE
  5
426
100
AcDbEntity
  8
0
  6
CONTINUOUS
 62
           3
100
AcDbLine
 10
-19.000364317253
 20
-127.120293757354
 11
48.759879140149
 21
-127.120293757354
  0
LINE
  5
427
100
AcDbEntity
  8
0
 62
           3
100
AcDbLine
 10
45.759879140149
 20
-135.120293757354
 11
46.352315379292
 21
-139.620293757354
  0
LINE
  5
428
100
AcDbEntity
  8
0
 62
           3
100
AcDbLine
 10
45.759879140149
 20
-135.120293757354
 11
45.167442901006
 21
-139.620293757354
  0
LINE
  5
429
100
AcDbEntity
  8
0
 62
           3
100
AcDbLine
 10
46.352315379292
 20
-139.620293757354
 11
45.167442901006
 21
-139.620293757354
  0
LINE
  5
42A
100
AcDbEntity
  8
0
 62
           3
100
AcDbLine
 10
45.759879140149
 20
-127.120293757354
 11
45.167442901006
 21
-122.620293757354
  0
LINE
  5
42B
100
AcDbEntity
  8
0
 62
           3
100
AcDbLine
 10
45.759879140149
 20
-127.120293757354
 11
46.352315379292
 21
-122.620293757354
  0
LINE
  5
42C
100
AcDbEntity
  8
0
 62
           3
100
AcDbLine
 10
45.167442901006
 20
-122.620293757354
 11
46.352315379292
 21
-122.620293757354
  0
MTEXT
  5
42D
100
AcDbEntity
  8
0
 62
           2
100
AcDbMText
 10
42.759879140149
 20
-144.759191082539
 30
0.0
 40
4.5
 41
0.0
 71
           7
 72
           1
  1
8
  7
CONVERTER_3
 11
0.0
 21
1.0
 31
0.0
  0
ENDBLK
  5
42E
100
AcDbEntity
  8
0
100
AcDbBlockEnd
  0
BLOCK
  5
434
100
AcDbEntity
  8
0
100
AcDbBlockBegin
  2
*D71
 70
           1
 10
0.0
 20
0.0
 30
0.0
  3
*D71
  1

  0
LINE
  5
435
100
AcDbEntity
  8
0
  6
CONTINUOUS
 62
           3
100
AcDbLine
 10
59.307409235624
 20
-166.120293757354
 11
59.307409235624
 21
-87.120293757354
  0
LINE
  5
436
100
AcDbEntity
  8
0
  6
CONTINUOUS
 62
           3
100
AcDbLine
 10
-43.000364317253
 20
-166.120293757354
 11
62.307409235624
 21
-166.120293757354
  0
LINE
  5
437
100
AcDbEntity
  8
0
  6
CONTINUOUS
 62
           3
100
AcDbLine
 10
56.603360801182
 20
-87.120293757354
 11
62.307409235624
 21
-87.120293757354
  0
LINE
  5
438
100
AcDbEntity
  8
0
 62
           3
100
AcDbLine
 10
59.307409235624
 20
-87.120293757354
 11
59.899845474768
 21
-91.620293757354
  0
LINE
  5
439
100
AcDbEntity
  8
0
 62
           3
100
AcDbLine
 10
59.307409235624
 20
-87.120293757354
 11
58.714972996481
 21
-91.620293757354
  0
LINE
  5
43A
100
AcDbEntity
  8
0
 62
           3
100
AcDbLine
 10
59.899845474768
 20
-91.620293757354
 11
58.714972996481
 21
-91.620293757354
  0
LINE
  5
43B
100
AcDbEntity
  8
0
 62
           3
100
AcDbLine
 10
59.307409235624
 20
-166.120293757354
 11
58.714972996481
 21
-161.620293757354
  0
LINE
  5
43C
100
AcDbEntity
  8
0
 62
           3
100
AcDbLine
 10
59.307409235624
 20
-166.120293757354
 11
59.899845474768
 21
-161.620293757354
  0
LINE
  5
43D
100
AcDbEntity
  8
0
 62
           3
100
AcDbLine
 10
58.714972996481
 20
-161.620293757354
 11
59.899845474768
 21
-161.620293757354
  0
MTEXT
  5
43E
100
AcDbEntity
  8
0
 62
           2
100
AcDbMText
 10
56.307409235624
 20
-122.949582768479
 30
0.0
 40
4.5
 41
0.0
 71
           7
 72
           1
  1
79
  7
CONVERTER_3
 11
0.0
 21
1.0
 31
0.0
  0
ENDBLK
  5
43F
100
AcDbEntity
  8
0
100
AcDbBlockEnd
  0
ENDSEC
  0
SECTION
  2
ENTITIES
  0
DIMENSION
  5
443
100
AcDbEntity
  8
0
100
AcDbDimension
  2
*D71
 10
59.307409235624
 20
-87.120293757354
 11
54.057409235624
 21
-119.574582768479
 31
0.0
 53
90.0
  1
<>
  3
ME10_DIM_23
100
AcDbAlignedDimension
 13
-43.000364317253
 23
-166.120293757354
 14
24.499635682747
 24
-87.120293757354
 50
90.0
100
AcDbRotatedDimension
  0
DIMENSION
  5
432
100
AcDbEntity
  8
0
100
AcDbDimension
  2
*D68
 10
45.759879140149
 20
-135.120293757354
 11
40.509879140149
 21
-143.409191082539
 31
0.0
 53
90.0
  1
<>
  3
ME10_DIM_22
100
AcDbAlignedDimension
 13
-19.000364317253
 23
-127.120293757354
 14
-32.000364317253
 24
-135.120293757354
 50
90.0
100
AcDbRotatedDimension
  0
DIMENSION
  5
41F
100
AcDbEntity
  8
0
100
AcDbDimension
  2
*D65
 10
59.307409235624
 20
-197.120293757354
 11
54.057409235624
 21
-181.586748456671
 31
0.0
 53
90.0
  1
<>
  3
ME10_DIM_21
100
AcDbAlignedDimension
 13
-62.000364317253
 23
-167.120293757354
 14
-62.000364317253
 24
-197.120293757354
 50
90.0
100
AcDbRotatedDimension
  0
DIMENSION
  5
40E
100
AcDbEntity
  8
0
100
AcDbDimension
  2
*D62
 10
72.661403186879
 20
-87.120293757354
 11
67.411403186879
 21
-148.828203120729
 31
0.0
 53
90.0
  1
<>
  3
ME10_DIM_20
100
AcDbAlignedDimension
 13
-62.000364317253
 23
-197.120293757354
 14
24.499635682747
 24
-87.120293757354
 50
90.0
100
AcDbRotatedDimension
  0
DIMENSION
  5
3FD
100
AcDbEntity
  8
0
100
AcDbDimension
  2
*D59
 10
45.759879140149
 20
-127.120293757354
 11
40.509879140149
 21
-87.670781546869
 31
0.0
 53
90.0
  1
<>
  3
ME10_DIM_19
100
AcDbAlignedDimension
 13
-19.000364317253
 23
-47.120293757354
 14
-19.000364317253
 24
-127.120293757354
 50
90.0
100
AcDbRotatedDimension
  0
DIMENSION
  5
3EC
100
AcDbEntity
  8
0
100
AcDbDimension
  2
*D56
 10
34.534782775327
 20
-117.120293757354
 11
29.284782775327
 21
-87.670781546869
 31
0.0
 53
90.0
  1
<>
  3
ME10_DIM_18
100
AcDbAlignedDimension
 13
-35.700364317253
 23
-57.120293757354
 14
-35.700364317252
 24
-117.120293757354
 50
90.0
100
AcDbRotatedDimension
  0
DIMENSION
  5
3DB
100
AcDbEntity
  8
0
100
AcDbDimension
  2
*D53
 10
-106.000364317253
 20
-232.256725625621
 11
-65.638647960604
 21
-225.881725625621
 31
0.0
  1
<>
  3
ME10_DIM_17
100
AcDbAlignedDimension
 13
-32.000364317253
 23
-135.120293757354
 14
-106.000364317253
 24
-135.120293757354
100
AcDbRotatedDimension
  0
DIMENSION
  5
3CA
100
AcDbEntity
  8
0
100
AcDbDimension
  2
*D50
 10
-76.000364317253
 20
-213.481774549301
 11
-46.863696884283
 21
-207.106774549301
 31
0.0
  1
<>
  3
ME10_DIM_16
100
AcDbAlignedDimension
 13
-62.000364317253
 23
-197.120293757354
 14
-76.000364317253
 24
-197.120293757354
100
AcDbRotatedDimension
  0
DIMENSION
  5
3B8
100
AcDbEntity
  8
0
100
AcDbDimension
  2
*D47
 10
-43.000364317253
 20
-159.693304229666
 11
-57.042822781218
 21
-154.443304229666
 31
0.0
  1
<>
  3
ME10_DIM_15
100
AcDbAlignedDimension
 13
-95.000364317253
 23
-166.120293757354
 14
-43.000364317253
 24
-166.120293757354
100
AcDbRotatedDimension
  0
DIMENSION
  5
3A7
100
AcDbEntity
  8
0
100
AcDbDimension
  2
*D44
 10
-119.000364317252
 20
-27.061866525239
 11
-134.483471393688
 21
-21.811866525239
 31
0.0
  1
<>
  3
ME10_DIM_14
100
AcDbAlignedDimension
 13
-126.000364317252
 23
-50.120293757354
 14
-119.000364317252
 24
-47.120293757354
100
AcDbRotatedDimension
  0
DIMENSION
  5
394
100
AcDbEntity
  8
0
100
AcDbDimension
  2
*D41
 10
19.499635682747
 20
-37.628731804763
 11
1.620352491745
 21
-32.378731804763
 31
0.0
  1
<>
  3
ME10_DIM_13
100
AcDbAlignedDimension
 13
-10.500364317252
 23
-76.522217546001
 14
19.499635682747
 24
-80.120293757354
100
AcDbRotatedDimension
  0
DIMENSION
  5
383
100
AcDbEntity
  8
0
100
AcDbDimension
  2
*D38
 10
-157.500364317252
 20
-37.628731804763
 11
-141.620032500722
 21
-32.378731804763
 31
0.0
  1
<>
  3
ME10_DIM_12
100
AcDbAlignedDimension
 13
-127.500364317252
 23
-76.522217546001
 14
-157.500364317252
 24
-80.120293757354
100
AcDbRotatedDimension
  0
DIMENSION
  5
372
100
AcDbEntity
  8
0
100
AcDbDimension
  2
*D35
 10
-183.080746786437
 20
-124.120293757354
 11
-189.455746786437
 21
-85.585101359477
 31
0.0
 53
90.0
  1
<>
  3
ME10_DIM_11
100
AcDbAlignedDimension
 13
-126.000364317252
 23
-50.120293757354
 14
-126.000364317252
 24
-124.120293757354
 50
90.0
100
AcDbRotatedDimension
  0
DIMENSION
  5
361
100
AcDbEntity
  8
0
100
AcDbDimension
  2
*D32
 10
-167.878545220879
 20
-94.120293757354
 11
-174.253545220879
 21
-67.668663003313
 31
0.0
 53
90.0
  1
<>
  3
ME10_DIM_10
100
AcDbAlignedDimension
 13
-157.500364317252
 23
-80.120293757354
 14
-157.500364317252
 24
-94.120293757354
 50
90.0
100
AcDbRotatedDimension
  0
DIMENSION
  5
34F
100
AcDbEntity
  8
0
100
AcDbDimension
  2
*D29
 10
-69.000364317252
 20
-0.402626043696
 11
-114.341944193481
 21
5.072373956304
 31
0.0
  1
<>
  3
ME10_DIM_9
100
AcDbAlignedDimension
 13
-157.500364317252
 23
-80.120293757354
 14
-69.000364317252
 24
-45.756478888941
100
AcDbRotatedDimension
  0
DIMENSION
  5
33D
100
AcDbEntity
  8
0
100
AcDbDimension
  2
*D26
 10
-69.000364317252
 20
-0.402626043696
 11
-24.950538082469
 21
5.072373956304
 31
0.0
  1
<>
  3
ME10_DIM_8
100
AcDbAlignedDimension
 13
19.499635682747
 23
-80.120293757354
 14
-69.000364317252
 24
-45.756478888941
100
AcDbRotatedDimension
  0
DIMENSION
  5
32B
100
AcDbEntity
  8
0
100
AcDbDimension
  2
*D23
 10
-69.000364317252
 20
-13.112073873264
 11
-98.245742450019
 21
-7.862073873264
 31
0.0
  1
<>
  3
ME10_DIM_7
100
AcDbAlignedDimension
 13
-126.000364317252
 23
-50.120293757354
 14
-69.000364317252
 24
-45.756478888941
100
AcDbRotatedDimension
  0
DIMENSION
  5
319
100
AcDbEntity
  8
0
100
AcDbDimension
  2
*D20
 10
-119.000364317252
 20
-27.061866525239
 11
-69.390071879012
 21
-21.811866525239
 31
0.0
  1
<>
  3
ME10_DIM_6
100
AcDbAlignedDimension
 13
-19.000364317253
 23
-47.120293757354
 14
-119.000364317252
 24
-47.120293757354
100
AcDbRotatedDimension
  0
DIMENSION
  5
308
100
AcDbEntity
  8
0
100
AcDbDimension
  2
*D17
 10
-99.000364317253
 20
-37.628731804763
 11
-68.916928657541
 21
-32.378731804763
 31
0.0
  1
<>
  3
ME10_DIM_5
100
AcDbAlignedDimension
 13
-39.000364317252
 23
-53.820293757354
 14
-99.000364317252
 24
-53.820293757354
100
AcDbRotatedDimension
  0
DIMENSION
  5
2F7
100
AcDbEntity
  8
0
100
AcDbDimension
  2
*D14
 10
48.435362640064
 20
45.434370264789
 11
43.185362640064
 21
86.213375232774
 31
0.0
 53
90.0
  1
<>
  3
ME10_DIM_4
100
AcDbAlignedDimension
 13
-19.000364317252
 23
125.434370264789
 14
-19.000364317252
 24
45.434370264789
 50
90.0
100
AcDbRotatedDimension
  0
DIMENSION
  5
2E6
100
AcDbEntity
  8
0
100
AcDbDimension
  2
*D11
 10
35.363102366092
 20
55.434370264789
 11
30.113102366092
 21
85.679813588939
 31
0.0
 53
90.0
  1
<>
  3
ME10_DIM_3
100
AcDbAlignedDimension
 13
-35.700364317252
 23
115.434370264789
 14
-35.700364317252
 24
55.434370264789
 50
90.0
100
AcDbRotatedDimension
  0
DIMENSION
  5
2D5
100
AcDbEntity
  8
0
100
AcDbDimension
  2
*D8
 10
-99.000364317252
 20
136.779993011022
 11
-70.196486675004
 21
142.029993011022
 31
0.0
  1
<>
  3
ME10_DIM_2
100
AcDbAlignedDimension
 13
-39.000364317252
 23
118.734370264789
 14
-99.000364317252
 24
118.734370264789
100
AcDbRotatedDimension
  0
DIMENSION
  5
2C4
100
AcDbEntity
  8
0
100
AcDbDimension
  2
*D5
 10
148.188712166227
 20
55.434370264789
 11
142.938712166227
 21
85.103378529613
 31
0.0
 53
90.0
  1
<>
  3
ME10_DIM_1
100
AcDbAlignedDimension
 13
163.913516471511
 23
115.434370264789
 14
163.913516471511
 24
55.434370264789
 50
90.0
100
AcDbRotatedDimension
  0
DIMENSION
  5
2B3
100
AcDbEntity
  8
0
100
AcDbDimension
  2
*D2
 10
167.213516471511
 20
136.779993011022
 11
196.587733692645
 21
142.029993011022
 31
0.0
  1
<>
  3
ME10_DIM_0
100
AcDbAlignedDimension
 13
227.213516471511
 23
118.734370264789
 14
167.213516471511
 24
118.734370264789
100
AcDbRotatedDimension
  0
TEXT
  5
2A2
100
AcDbEntity
  8
1
 62
           2
100
AcDbText
 10
-25.571158931478
 20
-18.016043434784
 40
4.5
  1
M6x9
 41
0.9
  7
CONVERTER_3
100
AcDbText
  0
TEXT
  5
2A1
100
AcDbEntity
  8
1
 62
           2
100
AcDbText
 10
244.19640466638
 20
140.739094664677
 40
4.5
  1
M6x9
 41
0.9
  7
CONVERTER_3
100
AcDbText
  0
TEXT
  5
2A0
100
AcDbEntity
  8
1
 62
           2
100
AcDbText
 10
-22.017476122384
 20
140.739094664677
 40
4.5
  1
M6x9
 41
0.9
  7
CONVERTER_3
100
AcDbText
  0
LINE
  5
29F
100
AcDbEntity
  8
1
  6
CONTINUOUS
 62
           3
100
AcDbLine
 10
-26.809253140473
 20
-19.463898315988
 11
-9.311076692726
 21
-19.463898315988
  0
LINE
  5
29E
100
AcDbEntity
  8
1
  6
CONTINUOUS
 62
           3
100
AcDbLine
 10
-26.809253140473
 20
-19.463898315988
 11
-39.000364317253
 21
-57.120293757354
  0
LINE
  5
29D
100
AcDbEntity
  8
1
  6
CONTINUOUS
 62
           3
100
AcDbLine
 10
242.958310457385
 20
139.291239783473
 11
227.213516471511
 21
115.434370264789
  0
LINE
  5
29C
100
AcDbEntity
  8
1
  6
CONTINUOUS
 62
           3
100
AcDbLine
 10
242.958310457385
 20
139.291239783473
 11
260.456486905133
 21
139.291239783473
  0
LINE
  5
29B
100
AcDbEntity
  8
1
  6
CONTINUOUS
 62
           3
100
AcDbLine
 10
-23.255570331378
 20
139.291239783473
 11
-5.757393883631
 21
139.291239783473
  0
LINE
  5
29A
100
AcDbEntity
  8
1
  6
CONTINUOUS
 62
           3
100
AcDbLine
 10
-23.255570331378
 20
139.291239783473
 11
-39.000364317252
 21
115.434370264789
  0
INSERT
  5
2C
100
AcDbEntity
  8
0
100
AcDbBlockReference
  2
DINA3_INTERNETRAHMEN
 10
350.761743428828
 20
-263.876931105074
 41
1.5
 42
1.5
  0
INSERT
  5
2D
100
AcDbEntity
  8
0
100
AcDbBlockReference
  2
GETRIEBE
 10
-212.906694427027
 20
-202.120293757354
  0
ENDSEC
  0
SECTION
  2
OBJECTS
  0
DICTIONARY
  5
19
100
AcDbDictionary
  3
ACAD_GROUP
350
1A
  3
ACAD_MLINESTYLE
350
1B
  0
DICTIONARY
  5
1A
102
{ACAD_REACTORS
330
19
102
}
100
AcDbDictionary
  0
DICTIONARY
  5
1B
102
{ACAD_REACTORS
330
19
102
}
100
AcDbDictionary
  3
STANDARD
350
1C
  0
MLINESTYLE
  5
1C
102
{ACAD_REACTORS
330
1B
102
}
100
AcDbMlineStyle
  2
STANDARD
 70
           0
  3

 62
           0
 51
90.0
 52
90.0
 71
           2
 49
0.5
 62
         256
  6
BYLAYER
 49
-0.5
 62
         256
  6
BYLAYER
  0
ENDSEC
  0
EOF
